osu file format v14

[General]
AudioFilename: audio.mp3
AudioLeadIn: 0
PreviewTime: 53477
Countdown: 0
SampleSet: None
StackLeniency: 0.3
Mode: 0
LetterboxInBreaks: 0
WidescreenStoryboard: 0

[Editor]
DistanceSpacing: 0.5
BeatDivisor: 8
GridSize: 4
TimelineZoom: 1.8

[Metadata]
Title:Hollywood
TitleUnicode:Hollywood
Artist:Neptune
ArtistUnicode:Neptune
Creator:Bandi
Version:Smoothie World's Extra
Source:
Tags:Dubstep Wub Smoothie World Fort CiiyusMiapah
BeatmapID:987827
BeatmapSetID:458385

[Difficulty]
HPDrainRate:6
CircleSize:4
OverallDifficulty:8.4
ApproachRate:9.3
SliderMultiplier:2
SliderTickRate:2

[Events]
//Background and Video events
0,0,"Hollywood.jpg",0,0
//Break Periods
2,17462,26994
2,28177,29566
2,31605,32994
2,35034,36423
2,38462,39851
//Storyboard Layer 0 (Background)
//Storyboard Layer 1 (Fail)
//Storyboard Layer 2 (Pass)
//Storyboard Layer 3 (Foreground)
//Storyboard Sound Samples

[TimingPoints]
120,428.571428571429,4,2,1,65,1,0
120,-125,4,2,1,65,0,0
30120,-125,4,2,1,20,0,0
30227,-125,4,2,1,25,0,0
30334,-125,4,2,1,30,0,0
30441,-125,4,2,1,35,0,0
30548,-125,4,2,1,40,0,0
30762,-125,4,2,1,50,0,0
30976,-125,4,2,1,60,0,0
31405,-125,4,2,1,65,0,0
33548,-125,4,2,1,20,0,0
34191,-125,4,2,1,50,0,0
34405,-125,4,2,1,60,0,0
34834,-125,4,2,1,65,0,0
36977,-125,4,2,1,20,0,0
37084,-125,4,2,1,25,0,0
37191,-125,4,2,1,30,0,0
37298,-125,4,2,1,35,0,0
37405,-125,4,2,1,40,0,0
37620,-125,4,2,1,50,0,0
37834,-125,4,2,1,60,0,0
38262,-125,4,2,1,65,0,0
40405,-125,4,2,1,20,0,0
40834,-125,4,2,1,40,0,0
41048,-125,4,2,1,50,0,0
41262,-125,4,2,1,60,0,0
56691,-76.9230769230769,4,1,1,65,0,1
57120,-58.8235294117647,4,1,1,65,0,1
57548,-76.9230769230769,4,1,1,65,0,1
57977,-58.8235294117647,4,1,1,65,0,1
58191,-76.9230769230769,4,1,1,65,0,1
58673,-76.9230769230769,4,1,1,5,0,1
58834,-76.9230769230769,4,1,1,65,0,1
58887,-76.9230769230769,4,1,1,5,0,1
59048,-76.9230769230769,4,1,1,65,0,1
59102,-76.9230769230769,4,1,1,5,0,1
59262,-76.9230769230769,4,1,1,65,0,1
59477,-58.8235294117647,4,1,1,65,0,1
60120,-76.9230769230769,4,1,1,65,0,1
60548,-58.8235294117647,4,1,1,65,0,1
60977,-76.9230769230769,4,1,1,65,0,1
61405,-58.8235294117647,4,1,1,65,0,1
61620,-76.9230769230769,4,1,1,65,0,1
62905,-58.8235294117647,4,1,1,65,0,1
63548,-76.9230769230769,4,1,1,65,0,1
63977,-58.8235294117647,4,1,1,65,0,1
64405,-76.9230769230769,4,1,1,65,0,1
64834,-58.8235294117647,4,1,1,65,0,1
65048,-76.9230769230769,4,1,1,65,0,1
65530,-76.9230769230769,4,1,1,5,0,1
65584,-76.9230769230769,4,1,1,65,0,1
65637,-76.9230769230769,4,1,1,5,0,1
65691,-76.9230769230769,4,1,1,65,0,1
65745,-76.9230769230769,4,1,1,5,0,1
65905,-76.9230769230769,4,1,1,65,0,1
65959,-76.9230769230769,4,1,1,5,0,1
66120,-76.9230769230769,4,1,1,65,0,1
66548,-58.8235294117647,4,1,1,65,0,1
66977,-76.9230769230769,4,1,1,65,0,1
67405,-58.8235294117647,4,1,1,65,0,1
67834,-76.9230769230769,4,1,1,65,0,1
68262,-58.8235294117647,4,1,1,65,0,1
68477,-76.9230769230769,4,1,1,65,0,1
68905,-58.8235294117647,4,1,1,65,0,1
70405,-125,4,1,1,65,0,0
71262,-83.3333333333333,4,1,1,65,0,0
71691,-71.4285714285714,4,1,1,65,0,0
72120,-83.3333333333333,4,1,1,65,0,0
72977,-71.4285714285714,4,1,1,65,0,0
73459,-71.4285714285714,4,1,1,35,0,0
73620,-71.4285714285714,4,1,1,65,0,0
73673,-71.4285714285714,4,1,1,5,0,0
73834,-125,4,1,1,65,0,0
74262,-71.4285714285714,4,1,1,65,0,0
75548,-125,4,1,1,65,0,0
76405,-71.4285714285714,4,1,1,65,0,0
77262,-125,4,1,1,65,0,0
78120,-83.3333333333333,4,1,1,65,0,0
78548,-71.4285714285714,4,1,1,65,0,0
80316,-71.4285714285714,4,1,1,5,0,0
80477,-71.4285714285714,4,1,1,65,0,0
80530,-71.4285714285714,4,1,1,5,0,0
80691,-71.4285714285714,4,1,1,65,0,0
81173,-71.4285714285714,4,1,1,5,0,0
81334,-71.4285714285714,4,1,1,65,0,0
81387,-71.4285714285714,4,1,1,5,0,0
81548,-83.3333333333333,4,2,1,65,0,0
82191,-125,4,2,1,65,0,0
83477,-125,4,2,1,25,0,0
83584,-125,4,2,1,45,0,0
83691,-71.4285714285714,4,2,1,65,0,0
84120,-125,4,3,1,65,0,0
84977,-71.4285714285714,4,3,1,65,0,0
85405,-83.3333333333333,4,3,1,65,0,0
86262,-71.4285714285714,4,3,1,65,0,0
86316,-71.4285714285714,4,3,1,5,0,0
86477,-71.4285714285714,4,3,1,65,0,0
86530,-71.4285714285714,4,3,1,5,0,0
86691,-71.4285714285714,4,3,1,65,0,0
86745,-71.4285714285714,4,3,1,5,0,0
86905,-71.4285714285714,4,3,1,65,0,0
87548,-125,4,3,1,65,0,0
88405,-71.4285714285714,4,3,1,65,0,0
89048,-83.3333333333333,4,3,1,65,0,0
90977,-71.4285714285714,4,3,1,65,0,0
91405,-125,4,3,1,65,0,0
91834,-71.4285714285714,4,3,1,65,0,0
92262,-83.3333333333333,4,3,1,65,0,0
92477,-125,4,3,1,65,0,0
93120,-71.4285714285714,4,3,1,65,0,0
93173,-71.4285714285714,4,3,1,5,0,0
93334,-71.4285714285714,4,3,1,65,0,0
93387,-71.4285714285714,4,3,1,5,0,0
93548,-71.4285714285714,4,3,1,65,0,0
94405,-125,4,3,1,65,0,0
95262,-83.3333333333333,4,3,1,65,0,0
95691,-71.4285714285714,4,3,1,65,0,0
96120,-125,4,3,1,65,0,0
96977,-83.3333333333333,4,3,1,65,0,0
97405,-71.4285714285714,4,3,1,65,0,0
97834,-71.4285714285714,4,2,1,65,0,0
98262,-125,4,2,1,65,0,0
100620,-83.3333333333333,4,2,1,65,0,0
101262,-125,4,2,1,65,0,0
103834,-71.4285714285714,4,2,1,65,0,0
103887,-71.4285714285714,4,2,1,5,0,0
104048,-71.4285714285714,4,2,1,65,0,0
104102,-71.4285714285714,4,2,1,5,0,0
104262,-71.4285714285714,4,2,1,65,0,0
105120,-125,4,2,1,65,0,0
107477,-83.3333333333333,4,2,1,65,0,0
108120,-125,4,2,1,65,0,0
110691,-83.3333333333333,4,2,1,65,0,0
111548,-125,4,2,1,65,0,0
117548,-83.3333333333333,4,2,1,65,0,0
118834,-125,4,2,1,65,0,0

[Colours]
Combo1 : 193,19,63
Combo2 : 86,134,186
Combo3 : 149,125,191
Combo4 : 0,105,210
Combo5 : 126,64,255
Combo6 : 6,180,230
Combo7 : 162,30,86
Combo8 : 182,39,168

[HitObjects]
152,179,120,6,0,B|205:200|205:200|288:176,1,120,2|0,0:0|0:0,0:0:0:0:
204,240,548,2,0,L|211:341,1,80,4|4,0:0|0:0,0:0:0:0:
211,115,977,1,12,0:0:0:0:
280,374,1191,1,4,0:0:0:0:
354,207,1405,1,0,0:0:0:0:
354,207,1512,1,0,0:0:0:0:
84,106,1834,6,0,B|129:111|129:111|159:101|159:101|236:109,1,120,2|4,0:0|0:0,0:0:0:0:
66,188,2262,2,0,P|59:148|74:112,1,80,0|4,0:0|0:0,0:0:0:0:
264,39,2691,1,8,0:0:0:0:
115,34,2905,1,4,0:0:0:0:
199,216,3120,2,0,L|207:167,1,40,0|4,0:0|0:0,0:0:0:0:
291,118,3334,1,2,0:0:0:0:
291,118,3441,1,0,0:0:0:0:
291,118,3548,102,0,P|318:166|304:233,1,120,2|0,0:0|0:0,0:0:0:0:
284,312,3977,2,4,P|282:257|308:222,1,80
406,185,4405,1,12,0:0:0:0:
201,234,4620,1,4,0:0:0:0:
359,288,4834,1,4,0:0:0:0:
359,288,4941,1,0,0:0:0:0:
200,121,5262,6,0,B|182:159|182:159|176:197|211:251,1,120,2|4,0:0|0:0,0:0:0:0:
139,165,5691,2,0,B|98:156|98:156|55:161,1,80,0|4,0:0|0:0,0:0:0:0:
261,176,6120,1,8,0:0:0:0:
87,247,6334,1,4,0:0:0:0:
204,81,6548,2,0,L|198:133,1,40,2|4,0:0|0:0,0:0:0:0:
183,258,6762,1,8,0:0:0:0:
318,84,6977,102,0,B|265:65|265:65|192:83,1,120,2|0,0:0|0:0,0:0:0:0:
355,149,7405,2,4,P|387:114|387:60,1,80
196,85,7834,1,12,0:0:0:0:
302,211,8048,1,4,0:0:0:0:
349,7,8262,1,0,0:0:0:0:
349,7,8370,1,0,0:0:0:0:
423,206,8691,6,0,B|394:211|373:204|373:204|348:216|348:216|278:215,1,120,2|4,0:0|0:0,0:0:0:0:
435,202,9120,2,0,P|482:210|524:243,1,80,0|4,0:0|0:0,0:0:0:0:
372,304,9548,1,8,0:0:0:0:
408,134,9762,1,4,0:0:0:0:
469,321,9977,2,0,L|445:273,1,40,0|4,0:0|0:0,0:0:0:0:
318,107,10191,2,0,L|300:142,1,40,2|0,0:0|0:0,0:0:0:0:
197,236,10405,102,0,P|252:212|323:250,1,120,2|4,0:0|0:0,0:0:0:0:
249,364,10834,2,0,B|242:324|242:324|258:279,1,80,0|4,0:0|0:0,0:0:0:0:
369,183,11262,1,12,0:0:0:0:
197,236,11477,1,4,0:0:0:0:
331,331,11691,1,4,0:0:0:0:
331,331,11798,1,0,0:0:0:0:
227,114,12120,6,0,B|220:155|220:155|202:180|202:180|195:235,1,120,2|4,0:0|0:0,0:0:0:0:
149,115,12548,2,0,L|161:29,1,80,0|4,0:0|0:0,0:0:0:0:
160,35,12870,1,0,0:0:0:0:
160,35,12977,1,8,0:0:0:0:
80,174,13191,1,6,0:0:0:0:
266,120,13405,2,0,L|208:110,1,40,0|6,0:0|0:0,0:0:0:0:
72,88,13620,1,8,0:0:0:0:
238,302,13834,101,2,0:0:0:0:
256,192,14048,12,0,17262,0:0:0:0:
298,67,27548,117,2,0:0:0:0:
238,255,27977,1,2,0:0:0:0:
300,117,30120,6,2,L|295:173,1,40
270,351,30334,2,2,L|273:311,1,40
284,236,30548,1,2,0:0:0:0:
284,236,30762,1,2,0:0:0:0:
387,341,30977,101,2,0:0:0:0:
107,291,31405,1,2,0:0:0:0:
103,171,33548,6,0,B|175:112|253:163|253:163|240:197|157:190,1,240,2|2,0:0|0:0,0:0:0:0:
185,191,34405,101,2,0:0:0:0:
295,11,34834,1,2,0:0:0:0:
199,264,36977,6,0,L|253:266,1,40,2|2,0:0|0:0,0:0:0:0:
430,277,37191,2,0,L|390:275,1,40,2|2,0:0|0:0,0:0:0:0:
314,271,37405,1,2,0:0:0:0:
314,271,37620,1,2,0:0:0:0:
426,170,37834,101,2,0:0:0:0:
226,383,38262,1,2,0:0:0:0:
250,229,40405,6,0,B|248:289|248:289|226:320|226:320|225:385,1,160,2|2,0:0|0:0,0:0:0:0:
225,381,41048,1,2,0:0:0:0:
125,246,41262,101,2,0:0:0:0:
349,194,41691,1,2,0:0:0:0:
34,149,42977,5,2,0:0:0:0:
125,246,44691,101,2,0:0:0:0:
349,43,46405,5,2,0:0:0:0:
281,330,48120,101,2,1:0:0:0:
331,207,48334,1,0,0:0:0:0:
155,337,48548,5,2,1:0:0:0:
308,247,48762,1,0,0:0:0:0:
85,214,48977,101,2,1:0:0:0:
267,267,49191,1,0,0:0:0:0:
113,98,49405,5,2,1:0:0:0:
222,260,49619,1,0,0:0:0:0:
369,25,49834,101,2,1:0:0:0:
222,136,50048,1,0,0:0:0:0:
144,26,50262,5,2,1:0:0:0:
365,141,50476,1,0,0:0:0:0:
448,27,50691,101,2,1:0:0:0:
136,173,50905,1,0,0:0:0:0:
64,27,51120,5,2,1:0:0:0:
450,192,51334,1,0,0:0:0:0:
262,81,51548,101,2,1:0:0:0:
256,100,51655,1,0,0:0:0:0:
253,119,51762,1,2,1:0:0:0:
253,139,51870,1,0,0:0:0:0:
257,158,51977,5,2,1:0:0:0:
281,194,52084,1,0,0:0:0:0:
286,237,52191,1,2,1:0:0:0:
271,278,52298,1,0,0:0:0:0:
230,295,52405,101,2,1:0:0:0:
166,286,52512,1,2,1:0:0:0:
123,237,52620,1,2,1:0:0:0:
128,173,52727,1,2,1:0:0:0:
181,137,52834,5,2,1:0:0:0:
254,156,52941,1,2,1:0:0:0:
329,154,53048,1,2,1:0:0:0:
402,133,53155,1,2,1:0:0:0:
451,75,53262,5,8,1:0:0:0:
451,75,56691,6,0,B|423:149|423:149|430:202|430:202|389:306,1,194.999991073609,6|0,3:0|0:0,0:0:0:0:
314,123,57120,6,0,P|373:115|446:151,1,85.0000016212464
450,333,57334,2,0,P|391:341|328:308,1,85.0000016212464
274,204,57548,102,0,B|230:163|230:163|210:317,1,194.999991073609,8|0,0:0|0:0,0:0:0:0:
210,147,57977,6,0,L|221:44,1,85.0000016212464
75,241,58191,102,0,P|156:324|215:293,1,194.999991073609
265,360,58620,2,0,L|312:367,1,32.4999985122681
285,242,58834,2,0,L|332:249,1,32.4999985122681
302,124,59048,2,0,L|349:131,1,32.4999985122681
265,360,59262,101,8,0:0:0:0:
107,163,59477,2,0,B|151:153|151:153|238:182,1,85.0000016212464,0|0,3:0|3:0,3:0:0:0:
91,328,59691,2,0,B|60:294|60:294|41:205,1,85.0000016212464,0|0,3:0|3:0,3:0:0:0:
241,260,59905,2,0,B|227:303|227:303|159:363,1,85.0000016212464,0|0,3:0|3:0,3:0:0:0:
107,163,60120,6,0,B|98:33|98:33|110:75|149:88,1,194.999991073609,6|0,3:0|0:0,0:0:0:0:
258,27,60548,6,0,P|196:12|153:27,1,85.0000016212464
241,260,60762,2,0,P|283:263|322:249,1,85.0000016212464
338,46,60977,102,0,B|330:106|330:106|345:143|345:143|337:244,1,194.999991073609,8|0,0:0|0:0,0:0:0:0:
455,127,61405,6,0,L|353:116,1,85.0000016212464
126,238,61620,2,0,P|203:274|267:230,1,129.999994049073,0|2,0:0|0:0,0:0:0:0:
62,358,62048,101,0,0:0:0:0:
32,276,62155,1,0,0:0:0:0:
5,192,62262,2,0,L|86:189,1,64.9999970245363
249,108,62477,2,0,L|168:105,1,64.9999970245363
53,99,62691,5,8,3:0:0:0:
53,99,62798,1,0,3:0:0:0:
195,24,62905,102,0,P|198:75|169:120,1,85.0000016212464,0|0,3:0|3:0,3:0:0:0:
257,268,63120,2,0,P|250:236|268:179,1,85.0000016212464,0|0,3:0|3:0,3:0:0:0:
326,2,63334,2,0,P|320:33|334:92,1,85.0000016212464,0|0,3:0|3:0,3:0:0:0:
500,241,63548,6,0,B|443:244|411:205|411:205|378:247|290:232,1,194.999991073609,6|0,3:0|0:0,0:0:0:0:
482,162,63977,102,0,B|497:122|497:122|478:44,1,85.0000016212464
263,186,64191,2,0,L|137:179,1,85.0000016212464
373,348,64405,6,0,P|442:295|368:192,1,194.999991073609,8|0,0:0|0:0,0:0:0:0:
254,271,64834,102,0,B|244:309|244:309|257:354,1,85.0000016212464
342,154,65048,6,0,B|346:102|346:102|360:76|360:76|364:-3,1,129.999994049073,0|2,0:0|0:0,0:0:0:0:
203,105,65477,102,0,L|145:102,1,32.4999985122681
178,181,65584,2,0,L|120:178,1,32.4999985122681
144,254,65691,2,0,L|86:251,1,32.4999985122681
84,52,65905,2,0,L|26:49,1,32.4999985122681
121,330,66120,5,8,0:0:0:0:
77,131,66334,1,0,0:0:0:0:
227,256,66548,102,0,B|186:263|186:263|108:245,1,85.0000016212464,0|0,3:0|3:0,3:0:0:0:
163,26,66762,2,0,B|204:19|204:19|246:28,1,85.0000016212464,0|0,3:0|3:0,3:0:0:0:
299,210,66977,6,0,B|346:240|346:240|371:75,1,194.999991073609,6|0,3:0|0:0,0:0:0:0:
384,226,67405,102,0,P|411:287|448:308,1,85.0000016212464
407,36,67620,2,0,P|340:28|303:50,1,85.0000016212464
235,302,67834,6,0,B|241:235|241:235|277:184|277:184|288:108,1,194.999991073609,8|0,0:0|0:0,0:0:0:0:
384,226,68262,2,0,P|437:238|481:230,1,85.0000016212464
282,109,68477,102,0,B|232:81|185:106|185:106|214:135|198:160,1,129.999994049073,0|2,0:0|0:0,0:0:0:0:
303,353,68905,6,0,B|319:312|319:312|309:232,1,85.0000016212464,8|0,3:0|3:0,3:0:0:0:
144,244,69120,2,0,B|128:203|128:203|138:123,1,85.0000016212464,8|0,3:0|3:0,3:0:0:0:
255,25,69334,1,2,0:0:0:0:
282,109,69441,1,2,0:0:0:0:
356,55,69548,101,2,3:0:0:0:
383,139,69655,1,0,3:0:0:0:
419,222,69762,2,0,L|411:314,1,85.0000016212464,8|0,3:0|3:0,3:0:0:0:
381,130,69977,2,0,P|441:120|488:154,1,85.0000016212464,2|0,3:0|3:0,3:0:0:0:
303,353,70191,2,0,L|157:359,1,85.0000016212464,8|0,3:0|3:0,3:0:0:0:
74,102,70405,22,0,B|133:82|133:82|203:103,1,120,6|0,3:0|3:0,3:0:0:0:
369,28,70834,2,0,B|310:8|310:8|240:29,1,120,2|0,3:0|3:0,3:0:0:0:
206,224,71262,6,0,P|192:158|315:133,1,179.999994506836,8|0,0:0|0:0,0:0:0:0:
203,234,71691,102,0,P|168:231|134:221,1,69.9999978637696,0|0,3:0|3:0,3:0:0:0:
218,356,71905,2,0,P|252:353|286:343,1,69.9999978637696,0|0,3:0|3:0,3:0:0:0:
290,230,72120,6,0,B|269:283|269:283|290:357,1,119.999996337891,2|0,3:0|3:0,3:0:0:0:
444,270,72441,1,0,3:0:0:0:
393,208,72548,2,0,P|368:256|372:294,1,59.9999981689454,0|0,3:0|3:0,3:0:0:0:
418,384,72762,1,0,3:0:0:0:
490,173,72977,102,0,B|432:160|393:209|393:209|393:141|304:123,1,209.999993591309,8|0,0:0|0:0,0:0:0:0:
263,217,73405,2,0,L|319:217,1,34.9999989318848,0|0,3:0|3:0,3:0:0:0:
428,95,73620,2,0,L|484:95,1,34.9999989318848,0|0,3:0|3:0,3:0:0:0:
203,270,73834,6,0,B|174:216|174:216|214:154,1,120,6|0,3:0|3:0,3:0:0:0:
82,295,74262,2,0,L|78:351,1,34.9999989318848,0|0,3:0|3:0,3:0:0:0:
88,158,74477,2,0,L|84:214,1,34.9999989318848,0|0,3:0|3:0,3:0:0:0:
160,81,74691,101,8,3:0:0:0:
247,73,74798,1,0,3:0:0:0:
210,158,74905,1,0,3:0:0:0:
297,150,75012,1,0,3:0:0:0:
387,141,75120,2,0,L|481:134,1,69.9999978637696,0|0,3:0|3:0,3:0:0:0:
343,325,75334,2,0,L|249:318,1,69.9999978637696,0|0,3:0|3:0,3:0:0:0:
439,217,75548,6,0,B|450:261|450:261|436:316,1,80,2|0,3:0|3:0,3:0:0:0:
441,294,75977,1,0,3:0:0:0:
456,135,76084,1,0,3:0:0:0:
456,135,76298,1,0,3:0:0:0:
383,23,76405,101,8,0:0:0:0:
318,69,76512,1,0,0:0:0:0:
310,146,76620,1,0,0:0:0:0:
351,210,76727,1,0,0:0:0:0:
299,153,76834,5,2,0:0:0:0:
223,139,76941,1,0,0:0:0:0:
150,164,77048,2,0,L|142:250,1,69.9999978637696,8|0,0:0|0:0,0:0:0:0:
84,106,77262,102,0,B|64:73|64:73|70:182,1,120,6|0,3:0|3:0,3:0:0:0:
201,74,77691,2,0,B|221:41|221:41|215:150,1,120,0|0,3:0|0:0,3:0:0:0:
201,235,78120,6,0,P|235:147|328:140,1,179.999994506836,8|0,0:0|0:0,0:0:0:0:
298,298,78548,102,0,B|290:263|290:263|302:206,1,69.9999978637696,0|0,3:0|3:0,3:0:0:0:
451,116,78762,2,0,B|456:148|456:148|450:184,1,69.9999978637696,0|0,3:0|3:0,3:0:0:0:
430,308,78977,5,2,3:0:0:0:
356,80,79191,1,0,3:0:0:0:
356,80,79298,1,0,3:0:0:0:
356,80,79405,2,0,P|299:69|243:95,1,69.9999978637696
207,305,79620,2,0,L|214:216,1,69.9999978637696
94,33,79834,102,0,L|99:102,1,69.9999978637696,8|0,0:0|0:0,0:0:0:0:
117,251,80048,1,0,3:0:0:0:
220,102,80262,2,0,L|177:104,1,34.9999989318848,0|0,3:0|3:0,3:0:0:0:
241,303,80477,2,0,L|198:305,1,34.9999989318848,0|0,3:0|3:0,3:0:0:0:
398,308,80691,6,0,B|444:248|399:178|399:178|440:167|453:117,1,209.999993591309,6|0,3:0|3:0,0:0:0:0:
330,88,81120,2,0,L|382:92,1,34.9999989318848,0|0,3:0|3:0,3:0:0:0:
282,241,81334,2,0,L|230:245,1,34.9999989318848,0|0,3:0|3:0,3:0:0:0:
99,102,81548,102,0,B|154:80|154:80|213:107,1,119.999996337891,8|0,3:0|3:0,3:0:0:0:
150,164,81870,1,0,3:0:0:0:
227,28,81977,2,0,L|293:25,1,59.9999981689454,0|0,3:0|3:0,3:0:0:0:
300,245,82191,86,0,P|290:194|287:182,1,40,0|0,3:0|3:0,3:0:0:0:
331,134,82405,1,2,3:0:0:0:
331,134,83477,5,2,0:0:0:0:
387,77,83584,1,2,0:0:0:0:
443,22,83691,2,0,B|478:15|478:15|540:19,1,69.9999978637696,8|0,3:0|0:0,0:0:0:0:
456,214,83905,2,0,B|421:216|421:216|386:209,1,69.9999978637696
207,151,84120,38,0,B|255:148|255:148|276:134|276:134|334:131,1,120,6|0,0:0|0:0,0:0:0:0:
196,160,84548,2,0,P|179:211|226:276,1,120
342,267,84977,6,0,B|282:246|282:246|181:290,1,139.999995727539,8|0,0:0|0:0,0:0:0:0:
92,375,85298,1,0,0:0:0:0:
33,302,85405,102,0,P|27:272|30:242,1,59.9999981689454
196,160,85620,2,0,P|201:130|198:100,1,59.9999981689454
146,22,85834,1,2,0:0:0:0:
106,215,86048,5,0,0:0:0:0:
193,172,86155,1,0,0:0:0:0:
284,134,86262,2,0,L|340:135,1,34.9999989318848
441,247,86477,2,0,L|416:202,1,34.9999989318848
448,52,86691,2,0,L|419:99,1,34.9999989318848,8|0,0:0|0:0,0:0:0:0:
276,333,86905,102,0,L|345:337,1,69.9999978637696
207,246,87120,2,0,L|169:303,1,69.9999978637696
310,226,87334,2,0,L|278:164,1,69.9999978637696
96,18,87548,6,0,P|84:68|133:127,1,120,6|0,0:0|0:0,0:0:0:0:
279,66,87977,2,0,B|235:65|235:65|215:58|215:58|150:58,1,120
87,244,88405,102,0,B|127:244|153:213|153:213|181:249|223:245,1,139.999995727539,8|0,0:0|0:0,0:0:0:0:
375,233,88727,1,0,0:0:0:0:
318,310,88834,2,0,B|285:316|285:316|214:306,1,69.9999978637696
87,244,89048,6,0,B|83:294|83:294|69:317|69:317|67:395,1,119.999996337891,0|2,0:0|0:0,0:0:0:0:
28,125,89477,102,0,P|73:112|111:117,1,59.9999981689454
168,128,89691,1,0,0:0:0:0:
251,153,89798,1,0,0:0:0:0:
242,67,89905,1,0,0:0:0:0:
327,85,90012,1,0,0:0:0:0:
414,108,90120,6,0,L|489:126,1,59.9999981689454,8|0,0:0|0:0,0:0:0:0:
456,258,90334,37,0,0:0:0:0:
428,270,90441,5,0,0:0:0:0:
380,265,90548,5,0,0:0:0:0:
330,221,90655,5,0,0:0:0:0:
251,192,90762,5,0,0:0:0:0:
158,235,90870,5,0,0:0:0:0:
140,334,90977,102,0,B|123:282|159:236|159:236|106:196|128:121,1,209.999993591309,6|0,0:0|0:0,0:0:0:0:
39,96,91405,6,0,P|91:102|138:33,1,120
211,162,91834,102,0,B|260:167|260:167|296:158|296:158|384:166,1,139.999995727539,8|0,0:0|0:0,0:0:0:0:
470,177,92155,5,0,0:0:0:0:
419,106,92262,2,0,P|422:48|437:21,1,59.9999981689454
403,236,92477,102,0,B|405:277|405:277|383:346,1,80,0|2,0:0|0:0,0:0:0:0:
172,352,92905,5,0,0:0:0:0:
232,306,93012,1,0,0:0:0:0:
291,260,93120,2,0,L|333:260,1,34.9999989318848
305,86,93334,2,0,L|347:86,1,34.9999989318848
470,177,93548,1,8,0:0:0:0:
247,28,93762,102,0,P|225:66|233:137,1,69.9999978637696
158,273,93977,2,0,P|180:235|172:164,1,69.9999978637696
86,49,94191,2,0,P|92:83|111:112,1,69.9999978637696
291,260,94405,6,0,B|331:257|352:219|352:219|383:286|464:269,1,200,6|0,0:0|0:0,0:0:0:0:
284,184,95048,2,0,L|280:135,1,40
339,324,95262,102,0,P|290:336|259:331,1,59.9999981689454,8|0,0:0|0:0,0:0:0:0:
99,261,95477,2,0,P|148:273|179:268,1,59.9999981689454
340,143,95691,6,0,P|284:183|254:191,1,69.9999978637696
104,29,95905,2,0,P|160:69|190:77,1,69.9999978637696
340,143,96120,102,0,B|385:132|415:152|415:152|445:149|474:164|474:164|447:131|460:88,1,200,6|0,0:0|0:0,0:0:0:0:
431,227,96762,2,0,P|428:253|438:296,1,40
408,47,96977,6,0,P|449:32|497:38,1,59.9999981689454,8|0,0:0|0:0,0:0:0:0:
340,143,97191,2,0,P|310:139|283:127,1,59.9999981689454
114,28,97405,102,0,P|139:84|136:128,1,69.9999978637696,2|0,0:0|0:0,0:0:0:0:
24,257,97620,2,0,P|31:223|50:193,1,69.9999978637696,8|0,0:0|0:0,0:0:0:0:
136,363,97834,21,6,3:0:0:0:
136,363,98262,2,4,L|142:277,1,80
260,140,98691,1,12,0:0:0:0:
253,234,98905,1,4,0:0:0:0:
413,206,99120,2,0,P|365:188|312:202,1,80
337,190,99441,1,0,0:0:0:0:
337,190,99548,5,2,0:0:0:0:
337,190,99977,2,0,B|346:152|346:152|334:80,1,80
361,266,100405,1,8,0:0:0:0:
225,283,100620,22,0,P|263:265|304:267,1,59.9999981689454,0|0,3:0|3:0,3:0:0:0:
495,294,100834,2,0,P|457:276|416:278,1,59.9999981689454,0|0,3:0|3:0,3:0:0:0:
227,301,101048,2,0,P|265:283|306:285,1,59.9999981689454,0|0,3:0|3:0,3:0:0:0:
499,310,101262,102,0,B|513:254|513:254|502:186,1,120,6|0,3:0|3:0,3:0:0:0:
477,177,101691,2,0,L|392:169,1,80,0|4,3:0|0:0,3:0:0:0:
208,106,102120,85,12,0:0:0:0:
309,74,102334,1,4,0:0:0:0:
250,215,102548,2,0,P|191:225|145:205,1,80,4|0,0:0|0:0,0:0:0:0:
172,220,102870,1,0,0:0:0:0:
172,220,102977,5,2,0:0:0:0:
172,220,103405,2,0,B|161:261|161:261|166:311,1,80
105,119,103834,22,0,L|61:114,1,34.9999989318848,8|0,3:0|3:0,3:0:0:0:
83,252,104048,2,0,L|39:247,1,34.9999989318848,0|0,3:0|3:0,3:0:0:0:
254,264,104262,1,2,3:0:0:0:
289,268,104370,1,0,3:0:0:0:
315,290,104477,1,8,3:0:0:0:
328,322,104584,1,0,3:0:0:0:
329,356,104691,69,6,3:0:0:0:
334,191,105120,2,4,P|350:140|400:107,1,80
413,187,105548,1,12,0:0:0:0:
367,43,105762,1,4,0:0:0:0:
235,123,105977,2,0,B|195:132|195:132|134:118,1,80
83,92,106298,1,0,0:0:0:0:
83,92,106405,6,0,L|81:191,1,80,2|0,0:0|0:0,0:0:0:0:
81,171,106727,1,0,0:0:0:0:
81,171,106834,1,0,0:0:0:0:
234,203,107048,1,0,0:0:0:0:
195,47,107262,1,8,0:0:0:0:
164,249,107477,22,0,P|203:280|245:284,1,59.9999981689454,0|0,3:0|3:0,3:0:0:0:
229,118,107691,2,0,P|182:136|158:170,1,59.9999981689454,0|0,3:0|3:0,3:0:0:0:
308,236,107905,2,0,P|315:186|297:148,1,59.9999981689454,0|0,3:0|3:0,3:0:0:0:
270,48,108120,102,0,B|293:59|303:78|303:78|348:41|405:56,1,120,6|0,3:0|3:0,3:0:0:0:
405,53,108548,2,0,P|397:114|409:155,1,80,0|4,3:0|0:0,0:0:0:0:
446,231,108977,85,12,0:0:0:0:
380,304,109191,1,4,0:0:0:0:
228,238,109405,2,0,B|269:233|269:233|328:237,1,80,4|0,0:0|0:0,0:0:0:0:
307,235,109727,1,0,0:0:0:0:
306,235,109834,5,2,0:0:0:0:
162,324,110262,1,0,0:0:0:0:
112,86,110691,22,0,P|60:79|28:91,1,59.9999981689454,8|0,3:0|3:0,3:0:0:0:
94,246,110905,2,0,P|123:248|152:240,1,59.9999981689454,0|0,3:0|3:0,3:0:0:0:
270,140,111120,1,0,3:0:0:0:
299,134,111227,1,0,3:0:0:0:
328,137,111334,1,0,3:0:0:0:
356,147,111441,1,0,3:0:0:0:
379,165,111548,102,0,B|379:210|379:210|389:241|389:241|387:302,1,120,6|0,3:0|3:0,3:0:0:0:
356,361,111977,2,0,P|356:319|389:279,1,80,0|4,3:0|0:0,0:0:0:0:
469,236,112405,85,12,0:0:0:0:
291,273,112620,1,4,0:0:0:0:
433,349,112834,1,4,0:0:0:0:
433,349,112941,1,0,0:0:0:0:
227,214,113262,6,0,P|202:280|230:341,1,120,2|4,0:0|0:0,0:0:0:0:
227,348,113691,2,0,L|132:330,1,80,0|4,0:0|0:0,0:0:0:0:
88,177,114120,1,8,0:0:0:0:
67,330,114334,1,4,0:0:0:0:
170,143,114548,1,0,0:0:0:0:
170,143,114655,1,4,0:0:0:0:
306,328,114977,102,0,B|368:346|368:346|449:329,1,120,2|0,0:0|0:0,0:0:0:0:
425,248,115405,2,0,P|419:298|443:352,1,80,4|4,0:0|0:0,0:0:0:0:
395,166,115834,1,12,0:0:0:0:
497,303,116048,1,4,0:0:0:0:
302,238,116262,2,0,L|353:232,1,40,4|0,0:0|0:0,0:0:0:0:
512,178,116477,2,0,L|459:186,1,40,4|0,0:0|0:0,0:0:0:0:
395,166,116691,5,6,0:0:0:0:
304,317,117013,1,0,0:0:0:0:
304,317,117120,2,0,L|300:203,1,80,4|4,0:0|0:0,0:0:0:0:
364,23,117548,22,0,P|353:69|323:109,1,59.9999981689454,8|0,3:0|3:0,3:0:0:0:
196,82,117762,2,0,P|207:128|237:168,1,59.9999981689454,0|0,3:0|3:0,3:0:0:0:
301,237,117977,1,0,3:0:0:0:
318,262,118084,1,0,3:0:0:0:
324,292,118191,1,0,3:0:0:0:
317,322,118298,1,0,3:0:0:0:
301,348,118405,69,6,3:0:0:0:
395,166,118727,1,0,0:0:0:0:
395,166,118834,2,0,B|439:160|439:160|476:168,1,80,4|4,0:0|0:0,0:0:0:0:
439,248,119262,1,12,0:0:0:0:
471,85,119477,1,4,0:0:0:0:
313,141,119691,1,4,0:0:0:0:
313,141,119798,1,0,0:0:0:0:
313,141,120120,6,0,P|266:150|196:99,1,120,2|4,0:0|0:0,0:0:0:0:
222,34,120548,2,0,P|225:91|191:128,1,80,0|4,0:0|0:0,0:0:0:0:
117,189,120977,1,8,0:0:0:0:
259,232,121191,1,4,0:0:0:0:
150,64,121405,1,0,0:0:0:0:
150,64,121512,1,4,0:0:0:0:
172,309,121834,101,2,0:0:0:0:
172,309,122155,1,0,0:0:0:0:
172,309,122262,2,0,B|215:303|215:303|276:314,1,80,4|4,0:0|0:0,0:0:0:0:
345,348,122691,1,12,0:0:0:0:
392,162,122905,1,4,0:0:0:0:
232,228,123120,2,0,L|288:239,1,40,4|0,0:0|0:0,0:0:0:0:
498,235,123334,2,0,L|458:227,1,40,4|0,0:0|0:0,0:0:0:0:
367,255,123548,1,6,0:0:0:0:
