osu file format v14

[General]
AudioFilename: audio.mp3
AudioLeadIn: 0
PreviewTime: 53477
Countdown: 0
SampleSet: Soft
StackLeniency: 0.7
Mode: 0
LetterboxInBreaks: 0
WidescreenStoryboard: 1

[Editor]
DistanceSpacing: 1.3
BeatDivisor: 2
GridSize: 4
TimelineZoom: 1.8

[Metadata]
Title:Hollywood
TitleUnicode:Hollywood
Artist:Neptune
ArtistUnicode:Neptune
Creator:Bandi
Version:Normal
Source:
Tags:Dubstep Wub Smoothie World Fort CiiyusMiapah
BeatmapID:985446
BeatmapSetID:458385

[Difficulty]
HPDrainRate:3
CircleSize:2.8
OverallDifficulty:3
ApproachRate:5
SliderMultiplier:1.3
SliderTickRate:2

[Events]
//Background and Video events
0,0,"Hollywood.jpg",0,0
//Break Periods
2,14034,19800
2,53462,55371
//Storyboard Layer 0 (Background)
//Storyboard Layer 1 (Fail)
//Storyboard Layer 2 (Pass)
//Storyboard Layer 3 (Foreground)
//Storyboard Sound Samples

[TimingPoints]
120,428.571428571429,4,2,1,75,1,0
56691,-90.9090909090909,4,1,1,75,0,1
70405,-90.9090909090909,4,1,1,75,0,0
82405,-181.818181818182,4,1,1,75,0,0
82834,-181.818181818182,4,1,1,5,0,0
83262,-90.9090909090909,4,1,1,75,0,0
84120,-90.9090909090909,4,3,1,75,0,1
97834,-100,4,2,1,75,0,0
100620,-90.9090909090909,4,3,1,75,0,0
102120,-100,4,2,1,75,0,0
103834,-90.9090909090909,4,3,1,75,0,0
104691,-100,4,2,1,75,0,0
107477,-90.9090909090909,4,3,1,75,0,0
108977,-100,4,2,1,75,0,0
110691,-90.9090909090909,4,3,1,75,0,0
112405,-100,4,2,1,75,0,0
117548,-90.9090909090909,4,3,1,75,0,0
118405,-100,4,2,1,75,0,0
123762,-100,4,2,1,25,0,0

[Colours]
Combo1 : 193,19,63
Combo2 : 86,134,186
Combo3 : 149,125,191
Combo4 : 0,105,210
Combo5 : 126,64,255
Combo6 : 6,180,230
Combo7 : 162,30,86
Combo8 : 182,39,168

[HitObjects]
268,136,120,6,0,P|333:153|403:128,2,130
132,36,1405,1,0,0:0:0:0:
120,204,1834,2,0,L|108:344,1,130
40,180,2691,2,0,P|101:123|196:170,1,195,0|2,0:0|0:0,0:0:0:0:
240,235,3548,6,0,P|275:182|264:120,1,130,2|0,0:0|0:0,0:0:0:0:
144,237,4405,2,0,P|108:184|120:121,1,130,8|0,0:0|0:0,0:0:0:0:
240,235,5262,2,0,B|275:247|275:247|392:236,2,130,2|0|0,0:0|0:0|0:0,0:0:0:0:
192,164,6334,2,0,L|188:78,2,65,2|0|8,0:0|0:0|0:0,0:0:0:0:
240,235,6977,102,0,L|249:372,2,130,6|0|8,1:0|0:0|0:0,0:0:0:0:
396,172,8262,2,0,P|416:239|390:318,2,130,0|2|0,0:0|0:0|0:0,0:0:0:0:
240,235,9548,2,0,P|220:168|246:89,2,130,8|0|2,0:0|0:0|0:0,0:0:0:0:
348,364,10834,6,0,L|207:359,1,130
368,280,11691,2,0,P|421:316|433:379,1,130
256,192,12334,8,0,13834,0:0:0:0:
148,36,21120,118,0,P|183:32|233:40,1,65
183,121,21548,2,0,P|154:176|184:254,1,130
340,252,22405,2,0,P|369:197|339:119,1,130
297,69,23048,2,0,P|268:124|298:202,1,130
256,192,24120,12,0,27548,0:0:0:0:
448,72,29262,102,0,P|430:137|458:212,1,130
508,256,29905,2,0,P|526:321|498:396,2,130
422,279,30977,6,0,L|266:267,1,130
446,195,31834,2,0,L|290:183,1,130
470,111,32691,2,0,L|314:99,1,130
258,123,33334,2,0,L|122:115,2,130
322,184,34405,101,2,0:0:0:0:
364,348,34834,2,0,P|329:352|279:344,1,65
236,296,35262,2,0,P|175:314|82:274,1,130
108,128,36120,2,0,P|169:110|262:150,1,130
296,180,36762,2,0,P|357:198|450:158,1,130
260,380,37834,6,0,L|255:235,1,130
160,108,38691,2,0,L|165:253,1,130
48,360,39548,2,0,P|64:300|43:215,1,130
96,160,40191,2,0,B|244:156,2,130
12,156,41262,101,2,0:0:0:0:
148,52,41691,1,2,0:0:0:0:
175,82,42977,5,2,0:0:0:0:
196,104,44691,5,2,0:0:0:0:
208,136,46405,5,2,0:0:0:0:
220,160,48120,69,2,0:0:0:0:
380,104,48548,1,2,0:0:0:0:
352,272,48977,1,2,0:0:0:0:
294,110,49405,1,2,0:0:0:0:
191,239,49834,5,2,0:0:0:0:
61,134,50262,1,2,0:0:0:0:
166,6,50691,1,2,0:0:0:0:
294,110,51120,1,2,0:0:0:0:
256,192,51548,12,0,53262,0:0:0:0:
100,184,56691,6,0,B|146:194|146:194|193:187|193:187|268:201,1,143.000004364014,6|0,0:0|0:0,0:0:0:0:
408,276,57548,2,0,P|428:224|408:128,1,143.000004364014,8|0,0:0|0:0,0:0:0:0:
328,108,58191,6,0,P|368:61|472:71,2,143.000004364014
336,200,59262,1,8,0:0:0:0:
252,160,59477,2,0,L|160:156,2,71.5000021820069,0|0|0,3:0|3:0|3:0,3:0:0:0:
328,108,60120,102,0,B|287:76|287:76|166:72,1,143.000004364014,6|0,0:0|0:0,0:0:0:0:
20,8,60977,2,0,P|8:52|24:160,1,143.000004364014,8|0,0:0|0:0,0:0:0:0:
104,184,61620,6,0,P|116:228|100:336,2,143.000004364014
18,147,62691,2,0,P|50:106|96:88,1,71.5000021820069,8|0,0:0|3:0,0:0:0:0:
160,112,63120,2,0,P|184:140|195:182,1,71.5000021820069,0|0,3:0|0:0,3:0:0:0:
136,244,63548,102,0,P|184:224|296:260,1,143.000004364014,6|0,0:0|0:0,0:0:0:0:
440,320,64405,2,0,P|420:272|456:160,1,143.000004364014,8|0,0:0|0:0,0:0:0:0:
512,128,65048,6,0,P|452:92|380:110,2,143.000004364014
436,184,66120,2,0,L|426:265,1,71.5000021820069,8|0,0:0|0:0,0:0:0:0:
344,292,66548,2,0,L|354:373,1,71.5000021820069,0|0,3:0|3:0,3:0:0:0:
264,340,66977,102,0,B|193:352|193:352|115:328,1,143.000004364014,6|0,0:0|0:0,0:0:0:0:
29,176,67834,2,0,P|5:243|32:310,1,143.000004364014,8|0,3:0|3:0,3:0:0:0:
96,244,68477,2,0,P|130:238|188:263,1,71.5000021820069,0|0,3:0|3:0,3:0:0:0:
256,192,68905,12,0,70405,0:0:0:0:
488,320,72120,38,0,P|411:269|303:327,1,214.500006546021,2|0,0:0|0:0,0:0:0:0:
244,384,72977,2,0,P|263:326|209:235,1,143.000004364014,8|0,0:0|3:0,0:0:0:0:
144,236,73620,1,0,3:0:0:0:
168,324,73834,102,0,P|104:320|54:248,1,143.000004364014,6|0,0:0|0:0,0:0:0:0:
208,156,74691,2,0,P|242:149|283:157,1,71.5000021820069,8|0,0:0|0:0,0:0:0:0:
352,212,75120,2,0,P|386:219|427:211,1,71.5000021820069
384,128,75548,6,0,L|384:280,2,143.000004364014,2|0|8,0:0|0:0|0:0,0:0:0:0:
232,236,76834,2,0,L|144:237,1,71.5000021820069,2|8,0:0|0:0,0:0:0:0:
96,304,77262,102,0,P|120:233|88:159,1,143.000004364014,6|0,0:0|0:0,0:0:0:0:
204,324,78120,2,0,P|241:331|284:315,1,71.5000021820069,8|0,0:0|0:0,0:0:0:0:
352,272,78548,2,0,P|389:265|432:281,1,71.5000021820069,0|0,3:0|3:0,3:0:0:0:
384,360,78977,6,0,L|387:184,1,143.000004364014,2|0,0:0|0:0,0:0:0:0:
464,164,79620,2,0,P|440:142|403:126,1,71.5000021820069,0|8,0:0|0:0,0:0:0:0:
316,152,80048,2,0,L|225:137,2,71.5000021820069
386,217,80691,102,0,B|341:246|341:246|221:226,1,143.000004364014,6|0,0:0|0:0,0:0:0:0:
68,244,81548,2,0,P|74:151|124:106,2,143.000004364014,8|0|2,0:0|0:0|0:0,0:0:0:0:
396,68,83262,102,0,P|460:74|509:151,1,143.000004364014,0|8,2:0|3:0,0:0:0:0:
424,300,84120,38,0,B|402:233|402:233|419:140,2,143.000004364014,6|0|8,0:0|0:0|0:0,0:0:0:0:
360,232,85191,2,0,L|196:224,1,143.000004364014
152,292,85834,5,0,0:0:0:0:
288,168,86262,2,0,L|292:11,1,143.000004364014,0|8,0:0|0:0,0:0:0:0:
204,52,86905,2,0,P|166:58|120:44,2,71.5000021820069
291,25,87548,102,0,B|337:23|337:23|382:41|382:41|431:38,2,143.000004364014,6|0|8,0:0|0:0|0:0,0:0:0:0:
104,32,88834,1,0,0:0:0:0:
204,188,89262,6,0,P|250:211|300:203,1,71.5000021820069,2|0,0:0|0:0,0:0:0:0:
364,212,89691,2,0,P|360:247|341:277,1,71.5000021820069
353,371,90120,2,0,B|319:382|283:360|283:360|249:337|210:350,1,143.000004364014,8|0,0:0|0:0,0:0:0:0:
32,364,90977,102,0,B|24:293|24:293|52:204,1,143.000004364014,6|0,0:0|0:0,0:0:0:0:
112,52,91834,1,8,0:0:0:0:
240,184,92262,2,0,P|304:200|411:163,2,143.000004364014
96,64,93548,5,8,0:0:0:0:
126,154,93762,2,0,P|90:156|55:147,2,71.5000021820069
188,80,94405,102,0,B|260:75|260:75|324:103|324:103|425:90,1,214.500006546021,6|0,0:0|0:0,0:0:0:0:
458,25,95262,2,0,P|481:61|482:101,1,71.5000021820069,8|0,0:0|0:0,0:0:0:0:
442,173,95691,2,0,P|403:188|363:180,1,71.5000021820069
256,192,96120,12,0,97834,0:0:0:0:
356,63,99548,22,0,L|368:199,1,130,2|0,0:0|0:0,0:0:0:0:
392,360,100405,37,8,0:0:0:0:
476,316,100620,2,0,P|487:349|483:384,2,71.5000021820069
396,268,101262,2,0,B|351:266|351:266|300:275|300:275|241:265,2,143.000004364014,6|0|8,0:0|0:0|0:0,0:0:0:0:
272,152,102548,70,0,P|256:92|280:28,1,130,0|2,0:0|0:0,0:0:0:0:
278,30,103834,38,0,L|175:43,1,71.5000021820069,8|0,0:0|0:0,0:0:0:0:
130,90,104262,2,0,P|114:49|125:-7,2,71.5000021820069,2|8|6,0:0|0:0|0:0,0:0:0:0:
248,212,105120,70,0,L|237:356,2,130,0|8|0,0:0|0:0|0:0,0:0:0:0:
372,96,106405,1,2,0:0:0:0:
372,96,107262,85,8,0:0:0:0:
384,188,107477,2,0,L|394:280,2,71.5000021820069,0|0|0,3:0|3:0|3:0,3:0:0:0:
296,156,108120,2,0,P|245:177|151:137,2,143.000004364014,6|0|8,0:0|0:0|0:0,0:0:0:0:
448,88,109405,22,0,P|469:139|450:226,1,130,0|2,0:0|0:0,0:0:0:0:
458,211,110691,38,0,P|417:217|378:206,1,71.5000021820069,8|0,0:0|0:0,0:0:0:0:
304,172,111120,2,0,P|263:166|224:177,1,71.5000021820069,2|8,0:0|0:0,0:0:0:0:
156,224,111548,2,0,P|139:166|177:93,2,143.000004364014,6|0|8,0:0|0:0|0:0,0:0:0:0:
316,168,112834,70,0,P|333:226|297:296,2,130,0|2|0,0:0|0:0|0:0,0:0:0:0:
156,224,114120,2,0,L|60:230,2,65,8|0|0,0:0|0:0|0:0,0:0:0:0:
316,168,114977,6,0,L|451:160,2,130,2|0|8,0:0|0:0|0:0,0:0:0:0:
188,56,116262,1,0,0:0:0:0:
156,224,116691,1,2,0:0:0:0:
316,168,117120,2,0,L|407:164,1,65
468,128,117548,54,0,P|476:172|460:219,1,71.5000021820069,8|0,0:0|0:0,0:0:0:0:
420,276,117976,2,0,P|461:292|517:281,2,71.5000021820069,2|8|6,0:0|0:0|1:0,0:0:0:0:
292,164,118834,38,0,L|216:168,2,65,0|0|8,0:0|0:0|0:0,0:0:0:0:
136,104,119691,2,0,P|117:164|140:240,2,130,0|2|0,0:0|0:0|0:0,0:0:0:0:
292,164,120977,2,0,L|356:160,2,65,8|0|0,0:0|0:0|0:0,0:0:0:0:
136,104,121834,6,0,L|-8:112,2,130,2|0|8,0:0|0:0|0:0,0:0:0:0:
272,0,123120,1,0,0:0:0:0:
292,164,123548,22,0,B|295:210|295:210|273:244|273:244|276:302,1,130,2|0,0:0|0:0,0:0:0:0:
212,344,124191,2,0,B|240:365|273:349|273:349|307:365|340:349,1,130
