osu file format v14

[General]
AudioFilename: audio.mp3
AudioLeadIn: 0
PreviewTime: 53477
Countdown: 0
SampleSet: Soft
StackLeniency: 0.7
Mode: 0
LetterboxInBreaks: 0
WidescreenStoryboard: 1

[Editor]
DistanceSpacing: 0.4
BeatDivisor: 4
GridSize: 4
TimelineZoom: 3.099999

[Metadata]
Title:Hollywood
TitleUnicode:Hollywood
Artist:Neptune
ArtistUnicode:Neptune
Creator:Bandi
Version:Insane
Source:
Tags:Dubstep Wub Smoothie World Fort CiiyusMiapah
BeatmapID:982253
BeatmapSetID:458385

[Difficulty]
HPDrainRate:7
CircleSize:4
OverallDifficulty:7
ApproachRate:8.5
SliderMultiplier:2
SliderTickRate:2

[Events]
//Background and Video events
0,0,"Hollywood.jpg",0,0
//Break Periods
2,17462,20016
//Storyboard Layer 0 (Background)
//Storyboard Layer 1 (Fail)
//Storyboard Layer 2 (Pass)
//Storyboard Layer 3 (Foreground)
//Storyboard Sound Samples

[TimingPoints]
120,428.571428571429,4,2,1,75,1,0
17262,-100,4,2,1,5,0,0
20691,-133.333333333333,4,2,1,20,0,0
21120,-133.333333333333,4,2,1,50,0,0
22405,-133.333333333333,4,2,1,50,0,0
27548,-100,4,2,1,75,0,0
30548,-100,4,2,1,25,0,0
30762,-100,4,2,1,50,0,0
30977,-100,4,2,1,75,0,0
33548,-100,4,2,1,20,0,0
33762,-100,4,2,1,40,0,0
33977,-100,4,2,1,60,0,0
34191,-100,4,2,1,65,0,0
34405,-100,4,2,1,75,0,0
37405,-100,4,2,1,25,0,0
37620,-100,4,2,1,50,0,0
37834,-100,4,2,1,75,0,0
40405,-100,4,2,1,20,0,0
40620,-100,4,2,1,40,0,0
40834,-100,4,2,1,60,0,0
41048,-100,4,2,1,65,0,0
41262,-133.333333333333,4,2,1,75,0,0
44691,-125,4,2,1,75,0,0
48120,-111.111111111111,4,2,1,75,0,0
49834,-100,4,2,1,75,0,0
51548,-90.9090909090909,4,2,1,75,0,0
53262,-80,4,2,1,75,0,0
53370,-66.6666666666667,4,2,1,5,0,0
53477,-90.9090909090909,4,2,1,5,0,0
56691,-80,4,1,1,75,0,1
58620,-80,4,1,1,75,0,1
58673,-80,4,1,1,5,0,1
58834,-80,4,1,1,75,0,1
58887,-80,4,1,1,5,0,1
59048,-80,4,1,1,75,0,1
59102,-80,4,1,1,5,0,1
59262,-80,4,1,1,75,0,1
59477,-66.6666666666667,4,1,1,75,0,1
60120,-80,4,1,1,75,0,1
62691,-66.6666666666667,4,1,1,75,0,1
63334,-66.6666666666667,4,1,1,100,0,1
63441,-66.6666666666667,4,1,1,75,0,1
63548,-80,4,1,1,75,0,1
66548,-66.6666666666667,4,1,1,75,0,1
66977,-80,4,1,1,75,0,1
68477,-66.6666666666667,4,1,1,75,0,1
68691,-80,4,1,1,50,0,1
68905,-66.6666666666667,4,1,1,50,0,1
70405,-80,4,1,1,75,0,0
71691,-66.6666666666667,4,1,1,75,0,0
72977,-80,4,1,1,75,0,0
73405,-66.6666666666667,4,1,1,75,0,0
73459,-66.6666666666667,4,1,1,5,0,0
73620,-66.6666666666667,4,1,1,75,0,0
73673,-66.6666666666667,4,1,1,5,0,0
73834,-80,4,1,1,75,0,0
74262,-66.6666666666667,4,1,1,75,0,0
74316,-66.6666666666667,4,1,1,5,0,0
74477,-66.6666666666667,4,1,1,75,0,0
74530,-66.6666666666667,4,1,1,5,0,0
74691,-66.6666666666667,4,1,1,75,0,0
75120,-66.6666666666667,4,1,1,75,0,0
75173,-66.6666666666667,4,1,1,5,0,0
75334,-66.6666666666667,4,1,1,75,0,0
75387,-66.6666666666667,4,1,1,5,0,0
75548,-66.6666666666667,4,1,1,75,0,0
76405,-80,4,1,1,75,0,0
78548,-66.6666666666667,4,1,1,75,0,0
79405,-80,4,1,1,75,0,0
80048,-66.6666666666667,4,1,1,75,0,0
80262,-80,4,1,1,75,0,0
80316,-80,4,1,1,5,0,0
80477,-80,4,1,1,75,0,0
80530,-80,4,1,1,5,0,0
80691,-80,4,1,1,75,0,0
81120,-66.6666666666667,4,1,1,75,0,0
81173,-66.6666666666667,4,1,1,5,0,0
81334,-66.6666666666667,4,1,1,75,0,0
81387,-66.6666666666667,4,1,1,5,0,0
81548,-80,4,1,1,75,0,0
81762,-80,4,1,1,75,0,0
82405,-200,4,1,1,75,0,0
82834,-100,4,1,1,5,0,0
83477,-100,4,1,1,50,0,0
83691,-100,4,1,1,100,0,0
83905,-100,4,1,1,75,0,0
84120,-80,4,3,1,75,0,1
84977,-66.6666666666667,4,3,1,75,0,1
86262,-66.6666666666667,4,3,1,75,0,1
86316,-66.6666666666667,4,3,1,5,0,1
86477,-66.6666666666667,4,3,1,75,0,1
86530,-66.6666666666667,4,3,1,5,0,1
86691,-66.6666666666667,4,3,1,75,0,1
87548,-80,4,3,1,75,0,1
88405,-66.6666666666667,4,3,1,75,0,1
90762,-66.6666666666667,4,3,1,100,0,1
90870,-66.6666666666667,4,3,1,75,0,1
90977,-80,4,3,1,75,0,1
91834,-66.6666666666667,4,3,1,75,0,1
93120,-66.6666666666667,4,3,1,75,0,1
93173,-66.6666666666667,4,3,1,5,0,1
93334,-66.6666666666667,4,3,1,75,0,1
93387,-66.6666666666667,4,3,1,5,0,1
93548,-66.6666666666667,4,3,1,75,0,1
94405,-66.6666666666667,4,3,1,75,0,1
96977,-66.6666666666667,4,3,1,75,0,1
97030,-66.6666666666667,4,3,1,5,0,1
97191,-66.6666666666667,4,3,1,75,0,1
97245,-66.6666666666667,4,3,1,5,0,1
97405,-66.6666666666667,4,3,1,75,0,1
97834,-100,4,2,1,75,0,0
100620,-66.6666666666667,4,3,1,75,0,0
101262,-80,4,3,1,75,0,0
102120,-100,4,2,1,75,0,0
103834,-80,4,3,1,75,0,0
103887,-80,4,3,1,5,0,0
104048,-80,4,3,1,75,0,0
104102,-80,4,3,1,5,0,0
104262,-80,4,3,1,75,0,0
104691,-100,4,2,1,75,0,0
107477,-66.6666666666667,4,3,1,75,0,0
108120,-80,4,3,1,75,0,0
108977,-100,4,2,1,75,0,0
110691,-80,4,3,1,75,0,0
110745,-80,4,3,1,5,0,0
110905,-80,4,3,1,75,0,0
110959,-80,4,3,1,5,0,0
111120,-80,4,3,1,75,0,0
111548,-80,4,3,1,75,0,0
112405,-100,4,2,1,75,0,0
117548,-80,4,3,1,75,0,0
117602,-80,4,3,1,5,0,0
117762,-80,4,3,1,75,0,0
117816,-80,4,3,1,5,0,0
117977,-80,4,3,1,75,0,0
118405,-100,4,2,1,75,0,0
123548,-100,4,2,1,75,0,0
123762,-100,4,2,1,25,0,0
124620,-133.333333333333,4,2,1,5,0,0

[Colours]
Combo1 : 193,19,63
Combo2 : 86,134,186
Combo3 : 149,125,191
Combo4 : 0,105,210
Combo5 : 126,64,255
Combo6 : 6,180,230
Combo7 : 162,30,86
Combo8 : 182,39,168

[HitObjects]
324,216,120,6,0,L|148:204,1,150,6|0,1:0|0:0,0:0:0:0:
80,156,548,1,4,0:0:0:0:
336,224,762,1,4,0:0:0:0:
256,112,977,2,0,L|264:4,1,100,12|4,0:0|0:0,0:0:0:0:
336,224,1405,2,0,L|340:168,1,50,4|0,0:0|0:0,0:0:0:0:
472,48,1834,5,2,0:0:0:0:
339,174,2155,2,0,L|335:230,1,50,4|0,0:0|0:0,0:0:0:0:
243,266,2477,2,0,L|239:322,1,50,4|0,0:0|0:0,0:0:0:0:
231,326,2691,1,8,0:0:0:0:
252,168,2905,2,0,L|256:112,1,50,4|0,0:0|0:0,0:0:0:0:
348,76,3227,2,0,L|352:20,1,50,4|0,0:0|0:0,0:0:0:0:
480,216,3548,102,0,P|434:227|378:207,1,100,2|0,0:0|0:0,0:0:0:0:
363,197,3870,1,0,0:0:0:0:
347,177,3977,1,4,0:0:0:0:
264,24,4191,1,4,0:0:0:0:
176,172,4405,1,12,0:0:0:0:
96,24,4620,1,4,0:0:0:0:
272,132,4834,1,0,0:0:0:0:
272,132,4941,2,0,P|283:178|263:234,1,100,2|0,0:0|0:0,0:0:0:0:
176,284,5262,5,2,0:0:0:0:
364,332,5584,2,0,L|360:388,1,50,4|0,0:0|0:0,0:0:0:0:
448,236,5905,2,0,L|444:292,1,50,4|0,0:0|0:0,0:0:0:0:
452,300,6120,1,8,0:0:0:0:
260,380,6334,2,0,L|256:324,1,50,6|0,0:0|0:0,0:0:0:0:
176,284,6655,2,0,L|172:228,1,50,6|8,0:0|0:0,0:0:0:0:
240,20,6977,102,0,L|248:184,1,150,6|0,1:0|0:0,0:0:0:0:
328,236,7405,1,4,0:0:0:0:
116,96,7620,1,4,0:0:0:0:
368,92,7834,2,0,L|472:88,1,100,12|4,0:0|0:0,0:0:0:0:
288,44,8262,1,0,0:0:0:0:
288,44,8370,2,0,P|274:87|288:147,1,100
292,148,8691,5,2,0:0:0:0:
204,248,9012,2,0,L|148:252,1,50,4|0,0:0|0:0,0:0:0:0:
112,344,9334,2,0,L|56:348,1,50,4|0,0:0|0:0,0:0:0:0:
54,343,9548,1,8,0:0:0:0:
204,248,9762,2,0,L|260:244,1,50,4|0,0:0|0:0,0:0:0:0:
296,152,10084,2,0,L|352:148,1,50,4|2,0:0|0:0,0:0:0:0:
141,182,10405,102,0,P|113:248|165:333,1,150,2|0,2:0|0:0,0:0:0:0:
152,328,10833,1,4,0:0:0:0:
212,248,11048,1,4,0:0:0:0:
264,335,11262,2,0,P|313:348|364:330,1,100,12|4,0:0|0:0,0:0:0:0:
460,260,11691,1,0,0:0:0:0:
460,260,11798,2,0,P|480:304|482:355,1,100,4|0,0:0|0:0,0:0:0:0:
476,361,12119,5,2,0:0:0:0:
312,216,12441,2,0,L|316:160,1,50,4|0,0:0|0:0,0:0:0:0:
408,124,12763,2,0,L|412:68,1,50,4|0,0:0|0:0,0:0:0:0:
404,64,12977,1,8,0:0:0:0:
312,216,13191,2,0,L|308:272,1,50,6|0,0:0|0:0,0:0:0:0:
216,308,13512,2,0,L|212:364,1,50,6|8,0:0|0:0,0:0:0:0:
188,176,13834,101,0,0:0:0:0:
256,192,14048,12,0,17262,0:0:0:0:
256,192,20691,117,2,0:0:0:0:
348,212,21120,1,0,0:0:0:0:
228,104,21334,1,0,0:0:0:0:
192,256,21548,2,0,L|200:344,1,75.0000028610231
136,156,21977,1,0,0:0:0:0:
136,156,22191,1,0,0:0:0:0:
347,211,22405,6,0,L|496:216,1,150.000005722046,6|4,0:0|0:0,0:0:0:0:
456,136,23048,2,0,L|307:131,1,150.000005722046,6|4,0:0|0:0,0:0:0:0:
256,192,24120,12,0,27120,0:0:0:0:
472,100,27548,101,2,0:0:0:0:
460,116,27977,1,6,0:0:0:0:
392,32,28191,1,4,0:0:0:0:
340,120,28405,2,0,P|292:132|232:108,1,100,4|4,0:0|0:0,0:0:0:0:
292,36,28834,1,4,0:0:0:0:
292,36,29048,1,4,0:0:0:0:
182,46,29262,6,0,P|156:88|239:212,1,200,4|0,0:0|0:0,0:0:0:0:
281,55,29905,2,0,L|165:44,1,100,4|0,0:0|0:0,0:0:0:0:
32,96,30334,1,0,0:0:0:0:
24,119,30441,1,0,0:0:0:0:
22,144,30548,1,0,0:0:0:0:
24,169,30655,1,0,0:0:0:0:
31,193,30762,1,0,0:0:0:0:
340,143,30977,102,0,L|332:247,1,100,6|0,0:0|0:0,0:0:0:0:
167,211,31405,2,0,L|175:315,1,100,6|4,0:0|0:0,0:0:0:0:
348,44,31834,6,0,L|340:148,1,100,6|4,0:0|0:0,0:0:0:0:
160,112,32262,2,0,L|168:216,1,100,6|4,0:0|0:0,0:0:0:0:
236,28,32691,102,0,P|188:4|128:8,2,100,4|4|4,0:0|0:0|0:0,0:0:0:0:
112,160,33334,2,0,P|88:116|87:66,1,100,4|6,0:0|0:0,0:0:0:0:
184,104,33762,5,2,0:0:0:0:
196,116,33977,1,2,0:0:0:0:
204,124,34191,1,2,0:0:0:0:
212,132,34405,101,2,0:0:0:0:
308,248,34834,1,6,0:0:0:0:
212,132,35048,1,4,0:0:0:0:
216,280,35262,1,4,0:0:0:0:
300,156,35477,1,4,0:0:0:0:
160,204,35691,1,4,0:0:0:0:
276,68,35905,1,4,0:0:0:0:
308,248,36120,6,0,B|404:276|404:200|508:232,1,200,4|4,0:0|0:0,0:0:0:0:
248,322,36762,2,0,P|212:221|270:154,1,200,4|0,0:0|0:0,0:0:0:0:
288,148,37298,1,0,0:0:0:0:
312,144,37405,1,6,0:0:0:0:
336,148,37512,1,0,0:0:0:0:
360,156,37619,1,2,0:0:0:0:
128,292,37834,102,0,L|116:184,1,100,4|4,0:0|0:0,0:0:0:0:
144,112,38262,1,4,0:0:0:0:
136,300,38691,6,0,L|124:192,1,100,4|4,0:0|0:0,0:0:0:0:
136,104,39119,1,4,0:0:0:0:
144,308,39548,102,0,L|132:200,1,100,4|4,0:0|0:0,0:0:0:0:
128,96,39977,1,4,0:0:0:0:
218,152,40191,2,0,P|267:159|316:148,2,100,4|4|0,0:0|0:0|0:0,0:0:0:0:
120,88,40834,5,2,0:0:0:0:
112,80,41048,1,2,0:0:0:0:
104,72,41262,101,6,0:0:0:0:
36,332,41691,1,6,0:0:0:0:
60,260,41905,1,4,0:0:0:0:
112,316,42120,2,0,P|151:319|192:312,1,75.0000028610231,4|4,0:0|0:0,0:0:0:0:
224,208,42548,1,4,0:0:0:0:
296,292,42762,1,4,0:0:0:0:
348,192,42977,6,0,L|496:168,1,150.000005722046,6|4,0:0|0:0,0:0:0:0:
488,244,43620,2,0,L|340:268,1,150.000005722046,4|4,0:0|0:0,0:0:0:0:
268,244,44262,1,0,0:0:0:0:
260,252,44691,101,6,0:0:0:0:
152,88,45120,1,4,0:0:0:0:
368,108,45334,1,4,0:0:0:0:
184,212,45548,1,0,0:0:0:0:
272,28,45762,1,4,0:0:0:0:
320,224,45977,1,0,0:0:0:0:
264,132,46191,1,4,0:0:0:0:
429,40,46405,6,4,P|459:118|416:190,1,160,6|4,0:0|0:0,0:0:0:0:
367,106,47048,2,4,P|334:177|365:249,1,160
464,276,47691,1,0,0:0:0:0:
240,340,48120,102,0,P|224:297|216:236,1,89.9999972534181,6|0,0:0|0:0,0:0:0:0:
208,112,48548,1,2,0:0:0:0:
276,172,48762,1,4,0:0:0:0:
272,48,48977,1,2,0:0:0:0:
144,52,49191,1,4,0:0:0:0:
148,184,49405,1,2,0:0:0:0:
208,112,49620,1,4,0:0:0:0:
66,128,49834,6,0,P|53:172|67:233,1,100,6|0,0:0|0:0,0:0:0:0:
308,340,50262,1,2,0:0:0:0:
164,308,50477,1,4,0:0:0:0:
384,204,50691,1,2,0:0:0:0:
156,164,50905,1,4,0:0:0:0:
276,104,51120,1,2,0:0:0:0:
256,228,51334,1,4,0:0:0:0:
360,136,51548,102,0,L|348:200,1,55.0000016784668,2|0,1:0|0:0,1:0:0:0:
412,280,51762,2,0,L|400:344,1,55.0000016784668,2|0,1:0|0:0,1:0:0:0:
308,276,51977,2,0,L|244:264,1,55.0000016784668,2|0,1:0|0:0,1:0:0:0:
260,156,52191,2,0,L|196:144,1,55.0000016784668,2|0,1:0|0:0,1:0:0:0:
176,252,52405,5,2,3:0:0:0:
125,271,52512,1,2,3:0:0:0:
72,261,52619,1,2,3:0:0:0:
32,223,52726,1,2,3:0:0:0:
19,171,52833,1,2,3:0:0:0:
36,119,52940,1,2,3:0:0:0:
78,85,53047,1,2,3:0:0:0:
131,78,53154,1,2,3:0:0:0:
176,104,53262,2,0,P|210:113|260:104,1,62.5,8|0,0:0|2:0,0:0:0:0:
227,93,56691,6,0,B|283:114|346:136|346:136|282:148,1,187.5,6|0,3:0|3:0,3:0:0:0:
162,167,57120,6,0,L|286:147,1,125
394,68,57548,2,0,P|430:120|414:188,1,125,8|0,0:0|0:0,0:0:0:0:
304,344,57977,1,0,0:0:0:0:
324,220,58191,2,0,L|304:344,1,125,0|2,0:0|0:0,0:0:0:0:
436,364,58620,102,0,L|444:320,1,31.25,0|0,0:0|2:0,0:0:0:0:
304,343,58834,2,0,L|312:299,1,31.25,0|0,0:0|2:0,0:0:0:0:
172,324,59048,2,0,L|180:280,1,31.25,0|0,0:0|2:0,0:0:0:0:
436,364,59262,1,8,0:0:0:0:
168,328,59477,6,0,P|168:291|177:254,1,75.0000028610231,0|0,3:0|3:0,3:0:0:0:
332,96,59691,2,0,P|307:124|275:145,1,75.0000028610231,0|0,3:0|3:0,3:0:0:0:
108,120,59905,2,0,P|144:128|176:146,1,75.0000028610231,0|0,3:0|3:0,3:0:0:0:
276,244,60120,102,0,B|308:296|316:364|316:364|332:296,1,187.5,6|0,3:0|3:0,3:0:0:0:
376,232,60548,6,0,L|384:168,1,62.5
252,84,60762,2,0,L|244:148,1,62.5
208,348,60977,2,0,P|170:332|215:223,1,187.5,8|0,0:0|0:0,0:0:0:0:
376,232,61405,1,0,0:0:0:0:
74,345,61620,2,0,P|59:283|78:221,1,125,0|2,0:0|0:0,0:0:0:0:
175,301,62048,101,0,0:0:0:0:
190,319,62155,1,0,0:0:0:0:
204,332,62262,2,0,P|236:328|276:332,1,62.5
360,348,62477,2,0,P|392:352|432:348,1,62.5
400,144,62691,5,8,3:0:0:0:
400,144,62798,1,0,3:0:0:0:
400,144,62905,2,0,P|405:181|401:218,1,75.0000028610231,0|0,3:0|3:0,3:0:0:0:
360,36,63120,2,0,P|397:30|434:34,1,75.0000028610231,2|0,3:0|3:0,3:0:0:0:
248,80,63334,2,0,P|242:42|246:5,1,75.0000028610231,0|0,3:0|3:0,3:0:0:0:
296,184,63548,102,0,B|228:192|176:172|176:172|224:216,1,187.5,6|0,3:0|3:0,3:0:0:0:
279,304,63977,6,0,P|220:320|163:298,1,125
400,232,64405,2,0,P|416:291|394:348,1,125,8|0,0:0|0:0,0:0:0:0:
328,108,64834,2,0,P|357:96|388:93,1,62.5
223,183,65048,2,0,P|200:127|215:68,1,125,0|2,0:0|0:0,0:0:0:0:
310,249,65477,101,0,0:0:0:0:
310,249,65584,1,0,0:0:0:0:
310,249,65691,1,0,0:0:0:0:
296,80,65905,1,0,0:0:0:0:
128,152,66120,2,0,L|132:84,1,62.5,8|0,0:0|0:0,0:0:0:0:
296,80,66334,2,0,L|292:148,1,62.5
56,288,66548,6,0,P|91:301|130:305,1,75.0000028610231,0|0,3:0|3:0,3:0:0:0:
292,142,66762,2,0,P|255:132|218:133,1,75.0000028610231,0|0,3:0|3:0,3:0:0:0:
88,216,66977,102,0,B|179:248|207:184|288:231,1,187.5,6|0,3:0|3:0,3:0:0:0:
336,304,67405,6,0,P|366:311|397:308,1,62.5
432,208,67620,2,0,P|401:210|370:203,1,62.5
396,104,67834,2,0,P|426:111|400:28,1,187.5,8|0,0:0|0:0,0:0:0:0:
288,68,68262,2,0,P|287:105|296:132,1,62.5
412,136,68477,2,0,P|484:64|384:4,1,225.000008583069
276,64,68905,102,0,P|275:101|286:136,1,75.0000028610231,8|0,3:0|3:0,3:0:0:0:
336,368,69120,2,0,P|339:330|331:293,1,75.0000028610231,8|0,3:0|3:0,3:0:0:0:
312,220,69334,1,2,1:0:0:0:
312,220,69441,1,2,0:0:0:0:
312,220,69548,1,2,0:0:0:0:
336,368,69762,6,0,P|299:373|262:369,1,75.0000028610231,8|0,3:0|3:0,3:0:0:0:
458,302,69977,2,0,P|464:339|460:376,1,75.0000028610231,10|0,3:0|3:0,3:0:0:0:
420,180,70191,2,0,P|458:174|495:178,1,75.0000028610231,8|0,3:0|3:0,3:0:0:0:
312,220,70405,6,0,B|296:160|324:100|324:100|296:120|280:148,1,187.5,6|0,3:0|3:0,3:0:0:0:
233,294,70834,2,0,B|189:342|189:342|169:270|209:202,1,187.5,0|0,3:0|3:0,3:0:0:0:
324,100,71262,6,0,P|384:78|492:130,1,187.5,8|0,0:0|0:0,0:0:0:0:
277,352,71691,102,0,P|270:315|274:277,1,75.0000028610231,0|0,3:0|3:0,3:0:0:0:
324,100,71905,2,0,P|328:137|321:173,1,75.0000028610231,0|0,3:0|3:0,3:0:0:0:
160,200,72120,6,0,P|197:196|233:203,1,75.0000028610231,2|0,3:0|3:0,3:0:0:0:
365,262,72334,1,0,3:0:0:0:
365,262,72441,1,0,3:0:0:0:
365,262,72548,1,0,3:0:0:0:
365,262,72655,1,0,3:0:0:0:
365,262,72762,2,0,P|402:265|438:258,1,75.0000028610231,0|0,3:0|3:0,3:0:0:0:
490,126,72977,102,0,P|412:78|324:99,1,187.5,8|0,0:0|0:0,0:0:0:0:
204,140,73405,6,0,L|208:180,1,37.5000014305115,0|0,3:0|2:0,3:0:0:0:
64,144,73620,2,0,L|68:184,1,37.5000014305115,0|0,3:0|2:0,3:0:0:0:
140,300,73834,102,0,B|264:304|264:304|208:276,1,187.5,6|0,3:0|3:0,3:0:0:0:
67,181,74262,6,0,L|64:144,1,37.5000014305115,0|0,3:0|2:0,3:0:0:0:
207,177,74477,2,0,L|204:140,1,37.5000014305115,0|0,3:0|2:0,3:0:0:0:
252,36,74691,101,8,3:0:0:0:
288,44,74798,1,0,3:0:0:0:
324,52,74905,1,0,3:0:0:0:
360,56,75012,1,0,3:0:0:0:
396,64,75120,6,0,L|393:101,1,37.5000014305115,0|0,3:0|2:0,3:0:0:0:
252,36,75334,2,0,L|249:73,1,37.5000014305115,0|0,3:0|2:0,3:0:0:0:
132,116,75548,102,0,B|124:164|96:204|96:204|132:192|132:192|108:240|116:296,1,225.000008583069,2|0,3:0|3:0,3:0:0:0:
148,352,75977,1,0,3:0:0:0:
148,352,76084,2,0,P|104:360|60:344,2,75.0000028610231
300,360,76405,5,8,0:0:0:0:
300,360,76512,1,0,0:0:0:0:
228,224,76727,1,0,0:0:0:0:
213,236,76834,1,2,0:0:0:0:
198,247,76941,1,0,0:0:0:0:
187,255,77048,2,0,P|183:223|187:183,1,62.5,8|0,0:0|0:0,0:0:0:0:
259,81,77262,102,0,B|383:105|383:105|323:125,1,187.5,6|0,3:0|3:0,3:0:0:0:
186,193,77691,2,0,B|206:141|198:69|198:69|262:81,1,187.5,0|0,3:0|3:0,3:0:0:0:
284,224,78120,6,0,P|372:245|450:197,1,187.5,8|0,0:0|0:0,0:0:0:0:
261,6,78548,102,0,P|254:43|258:81,1,75.0000028610231,0|0,3:0|3:0,3:0:0:0:
287,297,78762,2,0,P|291:260|284:224,1,75.0000028610231,0|0,3:0|3:0,3:0:0:0:
136,172,78977,6,0,P|173:176|209:169,1,75.0000028610231,2|0,3:0|3:0,3:0:0:0:
348,152,79191,1,0,3:0:0:0:
348,152,79298,1,0,3:0:0:0:
348,152,79405,102,0,P|368:96|356:32,2,125,0|0|8,0:0|0:0|0:0,0:0:0:0:
240,284,80048,6,0,P|248:324|264:356,1,75.0000028610231,0|0,3:0|3:0,3:0:0:0:
356,296,80262,2,0,L|344:256,1,31.25,0|0,3:0|2:0,3:0:0:0:
468,304,80477,2,0,L|456:264,1,31.25,0|0,3:0|2:0,3:0:0:0:
408,104,80691,102,0,B|348:88|284:96|284:96|344:64,1,187.5,6|0,3:0|3:0,3:0:0:0:
408,104,81120,6,0,L|420:140,1,37.5000014305115,0|0,3:0|2:0,3:0:0:0:
284,96,81334,2,0,L|296:132,1,37.5000014305115,0|0,3:0|2:0,3:0:0:0:
332,252,81548,102,0,P|295:252|265:239,1,62.5,8|0,3:0|3:0,3:0:0:0:
272,244,81762,1,0,3:0:0:0:
272,244,81870,1,0,3:0:0:0:
272,244,81977,1,0,3:0:0:0:
272,244,82084,1,0,3:0:0:0:
271,244,82191,2,0,P|240:245|211:236,1,62.5,0|0,3:0|3:0,3:0:0:0:
260,144,82405,22,0,P|312:148|360:172,1,100,2|0,0:0|0:0,0:0:0:0:
354,168,83477,70,0,P|323:152|274:143,1,75,2|2,0:0|0:0,0:0:0:0:
260,142,83691,1,8,0:0:0:0:
271,242,83905,1,0,2:0:0:0:
271,242,84012,1,0,2:0:0:0:
271,242,84120,38,0,B|211:262|211:262|155:238|155:238|136:268|164:304,1,187.5,6|0,0:0|0:0,0:0:0:0:
372,278,84548,2,0,P|379:220|342:160,1,125,0|0,0:3|0:3,0:3:0:0:
64,188,84977,6,0,P|55:151|61:114,1,75.0000028610231,8|0,0:0|0:0,0:0:0:0:
152,40,85191,1,0,0:0:0:0:
184,56,85298,1,0,0:0:0:0:
216,72,85405,1,0,0:0:0:0:
248,88,85512,1,0,0:0:0:0:
280,108,85620,2,0,P|288:136|280:188,1,75.0000028610231
212,360,85834,2,0,P|204:332|212:280,1,75.0000028610231,2|0,0:0|0:0,0:0:0:0:
344,248,86048,1,0,0:0:0:0:
344,248,86155,1,0,0:0:0:0:
344,248,86262,102,0,L|347:285,1,37.5000014305115,0|0,3:0|2:0,3:0:0:0:
209,286,86477,2,0,L|212:323,1,37.5000014305115,0|0,3:0|2:0,3:0:0:0:
72,328,86691,1,8,0:0:0:0:
259,165,86905,6,0,P|295:156|332:162,1,75.0000028610231
169,202,87120,2,0,P|161:165|167:128,1,75.0000028610231
209,286,87334,2,0,P|172:293|135:288,1,75.0000028610231
290,49,87548,102,0,B|338:1|400:0|400:0|368:59,1,187.5,6|0,0:0|0:0,0:0:0:0:
259,165,87977,2,0,P|261:101|291:47,1,125
292,256,88405,6,0,P|255:261|218:253,1,75.0000028610231,8|0,0:0|0:0,0:0:0:0:
124,224,88620,1,0,0:0:0:0:
124,224,88727,1,0,0:0:0:0:
124,224,88834,1,0,0:0:0:0:
124,224,88941,1,0,0:0:0:0:
124,224,89048,2,0,P|119:261|128:300,1,75.0000028610231
292,256,89262,102,0,P|302:178|287:110,2,150.000005722046,2|0|0,0:0|0:0|0:0,0:0:0:0:
292,256,89798,1,0,0:0:0:0:
292,256,89905,1,0,0:0:0:0:
292,256,90012,1,0,0:0:0:0:
292,256,90120,5,8,0:0:0:0:
300,260,90227,1,0,0:0:0:0:
316,275,90334,1,0,0:0:0:0:
331,275,90441,1,0,0:0:0:0:
352,269,90548,1,2,0:0:0:0:
372,252,90655,1,0,0:0:0:0:
392,220,90762,1,0,2:0:0:0:
400,176,90870,1,0,0:0:0:0:
392,116,90977,102,0,B|448:88|448:88|324:80,1,187.5,6|0,0:0|0:0,0:0:0:0:
256,144,91405,2,0,B|236:80|236:80|254:17,1,125
396,208,91834,6,0,P|404:236|396:288,1,75.0000028610231,8|0,0:0|0:0,0:0:0:0:
340,376,92048,1,0,0:0:0:0:
308,360,92155,1,0,0:0:0:0:
276,344,92262,1,0,0:0:0:0:
244,328,92369,1,0,0:0:0:0:
212,308,92477,2,0,P|204:280|212:228,1,75.0000028610231
280,56,92691,2,0,P|288:84|280:136,1,75.0000028610231,2|0,0:0|0:0,0:0:0:0:
144,156,92905,1,0,0:0:0:0:
144,156,93012,1,0,0:0:0:0:
144,156,93119,102,0,L|141:119,1,37.5000014305115,0|0,3:0|2:0,3:0:0:0:
282,129,93334,2,0,L|279:92,1,37.5000014305115,0|0,3:0|2:0,3:0:0:0:
432,108,93548,1,8,0:0:0:0:
312,300,93762,6,0,P|276:306|239:298,1,75.0000028610231
282,129,93977,2,0,P|288:166|280:203,1,75.0000028610231
106,159,94191,2,0,P|143:154|180:162,1,75.0000028610231
160,336,94405,102,0,B|84:368|16:328|16:328|-4:248|-4:248|68:272,1,300.000011444092,6|0,0:0|0:0,0:0:0:0:
60,269,95048,6,0,P|96:277|132:268,1,75.0000028610231
296,178,95262,2,0,P|259:169|222:175,1,75.0000028610231,8|0,0:0|0:0,0:0:0:0:
224,338,95477,2,0,P|232:301|226:264,1,75.0000028610231
132,108,95691,2,0,P|123:144|129:181,1,75.0000028610231
224,338,95905,2,0,P|260:346|297:340,1,75.0000028610231
447,242,96120,102,0,B|427:170|371:114|371:114|367:190|367:190|339:174|283:178,1,300.000011444092,2|0,0:0|0:0,0:0:0:0:
295,177,96762,6,0,P|258:185|222:175,1,75.0000028610231
120,76,96977,102,0,L|123:39,1,37.5000014305115,8|0,3:0|2:0,3:0:0:0:
263,94,97191,2,0,L|266:57,1,37.5000014305115,0|0,3:0|2:0,3:0:0:0:
400,116,97405,6,0,L|412:192,1,75.0000028610231
472,336,97620,2,0,L|484:260,1,75.0000028610231
504,116,97834,5,6,1:0:0:0:
200,308,98262,2,4,P|143:317|92:303,2,100,4|4|12,0:0|0:0|0:0,0:0:0:0:
296,276,98905,1,0,0:0:0:0:
280,376,99120,1,0,0:0:0:0:
220,200,99548,5,2,0:0:0:0:
232,216,99977,2,0,L|224:104,1,100
212,104,100405,1,8,0:0:0:0:
384,332,100620,22,0,P|389:296|386:258,1,75.0000028610231,0|0,3:0|3:0,3:0:0:0:
224,224,100834,2,0,P|261:231|299:227,1,75.0000028610231,0|0,3:0|3:0,3:0:0:0:
489,162,101048,2,0,P|452:158|416:165,1,75.0000028610231,0|0,3:0|3:0,3:0:0:0:
200,88,101262,102,0,B|267:98|322:79|322:79|340:108|328:144,1,187.5,6|0,0:0|0:0,0:0:0:0:
408,44,101691,2,0,P|424:104|412:176,1,125
264,267,102120,85,12,0:0:0:0:
330,139,102334,1,4,0:0:0:0:
188,144,102548,2,0,L|24:148,1,150,4|0,0:0|0:0,0:0:0:0:
24,140,102977,5,2,0:0:0:0:
24,140,103405,2,0,P|72:152|23:127,1,150
24,140,103834,6,0,L|28:104,1,31.25,8|0,0:0|0:0,0:0:0:0:
152,156,104048,2,0,L|156:120,1,31.25
36,32,104262,5,0,0:0:0:0:
68,36,104370,1,0,0:0:0:0:
100,40,104477,1,0,0:0:0:0:
132,44,104584,1,0,0:0:0:0:
160,48,104691,69,6,1:0:0:0:
460,108,105120,1,4,0:0:0:0:
296,72,105334,1,4,0:0:0:0:
336,236,105548,1,12,0:0:0:0:
388,56,105762,1,4,0:0:0:0:
276,156,105977,2,0,P|225:166|161:147,1,100
60,100,106405,5,2,0:0:0:0:
168,44,106620,2,0,L|196:-4,2,50
78,216,107048,1,0,0:0:0:0:
78,216,107262,1,8,0:0:0:0:
153,216,107477,22,0,P|115:221|78:216,1,75.0000028610231,0|0,3:0|3:0,3:0:0:0:
259,175,107692,2,0,P|264:211|260:249,1,75.0000028610231,0|0,3:0|3:0,3:0:0:0:
216,64,107906,2,0,P|252:58|290:61,1,75.0000028610231,0|0,3:0|3:0,3:0:0:0:
360,268,108120,102,0,B|340:328|272:348|272:348|368:356,1,187.5,6|0,0:0|0:0,0:0:0:0:
459,363,108548,2,0,L|330:352,1,125
259,249,108977,85,12,0:0:0:0:
360,268,109191,1,4,0:0:0:0:
240,336,109405,2,0,P|163:357|88:324,1,150,4|0,0:0|0:0,0:0:0:0:
88,324,109834,5,2,0:0:0:0:
88,324,110262,2,0,P|136:336|87:311,1,150
88,324,110691,6,0,L|92:288,1,31.25,8|0,0:0|0:0,0:0:0:0:
216,344,110905,2,0,L|220:308,1,31.25
336,360,111119,5,0,0:0:0:0:
304,356,111227,1,0,0:0:0:0:
272,352,111334,1,0,0:0:0:0:
240,348,111441,1,0,0:0:0:0:
216,344,111548,102,0,B|224:276|224:276|266:220|236:160,1,187.5,6|0,0:0|0:0,0:0:0:0:
186,50,111977,2,0,L|238:166,1,125
390,229,112405,86,0,P|391:179|376:132,1,100,12|4,0:0|0:0,0:0:0:0:
237,164,112834,1,0,0:0:0:0:
237,164,112941,2,0,P|236:214|251:261,1,100,0|4,0:0|0:0,0:0:0:0:
356,356,113262,5,2,0:0:0:0:
390,229,113584,2,0,L|394:173,1,50,4|0,0:0|0:0,0:0:0:0:
340,92,113906,2,0,L|344:36,1,50,4|0,0:0|0:0,0:0:0:0:
338,31,114120,1,8,0:0:0:0:
292,176,114334,2,0,L|288:232,1,50,4|0,0:0|0:0,0:0:0:0:
342,313,114656,2,0,L|338:369,1,50,4|0,0:0|0:0,0:0:0:0:
292,176,114977,102,0,P|224:152|144:180,1,150,2|0,0:0|0:0,0:0:0:0:
144,180,115405,1,4,0:0:0:0:
147,72,115620,1,4,0:0:0:0:
51,126,115834,2,0,P|37:166|45:226,1,100,12|4,0:0|0:0,0:0:0:0:
148,304,116262,1,4,0:0:0:0:
148,304,116370,1,0,0:0:0:0:
148,304,116477,1,4,0:0:0:0:
292,176,116691,6,0,B|342:169|342:169|392:178|392:178|452:172,2,150,6|4|4,0:0|0:0|0:0,0:0:0:0:
284,336,117548,6,0,L|280:300,1,31.25,8|0,0:0|0:0,0:0:0:0:
164,352,117762,2,0,L|160:316,1,31.25
36,372,117976,5,0,0:0:0:0:
32,340,118084,1,0,0:0:0:0:
28,308,118191,1,0,0:0:0:0:
24,276,118298,1,0,0:0:0:0:
20,244,118405,69,6,1:0:0:0:
32,148,118620,1,0,0:0:0:0:
32,148,118727,1,0,0:0:0:0:
32,148,118834,2,0,P|86:155|134:143,1,100,4|4,0:0|0:0,0:0:0:0:
270,47,119262,2,4,L|258:151,1,100,12|4,0:0|0:0,0:0:0:0:
248,300,119691,1,0,0:0:0:0:
248,300,119798,2,0,P|297:288|353:312,1,100,4|0,0:0|0:0,0:0:0:0:
352,316,120120,5,2,0:0:0:0:
152,216,120441,2,0,L|96:212,1,50,4|0,0:0|0:0,0:0:0:0:
60,120,120763,2,0,L|4:116,1,50,4|0,0:0|0:0,0:0:0:0:
0,108,120977,1,8,0:0:0:0:
156,124,121191,2,0,L|212:128,1,50,4|0,0:0|0:0,0:0:0:0:
248,220,121513,2,0,L|304:224,1,50,4|0,0:0|0:0,0:0:0:0:
460,144,121834,101,2,0:0:0:0:
241,363,122155,1,0,0:0:0:0:
241,363,122262,1,4,0:0:0:0:
297,223,122477,1,4,0:0:0:0:
333,367,122691,1,12,0:0:0:0:
217,275,122905,1,4,0:0:0:0:
369,283,123120,1,4,0:0:0:0:
369,283,123227,1,0,0:0:0:0:
369,283,123334,1,4,0:0:0:0:
273,169,123548,6,0,B|236:132|236:132|188:152|140:160|140:160|108:100,1,200,6|4,0:0|0:0,0:0:0:0:
312,104,124191,2,0,B|348:140|348:140|388:108|440:124|440:124|452:68,1,200,4|4,0:0|0:0,0:0:0:0:
