osu file format v14

[General]
AudioFilename: audio.mp3
AudioLeadIn: 0
PreviewTime: 53477
Countdown: 0
SampleSet: Soft
StackLeniency: 0.7
Mode: 0
LetterboxInBreaks: 0
WidescreenStoryboard: 1

[Editor]
DistanceSpacing: 1.1
BeatDivisor: 8
GridSize: 4
TimelineZoom: 2.899999

[Metadata]
Title:Hollywood
TitleUnicode:Hollywood
Artist:Neptune
ArtistUnicode:Neptune
Creator:Bandi
Version:Fort's Style
Source:
Tags:Dubstep Wub Smoothie World Fort CiiyusMiapah
BeatmapID:1000459
BeatmapSetID:458385

[Difficulty]
HPDrainRate:6
CircleSize:4
OverallDifficulty:8.4
ApproachRate:9.6
SliderMultiplier:2
SliderTickRate:2

[Events]
//Background and Video events
0,0,"Hollywood.jpg",0,0
//Break Periods
2,14034,20137
2,53676,56137
//Storyboard Layer 0 (Background)
//Storyboard Layer 1 (Fail)
//Storyboard Layer 2 (Pass)
//Storyboard Layer 3 (Foreground)
//Storyboard Sound Samples

[TimingPoints]
120,428.571428571429,4,2,1,65,1,0
120,-125,4,2,1,65,0,0
20691,-200,4,2,1,65,0,0
25887,-200,4,2,1,65,0,0
27548,-200,4,2,1,65,0,0
30120,-125,4,2,1,20,0,0
30227,-125,4,2,1,25,0,0
30334,-125,4,2,1,30,0,0
30441,-125,4,2,1,35,0,0
30548,-125,4,2,1,40,0,0
30762,-125,4,2,1,50,0,0
30976,-125,4,2,1,60,0,0
31405,-125,4,2,1,65,0,0
33548,-125,4,2,1,20,0,0
34191,-125,4,2,1,50,0,0
34405,-125,4,2,1,60,0,0
34834,-125,4,2,1,65,0,0
36977,-125,4,2,1,20,0,0
37084,-125,4,2,1,25,0,0
37191,-125,4,2,1,30,0,0
37298,-125,4,2,1,35,0,0
37405,-125,4,2,1,40,0,0
37620,-125,4,2,1,50,0,0
37834,-125,4,2,1,60,0,0
38262,-125,4,2,1,65,0,0
40405,-125,4,2,1,20,0,0
40834,-125,4,2,1,40,0,0
41048,-125,4,2,1,50,0,0
41262,-125,4,2,1,60,0,0
51548,-125,4,2,1,60,0,0
51762,-95.2380952380952,4,2,1,60,0,0
51977,-76.9230769230769,4,2,1,60,0,0
52191,-64.5161290322581,4,2,1,60,0,0
52405,-55.5555555555556,4,2,1,60,0,0
53262,-200,4,2,1,60,0,0
53477,-200,4,2,1,5,0,0
56691,-58.8235294117647,4,1,1,65,0,1
57012,-58.8235294117647,4,1,1,5,0,1
57120,-58.8235294117647,4,1,1,65,0,1
57227,-58.8235294117647,4,1,1,5,0,1
57334,-58.8235294117647,4,1,1,65,0,1
57441,-58.8235294117647,4,1,1,5,0,1
57548,-58.8235294117647,4,1,1,65,0,1
57870,-58.8235294117647,4,1,1,5,0,1
57977,-58.8235294117647,4,1,1,65,0,1
58084,-58.8235294117647,4,1,1,5,0,1
58191,-58.8235294117647,4,1,1,65,0,1
58512,-58.8235294117647,4,1,1,5,0,1
58566,-58.8235294117647,4,1,1,65,0,1
58673,-58.8235294117647,4,1,1,5,0,1
58834,-58.8235294117647,4,1,1,65,0,1
58887,-58.8235294117647,4,1,1,5,0,1
59048,-58.8235294117647,4,1,1,65,0,1
59102,-58.8235294117647,4,1,1,5,0,1
59262,-58.8235294117647,4,1,1,65,0,1
59423,-58.8235294117647,4,1,1,5,0,1
59477,-58.8235294117647,4,1,1,65,0,1
59584,-58.8235294117647,4,1,1,5,0,1
59691,-58.8235294117647,4,1,1,65,0,1
59798,-58.8235294117647,4,1,1,5,0,1
59905,-58.8235294117647,4,1,1,65,0,1
60012,-58.8235294117647,4,1,1,5,0,1
60120,-58.8235294117647,4,1,1,65,0,1
60548,-58.8235294117647,4,1,1,65,0,1
60655,-58.8235294117647,4,1,1,5,0,1
60762,-58.8235294117647,4,1,1,65,0,1
60870,-58.8235294117647,4,1,1,5,0,1
60977,-58.8235294117647,4,1,1,65,0,1
61298,-58.8235294117647,4,1,1,5,0,1
61405,-58.8235294117647,4,1,1,65,0,1
61512,-58.8235294117647,4,1,1,5,0,1
61620,-58.8235294117647,4,1,1,65,0,1
61941,-58.8235294117647,4,1,1,5,0,1
62048,-58.8235294117647,4,1,1,65,0,1
62262,-58.8235294117647,4,1,1,65,0,1
62370,-58.8235294117647,4,1,1,5,0,1
62477,-58.8235294117647,4,1,1,65,0,1
62584,-58.8235294117647,4,1,1,5,0,1
62691,-58.8235294117647,4,1,1,65,0,1
62798,-58.8235294117647,4,1,1,5,0,1
62905,-58.8235294117647,4,1,1,65,0,1
63012,-58.8235294117647,4,1,1,5,0,1
63120,-58.8235294117647,4,1,1,65,0,1
63227,-58.8235294117647,4,1,1,5,0,1
63334,-58.8235294117647,4,1,1,65,0,1
63441,-58.8235294117647,4,1,1,5,0,1
63548,-58.8235294117647,4,1,1,65,0,1
63870,-58.8235294117647,4,1,1,5,0,1
63977,-58.8235294117647,4,1,1,65,0,1
64084,-58.8235294117647,4,1,1,5,0,1
64191,-58.8235294117647,4,1,1,65,0,1
64298,-58.8235294117647,4,1,1,5,0,1
64405,-58.8235294117647,4,1,1,65,0,1
64727,-58.8235294117647,4,1,1,5,0,1
64834,-58.8235294117647,4,1,1,65,0,1
64941,-58.8235294117647,4,1,1,5,0,1
65048,-58.8235294117647,4,1,1,65,0,1
65423,-58.8235294117647,4,1,1,5,0,1
65477,-58.8235294117647,4,1,1,65,0,1
65530,-58.8235294117647,4,1,1,5,0,1
65584,-58.8235294117647,4,1,1,65,0,1
65637,-58.8235294117647,4,1,1,5,0,1
65691,-58.8235294117647,4,1,1,65,0,1
65745,-58.8235294117647,4,1,1,5,0,1
65905,-58.8235294117647,4,1,1,65,0,1
65959,-58.8235294117647,4,1,1,5,0,1
66120,-58.8235294117647,4,1,1,65,0,1
66227,-58.8235294117647,4,1,1,5,0,1
66334,-58.8235294117647,4,1,1,65,0,1
66495,-58.8235294117647,4,1,1,5,0,1
66548,-58.8235294117647,4,1,1,65,0,1
66655,-58.8235294117647,4,1,1,5,0,1
66762,-58.8235294117647,4,1,1,65,0,1
66870,-58.8235294117647,4,1,1,5,0,1
66977,-58.8235294117647,4,1,1,65,0,1
67298,-58.8235294117647,4,1,1,5,0,1
67405,-58.8235294117647,4,1,1,65,0,1
67512,-58.8235294117647,4,1,1,5,0,1
67620,-58.8235294117647,4,1,1,65,0,1
67727,-58.8235294117647,4,1,1,5,0,1
67834,-58.8235294117647,4,1,1,65,0,1
68155,-58.8235294117647,4,1,1,5,0,1
68262,-58.8235294117647,4,1,1,65,0,1
68370,-58.8235294117647,4,1,1,5,0,1
68477,-58.8235294117647,4,1,1,65,0,1
68798,-58.8235294117647,4,1,1,5,0,1
68905,-58.8235294117647,4,1,1,65,0,1
69227,-58.8235294117647,4,1,1,5,0,1
69334,-58.8235294117647,4,1,1,65,0,1
69655,-58.8235294117647,4,1,1,5,0,1
69762,-50,4,1,1,65,0,1
69870,-50,4,1,1,5,0,1
69977,-50,4,1,1,65,0,1
70084,-50,4,1,1,5,0,1
70191,-50,4,1,1,65,0,1
70298,-50,4,1,1,5,0,1
70405,-58.8235294117647,4,1,1,65,0,0
71155,-58.8235294117647,4,1,1,5,0,0
71262,-58.8235294117647,4,1,1,65,0,0
71584,-58.8235294117647,4,1,1,5,0,0
71691,-58.8235294117647,4,1,1,65,0,0
71798,-58.8235294117647,4,1,1,5,0,0
71905,-58.8235294117647,4,1,1,65,0,0
72012,-58.8235294117647,4,1,1,5,0,0
72120,-58.8235294117647,4,1,1,65,0,0
72227,-58.8235294117647,4,1,1,5,0,0
72334,-58.8235294117647,4,1,1,65,0,0
72870,-58.8235294117647,4,1,1,5,0,0
72977,-58.8235294117647,4,1,1,65,0,0
73298,-58.8235294117647,4,1,1,5,0,0
73405,-58.8235294117647,4,1,1,65,0,0
73459,-58.8235294117647,4,1,1,35,0,0
73620,-58.8235294117647,4,1,1,65,0,0
73673,-58.8235294117647,4,1,1,5,0,0
73834,-58.8235294117647,4,1,1,65,0,0
74155,-58.8235294117647,4,1,1,5,0,0
74262,-58.8235294117647,4,1,1,65,0,0
74370,-58.8235294117647,4,1,1,5,0,0
74477,-58.8235294117647,4,1,1,65,0,0
74584,-58.8235294117647,4,1,1,5,0,0
74691,-58.8235294117647,4,1,1,65,0,0
75227,-58.8235294117647,4,1,1,5,0,0
75334,-58.8235294117647,4,1,1,65,0,0
75441,-58.8235294117647,4,1,1,5,0,0
75548,-58.8235294117647,4,1,1,65,0,0
76405,-58.8235294117647,4,1,1,65,0,0
76941,-58.8235294117647,4,1,1,5,0,0
77048,-58.8235294117647,4,1,1,65,0,0
77155,-58.8235294117647,4,1,1,5,0,0
77262,-58.8235294117647,4,1,1,65,0,0
78012,-58.8235294117647,4,1,1,5,0,0
78120,-58.8235294117647,4,1,1,65,0,0
78441,-58.8235294117647,4,1,1,5,0,0
78548,-58.8235294117647,4,1,1,65,0,0
78655,-58.8235294117647,4,1,1,5,0,0
78762,-58.8235294117647,4,1,1,65,0,0
78870,-58.8235294117647,4,1,1,5,0,0
78977,-50,4,1,1,65,0,0
79405,-58.8235294117647,4,1,1,65,0,0
79512,-58.8235294117647,4,1,1,5,0,0
79620,-58.8235294117647,4,1,1,65,0,0
79727,-58.8235294117647,4,1,1,5,0,0
79834,-58.8235294117647,4,1,1,65,0,0
80155,-58.8235294117647,4,1,1,5,0,0
80262,-142.857142857143,4,1,1,65,0,0
80316,-58.8235294117647,4,1,1,5,0,0
80477,-142.857142857143,4,1,1,65,0,0
80530,-58.8235294117647,4,1,1,5,0,0
80691,-58.8235294117647,4,1,1,65,0,0
81012,-58.8235294117647,4,1,1,5,0,0
81120,-142.857142857143,4,1,1,65,0,0
81173,-58.8235294117647,4,1,1,5,0,0
81334,-142.857142857143,4,1,1,65,0,0
81387,-58.8235294117647,4,1,1,5,0,0
81548,-58.8235294117647,4,2,1,65,0,0
82191,-58.8235294117647,4,2,1,65,0,0
82298,-58.8235294117647,4,2,1,5,0,0
82405,-181.818181818182,4,2,1,65,0,0
82512,-142.857142857143,4,2,1,5,0,0
83477,-58.8235294117647,4,2,1,25,0,0
83584,-58.8235294117647,4,2,1,45,0,0
83691,-58.8235294117647,4,2,1,65,0,0
84120,-58.8235294117647,4,3,1,65,0,0
84441,-58.8235294117647,4,3,1,5,0,0
84548,-58.8235294117647,4,3,1,65,0,0
84870,-58.8235294117647,4,3,1,5,0,0
84977,-58.8235294117647,4,3,1,65,0,0
85084,-58.8235294117647,4,3,1,5,0,0
85191,-58.8235294117647,4,3,1,65,0,0
85405,-200,4,3,1,65,0,0
85620,-58.8235294117647,4,3,1,65,0,0
85727,-58.8235294117647,4,3,1,5,0,0
85834,-50,4,3,1,65,0,0
85941,-50,4,3,1,5,0,0
86048,-50,4,3,1,65,0,0
86262,-58.8235294117647,4,3,1,65,0,0
86316,-58.8235294117647,4,3,1,5,0,0
86477,-58.8235294117647,4,3,1,65,0,0
86530,-58.8235294117647,4,3,1,5,0,0
86691,-58.8235294117647,4,3,1,65,0,0
86745,-58.8235294117647,4,3,1,5,0,0
86905,-58.8235294117647,4,3,1,65,0,0
87012,-58.8235294117647,4,3,1,5,0,0
87120,-58.8235294117647,4,3,1,65,0,0
87227,-58.8235294117647,4,3,1,5,0,0
87334,-58.8235294117647,4,3,1,65,0,0
87441,-58.8235294117647,4,3,1,5,0,0
87548,-58.8235294117647,4,3,1,65,0,0
88512,-58.8235294117647,4,3,1,5,0,0
88620,-58.8235294117647,4,3,1,65,0,0
89048,-58.8235294117647,4,3,1,65,0,0
89155,-58.8235294117647,4,3,1,5,0,0
89262,-50,4,3,1,65,0,0
89370,-50,4,3,1,5,0,0
89477,-200,4,3,1,65,0,0
89584,-200,4,3,1,5,0,0
89691,-200,4,3,1,65,0,0
90120,-200,4,3,1,65,0,0
90334,-125,4,3,1,65,0,0
90548,-90.9090909090909,4,3,1,65,0,0
90762,-71.4285714285714,4,3,1,65,0,0
90977,-58.8235294117647,4,3,1,65,0,0
91298,-58.8235294117647,4,3,1,5,0,0
91405,-58.8235294117647,4,3,1,65,0,0
91727,-58.8235294117647,4,3,1,5,0,0
91834,-58.8235294117647,4,3,1,65,0,0
91941,-58.8235294117647,4,3,1,5,0,0
92048,-58.8235294117647,4,3,1,65,0,0
92262,-142.857142857143,4,3,1,65,0,0
92477,-58.8235294117647,4,3,1,65,0,0
92584,-58.8235294117647,4,3,1,5,0,0
92691,-50,4,3,1,65,0,0
92798,-50,4,3,1,5,0,0
92905,-50,4,3,1,65,0,0
93120,-58.8235294117647,4,3,1,65,0,0
93173,-58.8235294117647,4,3,1,5,0,0
93334,-58.8235294117647,4,3,1,65,0,0
93387,-58.8235294117647,4,3,1,5,0,0
93548,-58.8235294117647,4,3,1,65,0,0
93655,-58.8235294117647,4,3,1,5,0,0
93762,-58.8235294117647,4,3,1,65,0,0
93870,-58.8235294117647,4,3,1,5,0,0
93977,-58.8235294117647,4,3,1,65,0,0
94084,-58.8235294117647,4,3,1,5,0,0
94191,-58.8235294117647,4,3,1,65,0,0
94298,-58.8235294117647,4,3,1,5,0,0
94405,-58.8235294117647,4,3,1,65,0,0
94727,-58.8235294117647,4,3,1,5,0,0
94834,-58.8235294117647,4,3,1,65,0,0
94941,-58.8235294117647,4,3,1,5,0,0
95048,-58.8235294117647,4,3,1,65,0,0
95155,-58.8235294117647,4,3,1,5,0,0
95262,-58.8235294117647,4,3,1,65,0,0
95691,-142.857142857143,4,3,1,65,0,0
95798,-142.857142857143,4,3,1,5,0,0
95905,-142.857142857143,4,3,1,65,0,0
96012,-142.857142857143,4,3,1,5,0,0
96120,-58.8235294117647,4,3,1,65,0,0
96977,-58.8235294117647,4,3,1,65,0,0
97084,-58.8235294117647,4,3,1,5,0,0
97191,-58.8235294117647,4,3,1,65,0,0
97298,-58.8235294117647,4,3,1,5,0,0
97405,-142.857142857143,4,3,1,65,0,0
97834,-142.857142857143,4,2,1,65,0,0
98262,-142.857142857143,4,2,1,65,0,0
100620,-58.8235294117647,4,2,1,65,0,0
101262,-142.857142857143,4,2,1,65,0,0
103834,-142.857142857143,4,2,1,65,0,0
103887,-142.857142857143,4,2,1,5,0,0
104048,-142.857142857143,4,2,1,65,0,0
104102,-142.857142857143,4,2,1,5,0,0
104262,-142.857142857143,4,2,1,65,0,0
105120,-142.857142857143,4,2,1,65,0,0
107477,-58.8235294117647,4,2,1,65,0,0
108120,-142.857142857143,4,2,1,65,0,0
110691,-142.857142857143,4,2,1,65,0,0
111548,-142.857142857143,4,2,1,65,0,0
117548,-142.857142857143,4,2,1,65,0,0
118834,-142.857142857143,4,2,1,65,0,0

[Colours]
Combo1 : 193,19,63
Combo2 : 86,134,186
Combo3 : 149,125,191
Combo4 : 0,105,210
Combo5 : 126,64,255
Combo6 : 6,180,230
Combo7 : 162,30,86
Combo8 : 182,39,168

[HitObjects]
92,64,120,6,0,P|88:100|100:144,1,80,2|0,0:0|0:0,0:0:0:0:
112,156,441,1,0,0:0:0:0:
112,156,548,2,0,L|104:248,1,80,4|4,0:0|0:0,0:0:0:0:
100,332,977,1,12,0:0:0:0:
192,312,1191,1,4,0:0:0:0:
192,312,1512,1,0,0:0:0:0:
192,312,1834,6,0,L|312:324,1,120,2|4,0:0|0:0,0:0:0:0:
356,304,2262,2,0,L|340:212,1,80,0|4,0:0|0:0,0:0:0:0:
316,132,2691,1,8,0:0:0:0:
376,56,2905,1,4,0:0:0:0:
376,56,3227,1,4,0:0:0:0:
376,56,3334,1,0,0:0:0:0:
376,56,3548,102,0,L|464:64,1,80,2|0,0:0|0:0,0:0:0:0:
472,80,3870,1,0,0:0:0:0:
472,80,3977,2,0,L|452:164,1,80,4|4,0:0|0:0,0:0:0:0:
500,244,4405,1,12,0:0:0:0:
476,336,4620,1,4,0:0:0:0:
392,288,4834,1,4,0:0:0:0:
392,288,4941,2,0,L|312:280,1,80,0|0,0:0|0:0,0:0:0:0:
280,316,5262,6,0,P|288:264|262:195,1,120,2|0,0:0|0:0,0:0:0:0:
276,152,5691,2,0,L|184:160,1,80
152,352,6120,1,8,0:0:0:0:
176,260,6334,1,4,0:0:0:0:
176,260,6655,5,4,0:0:0:0:
44,192,6762,1,8,0:0:0:0:
44,192,6977,86,0,B|32:148|32:148|40:64,1,120,2|0,0:0|0:0,0:0:0:0:
52,28,7405,1,4,0:0:0:0:
128,88,7620,1,4,0:0:0:0:
188,16,7834,1,12,0:0:0:0:
144,188,8048,1,4,0:0:0:0:
144,188,8370,1,0,0:0:0:0:
144,188,8691,6,0,P|176:152|248:140,1,120,2|4,0:0|0:0,0:0:0:0:
288,156,9120,2,0,P|328:168|376:160,1,80,0|4,0:0|0:0,0:0:0:0:
188,16,9548,1,8,0:0:0:0:
152,192,9762,1,4,0:0:0:0:
152,192,10084,1,4,0:0:0:0:
152,192,10191,2,0,L|144:144,1,40,2|0,0:0|0:0,0:0:0:0:
264,244,10405,102,0,P|272:212|272:148,1,80,2|0,0:0|0:0,0:0:0:0:
296,124,10727,2,0,P|280:96|276:72,2,40,4|0|0,0:0|0:0|0:0,0:0:0:0:
364,72,11048,2,0,L|400:55,1,40,4|0,0:0|0:0,0:0:0:0:
184,112,11262,1,12,0:0:0:0:
184,112,11477,2,0,P|144:116|96:96,1,80,4|4,0:0|0:0,0:0:0:0:
64,128,11798,2,0,P|44:160|36:212,1,80
48,248,12120,5,2,0:0:0:0:
256,192,12227,12,2,13834,0:0:0:0:
132,304,20691,102,0,B|204:333|278:308|278:308|374:311|374:311|404:288|404:288|384:272|384:272|290:268,2,400
256,192,24227,12,0,27120,0:0:0:0:
164,208,27548,6,0,L|152:104,1,100,2|2,0:0|0:0,0:0:0:0:
448,136,30120,102,0,L|436:184,4,40,2|2|2|2|2,0:0|0:0|0:0|0:0|0:0,0:0:0:0:
400,52,30762,1,2,0:0:0:0:
342,270,30977,2,0,L|324:112,1,160,2|2,0:0|0:0,0:0:0:0:
288,304,33548,6,0,L|264:140,1,160,2|0,0:0|0:0,0:0:0:0:
248,52,34191,1,2,0:0:0:0:
396,332,34405,2,0,L|372:168,1,160,2|2,0:0|0:0,0:0:0:0:
100,176,36977,102,0,L|112:220,4,40,2|2|2|2|2,0:0|0:0|0:0|0:0|0:0,0:0:0:0:
112,80,37620,1,2,0:0:0:0:
244,288,37834,2,0,L|192:136,1,160,2|2,0:0|0:0,0:0:0:0:
396,264,40405,6,0,B|416:256|424:268|424:268|428:264|428:264|444:296|488:248|460:188|400:212,1,160,2|2,0:0|0:0,0:0:0:0:
320,220,41048,1,2,0:0:0:0:
144,289,41262,102,0,L|264:300,1,120,2|0,0:0|0:0,0:0:0:0:
66,196,41691,2,0,L|159:178,1,80,2|0,0:0|0:0,0:0:0:0:
388,80,42120,1,0,0:0:0:0:
388,80,42548,1,0,0:0:0:0:
432,344,42977,5,2,0:0:0:0:
432,344,44691,101,2,0:0:0:0:
432,344,46405,5,2,0:0:0:0:
432,344,48120,101,2,1:0:0:0:
344,308,48334,1,0,0:0:0:0:
344,308,48441,1,0,0:0:0:0:
344,308,48548,1,2,1:0:0:0:
416,244,48762,1,0,0:0:0:0:
192,352,48977,2,0,P|144:348|112:324,1,80,2|0,1:0|0:0,0:0:0:0:
118,330,49298,1,0,0:0:0:0:
148,168,49405,2,0,P|196:172|228:196,1,80,2|0,1:0|0:0,0:0:0:0:
232,236,49727,1,0,0:0:0:0:
260,272,49834,5,2,1:0:0:0:
52,224,50048,1,0,0:0:0:0:
52,224,50155,1,0,0:0:0:0:
52,224,50262,1,2,0:0:0:0:
316,192,50477,1,0,0:0:0:0:
176,40,50691,2,0,P|204:72|240:88,1,80,2|0,1:0|0:0,0:0:0:0:
237,87,51012,1,0,0:0:0:0:
400,84,51120,2,0,L|480:72,1,80,2|0,1:0|0:0,0:0:0:0:
479,72,51441,1,0,0:0:0:0:
456,216,51548,6,0,L|412:208,1,40,2|0,1:0|0:0,0:0:0:0:
292,236,51762,6,0,L|300:304,1,52.4999983978272,2|0,1:0|0:0,0:0:0:0:
176,144,51977,6,0,L|184:72,1,64.9999970245363,2|0,1:0|0:0,0:0:0:0:
76,304,52191,6,0,L|152:324,1,77.5000005912781,2|0,1:0|0:0,0:0:0:0:
76,164,52405,5,2,1:0:0:0:
68,140,52512,1,2,1:0:0:0:
168,232,52620,1,2,1:0:0:0:
196,224,52727,1,2,1:0:0:0:
296,120,52834,2,0,L|404:132,1,89.9999972534181,2|2,1:0|1:0,0:0:0:0:
340,336,53048,1,2,1:0:0:0:
336,352,53155,1,2,1:0:0:0:
436,248,53262,6,0,L|448:192,1,50,8|0,1:0|0:0,0:0:0:0:
72,104,56691,38,0,B|124:88|152:120|152:120|172:116|192:104|192:104|200:120|200:120|224:104|240:152|340:144,1,255.000004863739,6|0,3:0|0:0,0:0:0:0:
448,104,57120,2,0,P|416:152|416:208,1,85.0000016212464,0|0,0:0|0:0,0:0:0:0:
348,352,57334,2,0,P|344:300|320:256,1,85.0000016212464,0|0,0:0|0:0,0:0:0:0:
292,64,57548,2,0,B|292:116|292:116|264:168|264:168|260:212|228:236|228:236|224:324,1,255.000004863739,8|0,0:0|0:0,0:0:0:0:
150,334,57977,2,0,P|202:302|254:306,1,85.0000016212464,0|0,0:0|0:0,0:0:0:0:
392,204,58191,2,0,B|320:226|320:226|300:222|284:230|284:230|260:214|228:210|228:210|200:218|176:210|176:210|136:218,1,255.000004863739,0|0,0:0|0:0,0:0:0:0:
452,272,58620,6,0,P|480:236|480:184,1,85.0000016212464,0|0,0:0|0:0,0:0:0:0:
376,84,58834,2,0,P|374:38|340:-1,1,85.0000016212464,0|0,0:0|0:0,0:0:0:0:
200,132,59048,2,0,P|164:102|113:100,1,85.0000016212464
304,300,59262,102,0,B|312:252|312:252|300:240|300:240|300:156,1,127.50000243187,8|0,0:0|0:0,0:0:0:0:
284,152,59477,2,0,B|292:116|292:116|280:96|280:96|272:64,1,85.0000016212464,0|0,3:0|3:0,0:0:0:0:
384,324,59691,2,8,B|411:348|411:348|434:348|434:348|466:357,1,85.0000016212464,0|8,3:0|3:0,0:0:0:0:
176,292,59905,2,0,B|140:303|140:303|129:323|129:323|105:346,1,85.0000016212464,0|0,3:0|3:0,0:0:0:0:
428,188,60120,6,0,B|436:140|436:140|464:96|464:96|452:8,1,170.000003242493,6|0,3:0|0:0,0:0:0:0:
452,272,60441,1,0,0:0:0:0:
216,216,60548,2,0,P|160:208|124:224,1,85.0000016212464,0|0,0:0|0:0,0:0:0:0:
276,70,60762,2,0,P|332:78|368:62,1,85.0000016212464,0|0,0:0|0:0,0:0:0:0:
119,99,60977,102,0,B|159:98|183:83|183:83|207:90|231:86|231:86|235:94|235:94|259:86|287:99|287:99|351:63|387:63,1,255.000004863739,8|0,0:0|0:0,0:0:0:0:
56,43,61405,2,0,P|88:79|128:103,1,85.0000016212464,0|0,0:0|0:0,0:0:0:0:
408,200,61620,2,0,B|363:185|346:222|346:222|282:204|216:243|210:307,1,255.000004863739
312,320,62048,5,0,0:0:0:0:
192,168,62155,1,0,0:0:0:0:
120,288,62262,2,0,P|124:344|136:376,1,85.0000016212464,0|0,0:0|0:0,0:0:0:0:
474,250,62477,2,0,P|486:210|488:168,1,85.0000016212464,0|0,0:0|0:0,0:0:0:0:
80,208,62691,2,0,B|56:216|40:232|40:232|48:216|40:184,1,85.0000016212464,8|0,3:0|3:0,0:0:0:0:
470,86,62905,102,0,P|486:126|486:178,1,85.0000016212464,0|0,3:0|3:0,0:0:0:0:
320,100,63120,2,0,P|360:114|399:149,1,85.0000016212464,0|0,3:0|3:0,0:0:0:0:
228,212,63334,2,0,P|266:191|317:186,1,85.0000016212464,0|0,3:0|3:0,0:0:0:0:
100,180,63548,6,0,B|80:140|80:140|100:40|100:40|84:28|84:28|60:128,1,255.000004863739,6|0,3:0|0:0,0:0:0:0:
176,128,63977,2,0,L|200:36,1,85.0000016212464,0|0,0:0|0:0,0:0:0:0:
32,252,64191,2,0,L|84:352,1,85.0000016212464,0|0,0:0|0:0,0:0:0:0:
364,264,64405,2,0,B|316:257|316:257|292:269|292:269|188:252|188:252|192:224|192:224|256:236,1,255.000004863739,8|0,0:0|0:0,0:0:0:0:
476,204,64834,2,0,B|484:240|484:240|484:272|484:272|492:312,1,85.0000016212464,0|0,0:0|0:0,0:0:0:0:
304,356,65048,2,0,B|294:313|294:313|294:276|294:276|274:144|274:144|288:120|288:120|316:136|316:136|320:160,1,297.500005674362,0|0,0:0|0:0,0:0:0:0:
324,172,65477,1,0,0:0:0:0:
348,32,65584,1,0,0:0:0:0:
84,132,65691,101,0,0:0:0:0:
84,132,65905,1,0,0:0:0:0:
84,132,66120,2,0,L|100:244,1,85.0000016212464,8|0,0:0|0:0,0:0:0:0:
25,309,66334,2,0,P|41:253|109:213,1,127.50000243187,0|0,0:0|0:0,0:0:0:0:
120,216,66548,6,0,L|212:232,1,85.0000016212464,0|0,3:0|3:0,0:0:0:0:
412,116,66762,2,0,L|504:100,1,85.0000016212464,0|0,3:0|3:0,0:0:0:0:
228,328,66977,102,0,B|200:296|200:296|201:230|201:230|224:200|224:200|212:64,1,255.000004863739,6|0,3:0|0:0,0:0:0:0:
296,264,67405,2,0,L|400:292,1,85.0000016212464,0|0,0:0|0:0,0:0:0:0:
96,92,67620,2,0,L|-8:120,1,85.0000016212464,0|0,0:0|0:0,0:0:0:0:
346,83,67834,2,0,B|242:93|242:93|190:77|190:77|86:93,1,255.000004863739,8|0,0:0|0:0,0:0:0:0:
358,167,68262,2,0,L|343:63,1,85.0000016212464,0|0,0:0|0:0,0:0:0:0:
164,176,68477,2,0,B|104:184|104:184|88:236|88:236|92:260|92:260|120:296|120:296|196:284,1,255.000004863739,0|0,0:0|0:0,0:0:0:0:
472,236,68905,5,8,3:0:0:0:
472,236,69120,2,0,L|460:336,1,85.0000016212464,8|0,3:0|3:0,0:0:0:0:
296,336,69334,1,2,0:0:0:0:
292,356,69441,1,2,0:0:0:0:
296,200,69548,2,0,L|384:216,1,85.0000016212464,2|0,3:0|3:0,0:0:0:0:
382,197,69762,102,0,B|405:180|404:163|404:163|414:158|414:158|399:131|403:85,1,100,8|0,3:0|3:0,0:0:0:0:
416,300,69977,2,0,B|418:328|434:336|434:336|433:347|433:347|465:347|502:374,1,100,2|0,3:0|3:0,0:0:0:0:
316,284,70191,2,0,B|289:271|275:282|275:282|266:275|266:275|250:302|208:321,1,100,8|0,3:0|3:0,0:0:0:0:
140,24,70405,22,0,B|196:68|160:120|160:120|180:148|180:148|104:168|84:248,1,255.000004863739,6|0,3:0|3:0,0:0:0:0:
80,236,70834,2,0,B|88:176|172:140|172:140|184:128|184:128|224:160|296:160,1,255.000004863739,2|0,3:0|3:0,0:0:0:0:
304,72,71262,2,0,B|260:64|240:48|240:48|308:8|344:44|360:84|428:48,1,255.000004863739,8|0,0:0|0:0,0:0:0:0:
208,240,71691,2,0,P|176:280|176:336,1,85.0000016212464,0|0,3:0|3:0,0:0:0:0:
453,125,71905,2,0,P|444:83|416:52,1,85.0000016212464,0|0,3:0|3:0,0:0:0:0:
264,316,72120,6,0,P|280:348|320:376,1,85.0000016212464,2|0,3:0|0:0,0:0:0:0:
336,200,72334,1,0,3:0:0:0:
336,168,72441,1,0,3:0:0:0:
448,264,72548,1,0,3:0:0:0:
464,240,72655,1,0,3:0:0:0:
224,148,72762,2,0,P|208:88|208:40,1,85.0000016212464,0|0,3:0|0:0,0:0:0:0:
352,308,72977,102,0,B|304:340|244:320|244:320|232:328|232:328|168:312|136:356|136:356|84:356,1,255.000004863739,8|0,0:0|0:0,0:0:0:0:
116,152,73405,2,0,P|92:108|84:64,1,85.0000016212464,0|0,3:0|0:0,0:0:0:0:
83,278,73620,2,0,P|107:322|115:366,1,85.0000016212464,0|0,3:0|0:0,0:0:0:0:
12,208,73834,6,0,P|60:184|212:284,1,255.000004863739,6|0,3:0|3:0,0:0:0:0:
208,104,74262,2,8,P|212:60|228:20,1,85.0000016212464,0|8,3:0|0:0,0:0:0:0:
352,308,74477,2,0,P|388:328|436:336,1,85.0000016212464,0|0,3:0|0:0,0:0:0:0:
280,200,74691,101,8,3:0:0:0:
421,235,74798,1,0,3:0:0:0:
302,79,74905,1,0,3:0:0:0:
475,116,75012,1,0,3:0:0:0:
280,200,75120,6,0,P|216:216|160:200,1,85.0000016212464,0|0,3:0|3:0,0:0:0:0:
392,72,75334,2,0,P|376:136|335:177,1,85.0000016212464,0|0,3:0|3:0,0:0:0:0:
104,200,75548,102,0,P|64:164|32:40,1,170.000003242493,2|0,3:0|3:0,0:0:0:0:
197,213,75870,1,0,0:0:0:0:
144,336,75977,1,0,3:0:0:0:
132,116,76084,2,0,P|136:64|160:24,1,85.0000016212464,0|0,3:0|0:0,0:0:0:0:
236,292,76298,1,0,0:0:0:0:
252,304,76405,1,8,0:0:0:0:
88,280,76512,1,0,0:0:0:0:
64,284,76620,2,0,P|24:264|-8:232,1,85.0000016212464
224,128,76834,6,0,L|332:112,1,85.0000016212464,2|0,0:0|0:0,0:0:0:0:
268,320,77048,2,0,L|376:304,1,85.0000016212464,8|0,0:0|0:0,0:0:0:0:
372,28,77262,102,0,P|408:76|376:188,1,170.000003242493,6|0,3:0|0:0,0:0:0:0:
201,47,77584,1,0,3:0:0:0:
252,304,77691,2,0,P|275:248|468:247,1,255.000004863739,0|0,3:0|0:0,0:0:0:0:
308,96,78120,2,0,B|248:148|168:140|168:140|72:76,1,255.000004863739,8|0,0:0|0:0,0:0:0:0:
160,364,78548,2,0,P|152:312|120:268,1,85.0000016212464,0|0,3:0|3:0,0:0:0:0:
57,161,78762,2,0,P|65:109|97:65,1,85.0000016212464,0|0,3:0|3:0,0:0:0:0:
280,328,78977,6,0,L|44:352,1,200,2|0,3:0|3:0,0:0:0:0:
20,244,79298,1,0,3:0:0:0:
236,224,79405,102,0,P|236:176|224:132,1,85.0000016212464
384,264,79620,2,0,P|384:312|396:356,1,85.0000016212464,0|0,0:0|0:0,0:0:0:0:
183,70,79834,1,8,0:0:0:0:
183,70,80048,2,0,P|199:114|231:142,1,85.0000016212464,0|0,3:0|0:0,0:0:0:0:
464,224,80262,6,0,P|436:196|428:192,1,34.9999989318848,0|0,3:0|0:0,0:0:0:0:
148,196,80477,2,0,P|120:224|112:228,1,34.9999989318848,0|0,3:0|0:0,0:0:0:0:
320,156,80691,102,0,B|384:140|384:140|392:84|392:84|356:48|356:48|264:68,1,255.000004863739,6|0,3:0|3:0,0:0:0:0:
368,288,81120,2,0,L|376:332,1,34.9999989318848,0|0,3:0|0:0,0:0:0:0:
248,240,81334,2,0,L|244:288,1,34.9999989318848,0|0,3:0|0:0,0:0:0:0:
96,96,81548,6,0,L|112:192,1,85.0000016212464,8|0,3:0|0:0,0:0:0:0:
236,304,81762,1,0,3:0:0:0:
224,328,81870,1,0,3:0:0:0:
112,280,81977,1,0,3:0:0:0:
80,276,82084,1,0,3:0:0:0:
235,146,82191,2,0,L|343:158,1,85.0000016212464,0|0,3:0|3:0,0:0:0:0:
110,181,82405,22,0,L|0:168,1,110.000003356934
0,168,83477,54,0,L|112:180,1,85.0000016212464
304,134,83691,1,0,0:0:0:0:
440,144,83905,21,0,0:0:0:0:
440,144,84012,1,0,0:0:0:0:
440,144,84120,6,0,B|448:112|440:80|440:80|404:84|360:56|360:56|308:84|300:120|300:120|312:156,1,255.000004863739,6|0,0:0|0:0,0:0:0:0:
356,220,84548,2,0,P|360:272|204:272,1,255.000004863739,0|0,0:0|0:0,0:0:0:0:
108,248,84977,2,0,B|72:240|72:240|48:240|48:240|40:232|0:228,1,85.0000016212464,8|0,0:0|0:0,0:0:0:0:
280,248,85191,1,0,0:0:0:0:
80,336,85298,1,0,0:0:0:0:
100,148,85405,6,0,L|104:120,1,25
204,32,85620,2,0,L|220:152,1,85.0000016212464,0|0,0:0|0:0,0:0:0:0:
159,363,85834,102,0,P|179:303|211:279,1,100,2|0,0:0|0:0,0:0:0:0:
296,44,86048,1,0,0:0:0:0:
280,248,86155,1,0,0:0:0:0:
100,148,86262,2,0,B|96:128|96:128|96:112|96:112|88:96|88:96|80:40,1,85.0000016212464,0|0,0:0|0:0,0:0:0:0:
188,196,86477,2,0,B|207:202|207:202|221:210|221:210|239:211|239:211|291:232,1,85.0000016212464,0|0,0:0|0:0,0:0:0:0:
108,248,86691,2,0,B|92:261|92:261|78:269|78:269|68:284|68:284|24:319,1,85.0000016212464,8|0,0:0|0:0,0:0:0:0:
352,184,86905,6,0,P|372:224|372:268,1,85.0000016212464,0|0,0:0|0:0,0:0:0:0:
344,104,87120,2,0,P|388:110|424:135,1,85.0000016212464,0|0,0:0|0:0,0:0:0:0:
276,60,87334,2,0,P|307:28|349:15,1,85.0000016212464,0|0,0:0|0:0,0:0:0:0:
320,360,87548,102,0,P|252:364|156:300,1,170.000003242493,6|0,0:0|0:0,0:0:0:0:
108,232,87870,1,0,0:0:0:0:
264,280,87977,2,0,P|320:280|436:228,1,170.000003242493,0|0,0:0|0:0,0:0:0:0:
108,232,88298,1,0,0:0:0:0:
312,188,88405,2,0,P|360:160|392:120,1,85.0000016212464,8|0,0:0|0:0,0:0:0:0:
197,114,88620,5,0,0:0:0:0:
187,255,88727,1,0,0:0:0:0:
100,88,88834,1,0,0:0:0:0:
28,208,88941,1,0,0:0:0:0:
197,114,89048,2,0,L|205:22,1,85.0000016212464
400,280,89262,102,0,P|344:284|300:340,1,100,2|0,0:0|0:0,0:0:0:0:
388,152,89477,2,0,L|400:120,1,25,0|0,0:0|0:0,0:0:0:0:
380,356,89691,5,0,0:0:0:0:
212,212,89798,1,0,0:0:0:0:
236,376,89905,1,0,0:0:0:0:
308,184,90012,1,0,0:0:0:0:
156,332,90120,6,0,P|136:340|124:344,1,25,8|0,0:0|0:0,0:0:0:0:
56,272,90334,6,0,L|8:268,1,40,0|0,0:0|0:0,0:0:0:0:
36,168,90548,6,0,L|-12:112,1,55.0000016784668,0|0,0:0|0:0,0:0:0:0:
108,88,90762,6,0,L|112:12,1,69.9999978637696
218,222,90977,38,0,B|262:58|262:58|286:82|286:82|274:142,1,255.000004863739,6|0,0:0|0:0,0:0:0:0:
186,358,91405,2,0,B|242:322|242:322|450:338,1,255.000004863739
122,210,91834,6,0,P|138:266|130:298,1,85.0000016212464,8|0,0:0|0:0,0:0:0:0:
318,242,92048,1,0,0:0:0:0:
342,238,92155,1,0,0:0:0:0:
50,262,92262,2,0,L|6:270,1,34.9999989318848,0|0,0:0|0:0,0:0:0:0:
248,140,92477,2,0,L|348:148,1,85.0000016212464
96,120,92691,102,0,P|76:68|80:12,1,100,2|0,0:0|0:0,0:0:0:0:
316,288,92905,1,0,0:0:0:0:
88,328,93012,1,0,0:0:0:0:
248,140,93120,6,0,B|256:108|256:108|276:96|276:96|276:72|288:40,1,85.0000016212464,0|0,0:0|0:0,0:0:0:0:
166,227,93334,2,0,B|134:236|134:236|113:224|113:224|93:236|59:242,1,85.0000016212464,0|0,0:0|0:0,0:0:0:0:
280,252,93548,2,0,B|303:274|303:274|304:298|304:298|324:310|346:336,1,85.0000016212464
32,172,93762,102,0,P|4:212|0:248,1,85.0000016212464
84,104,93977,2,0,P|37:89|1:97,1,85.0000016212464,0|0,0:0|0:0,0:0:0:0:
176,116,94191,2,0,P|175:67|157:35,1,85.0000016212464,0|0,0:0|0:0,0:0:0:0:
176,264,94405,86,0,P|216:328|388:288,1,255.000004863739,6|0,0:0|0:0,0:0:0:0:
388,292,94834,2,0,P|404:264|464:240,1,85.0000016212464,0|0,0:0|0:0,0:0:0:0:
292,40,95048,2,0,P|312:92|304:160,1,85.0000016212464,0|0,0:0|0:0,0:0:0:0:
280,252,95262,1,8,0:0:0:0:
440,124,95477,1,0,0:0:0:0:
456,116,95584,1,0,0:0:0:0:
209,106,95691,2,0,L|165:118,1,34.9999989318848,0|0,0:0|0:0,0:0:0:0:
384,192,95905,2,0,L|432:204,1,34.9999989318848,0|0,0:0|0:0,0:0:0:0:
144,52,96120,86,0,B|116:88|116:144|160:172|160:172|161:291|161:291|130:268|130:268|128:192,1,340.000006484985,6|0,0:0|0:0,0:0:0:0:
132,225,96762,1,0,0:0:0:0:
292,96,96977,2,0,P|284:148|264:184,1,85.0000016212464,8|0,0:0|0:0,0:0:0:0:
256,368,97191,2,0,P|264:316|284:280,1,85.0000016212464,0|0,0:0|0:0,0:0:0:0:
408,164,97405,6,0,L|401:119,1,34.9999989318848,2|0,0:0|2:0,0:0:0:0:
494,76,97620,2,0,L|462:45,1,34.9999989318848,0|0,0:0|2:0,0:0:0:0:
379,38,97834,69,6,3:0:0:0:
480,208,98048,1,0,0:0:0:0:
420,264,98262,6,0,L|340:264,1,69.9999978637696,4|4,0:0|0:0,0:0:0:0:
264,260,98691,1,12,0:0:0:0:
317,178,98905,1,0,0:0:0:0:
179,298,99120,2,0,L|104:303,1,69.9999978637696
317,178,99548,1,0,0:0:0:0:
317,178,99977,102,0,L|312:103,1,69.9999978637696
292,264,100405,1,0,0:0:0:0:
96,64,100620,70,0,L|112:160,1,85.0000016212464,0|0,3:0|2:0,0:0:0:0:
212,140,100834,2,0,L|192:248,1,85.0000016212464,0|0,3:0|2:0,0:0:0:0:
292,264,101048,2,0,L|240:336,1,85.0000016212464,0|0,3:0|2:0,0:0:0:0:
344,136,101262,6,0,L|332:56,1,69.9999978637696,6|0,3:0|0:0,0:0:0:0:
404,20,101691,2,0,L|420:143,1,104.999996795654
396,200,102120,21,12,0:0:0:0:
344,136,102334,1,0,0:0:0:0:
476,175,102548,2,0,P|480:211|446:272,1,104.999996795654
372,275,102977,1,0,0:0:0:0:
372,275,103405,2,0,L|303:268,1,69.9999978637696
96,144,103834,102,0,L|112:188,1,34.9999989318848,8|0,3:0|0:0,0:0:0:0:
248,188,104048,2,0,L|240:236,1,34.9999989318848,0|0,3:0|0:0,0:0:0:0:
128,328,104262,1,2,3:0:0:0:
112,324,104370,1,0,3:0:0:0:
248,308,104477,1,8,3:0:0:0:
264,312,104585,1,0,3:0:0:0:
136,244,104691,6,0,L|64:224,1,69.9999978637696,6|0,3:0|0:0,0:0:0:0:
196,108,105120,2,0,L|344:96,1,139.999995727539,4|12,0:0|0:0,0:0:0:0:
444,76,105762,6,0,P|446:110|434:143,1,69.9999978637696
434,142,106191,1,0,0:0:0:0:
196,108,106405,1,0,0:0:0:0:
268,189,106620,2,0,L|271:235,1,34.9999989318848
217,308,106834,1,0,0:0:0:0:
174,217,107048,1,0,0:0:0:0:
384,291,107262,1,8,0:0:0:0:
348,116,107477,6,0,L|328:8,1,85.0000016212464,0|0,3:0|3:0,0:0:0:0:
312,220,107691,2,0,L|228:291,1,85.0000016212464,0|0,3:0|3:0,0:0:0:0:
416,200,107905,2,0,L|519:236,1,85.0000016212464,0|0,3:0|3:0,0:0:0:0:
258,145,108120,6,0,L|180:155,1,69.9999978637696,6|0,3:0|0:0,0:0:0:0:
58,165,108548,69,0,3:0:0:0:
46,81,108762,1,4,0:0:0:0:
118,41,108977,1,12,0:0:0:0:
186,76,109191,1,0,0:0:0:0:
188,153,109405,1,0,0:0:0:0:
188,153,109834,5,0,0:0:0:0:
68,64,110048,2,0,P|103:10|135:81,1,174.999994659424
68,64,110691,38,0,L|144:84,1,69.9999978637696,8|0,3:0|3:0,0:0:0:0:
204,128,111120,1,0,3:0:0:0:
244,120,111227,1,0,3:0:0:0:
284,112,111334,1,0,3:0:0:0:
324,104,111441,1,0,3:0:0:0:
364,96,111548,6,0,P|400:104|440:192,2,139.999995727539,6|0|12,3:0|3:0|0:0,0:0:0:0:
314,18,112620,1,4,0:0:0:0:
410,18,112834,1,0,0:0:0:0:
410,18,112941,1,0,0:0:0:0:
410,18,113048,1,0,0:0:0:0:
314,18,113262,54,0,L|210:42,1,104.999996795654,2|4,0:0|0:0,0:0:0:0:
48,92,113691,1,0,0:0:0:0:
124,128,113905,1,4,0:0:0:0:
148,208,114120,1,8,0:0:0:0:
116,284,114334,1,4,0:0:0:0:
64,212,114548,1,0,0:0:0:0:
64,212,114655,1,4,0:0:0:0:
64,212,114762,1,0,0:0:0:0:
116,284,114977,102,0,P|144:304|256:316,1,139.999995727539,2|4,0:0|0:0,0:0:0:0:
316,276,115620,1,4,0:0:0:0:
392,244,115834,1,12,0:0:0:0:
476,256,116048,1,4,0:0:0:0:
432,328,116262,1,0,0:0:0:0:
432,328,116370,1,0,0:0:0:0:
432,328,116477,1,0,0:0:0:0:
476,256,116691,6,0,P|488:220|484:116,1,139.999995727539,6|4,0:0|0:0,0:0:0:0:
416,68,117334,1,4,0:0:0:0:
332,60,117548,2,0,P|304:76|284:112,1,69.9999978637696,8|0,3:0|3:0,0:0:0:0:
300,192,117977,1,0,3:0:0:0:
296,232,118084,1,0,3:0:0:0:
272,264,118191,1,0,3:0:0:0:
236,284,118298,1,0,3:0:0:0:
196,280,118405,102,0,P|168:272|80:260,1,104.999996795654,6|0,3:0|0:0,0:0:0:0:
60,112,118834,1,4,0:0:0:0:
140,84,119048,1,4,0:0:0:0:
224,88,119262,1,12,0:0:0:0:
288,144,119477,1,4,0:0:0:0:
312,64,119691,1,0,0:0:0:0:
312,64,119798,1,0,0:0:0:0:
312,64,119905,1,0,0:0:0:0:
288,144,120120,6,0,P|324:156|428:132,1,139.999995727539,2|0,0:0|0:0,0:0:0:0:
488,188,120762,1,4,0:0:0:0:
440,256,120977,1,8,0:0:0:0:
392,48,121191,1,4,0:0:0:0:
316,112,121405,1,0,0:0:0:0:
316,112,121512,1,4,0:0:0:0:
316,112,121620,1,0,0:0:0:0:
392,48,121834,102,0,P|424:48|488:92,1,104.999996795654,2|0,0:0|0:0,0:0:0:0:
316,112,122262,2,0,P|298:87|292:35,1,69.9999978637696,4|4,0:0|0:0,0:0:0:0:
408,144,122691,1,12,0:0:0:0:
208,76,122905,1,4,0:0:0:0:
284,192,123120,1,4,0:0:0:0:
292,212,123227,1,0,0:0:0:0:
292,232,123334,1,4,0:0:0:0:
288,252,123441,1,0,0:0:0:0:
272,268,123548,1,6,0:0:0:0:
