osu file format v14

[General]
AudioFilename: audio.mp3
AudioLeadIn: 0
PreviewTime: 53477
Countdown: 0
SampleSet: Normal
StackLeniency: 0.7
Mode: 0
LetterboxInBreaks: 0
WidescreenStoryboard: 1

[Editor]
DistanceSpacing: 0.15
BeatDivisor: 8
GridSize: 4
TimelineZoom: 2.2

[Metadata]
Title:Hollywood
TitleUnicode:Hollywood
Artist:Neptune
ArtistUnicode:Neptune
Creator:Bandi
Version:Hard
Source:
Tags:Dubstep Wub Smoothie World Fort CiiyusMiapah
BeatmapID:1447502
BeatmapSetID:458385

[Difficulty]
HPDrainRate:6
CircleSize:3.3
OverallDifficulty:7
ApproachRate:7
SliderMultiplier:1.5
SliderTickRate:2

[Events]
//Background and Video events
0,0,"Hollywood.jpg",0,0
//Break Periods
2,14034,20220
2,53462,55791
//Storyboard Layer 0 (Background)
//Storyboard Layer 1 (Fail)
//Storyboard Layer 2 (Pass)
//Storyboard Layer 3 (Foreground)
//Storyboard Sound Samples

[TimingPoints]
120,428.571428571429,4,2,1,75,1,0
56691,-80,4,1,1,75,0,1
70405,-80,4,1,1,75,0,0
82405,-160,4,1,1,75,0,0
82834,-160,4,1,1,5,0,0
83262,-80,4,1,1,75,0,0
84120,-80,4,3,1,75,0,1
97834,-100,4,2,1,75,0,0
100620,-80,4,3,1,75,0,0
102120,-100,4,2,1,75,0,0
103834,-80,4,3,1,75,0,0
104691,-100,4,2,1,75,0,0
107477,-80,4,3,1,75,0,0
108977,-100,4,2,1,75,0,0
110691,-80,4,3,1,75,0,0
112405,-100,4,2,1,75,0,0
117548,-80,4,3,1,75,0,0
118405,-100,4,2,1,75,0,0
123762,-100,4,2,1,25,0,0

[Colours]
Combo1 : 193,19,63
Combo2 : 86,134,186
Combo3 : 149,125,191
Combo4 : 0,105,210
Combo5 : 126,64,255
Combo6 : 6,180,230
Combo7 : 162,30,86
Combo8 : 182,39,168

[HitObjects]
216,116,120,6,0,L|344:128,1,112.5,2|0,0:0|0:0,0:0:0:0:
328,126,548,2,4,L|320:49,1,75
396,200,977,1,12,0:0:0:0:
300,220,1191,2,0,P|288:279|310:343,2,112.5,4|0|2,0:0|0:0|0:0,0:0:0:0:
396,54,2155,5,4,0:0:0:0:
396,54,2262,2,0,L|304:50,1,75,0|4,2:0|0:0,0:0:0:0:
198,126,2691,1,8,0:0:0:0:
112,76,2905,2,0,P|100:135|122:199,1,112.5,4|4,0:0|0:0,0:0:0:0:
113,184,3334,1,2,0:0:0:0:
220,292,3548,102,0,B|246:300|277:292|277:292|306:284|337:295,1,112.5,2|0,0:0|0:0,0:0:0:0:
331,293,3977,1,4,0:0:0:0:
296,208,4191,1,4,0:0:0:0:
352,76,4405,1,12,0:0:0:0:
388,168,4620,1,4,0:0:0:0:
296,208,4834,2,0,B|221:217|221:217|129:203,1,150,4|2,0:0|0:0,0:0:0:0:
16,108,5584,5,4,0:0:0:0:
16,108,5691,2,0,L|104:101,1,75,0|4,0:0|0:0,0:0:0:0:
200,128,6120,1,8,0:0:0:0:
312,152,6334,2,0,L|424:143,1,112.5,4|6,0:0|0:0,0:0:0:0:
424,144,6763,1,8,0:0:0:0:
324,252,6977,102,0,L|196:264,1,112.5,2|0,0:0|0:0,0:0:0:0:
212,262,7405,2,4,L|219:185,1,75
272,68,7834,1,12,0:0:0:0:
312,152,8048,2,0,P|371:164|435:142,2,112.5,4|0|2,0:0|0:0|0:0,0:0:0:0:
180,40,9012,5,4,0:0:0:0:
180,40,9119,2,0,L|88:44,1,75,0|4,2:0|0:0,0:0:0:0:
272,68,9548,1,8,0:0:0:0:
354,12,9762,2,0,P|366:71|344:135,1,112.5,4|4,0:0|0:0,0:0:0:0:
352,120,10191,1,2,0:0:0:0:
264,252,10405,102,0,B|256:278|264:309|264:309|272:338|261:369,1,112.5,2|0,0:0|0:0,0:0:0:0:
262,363,10834,1,4,0:0:0:0:
172,340,11048,1,4,0:0:0:0:
20,380,11262,1,12,0:0:0:0:
84,308,11477,1,4,0:0:0:0:
146,231,11691,2,0,B|160:158|160:158|144:78,1,150,4|2,0:0|0:0,0:0:0:0:
256,192,12334,12,0,13834,0:0:0:0:
256,288,21120,117,0,0:0:0:0:
146,313,21334,1,0,0:0:0:0:
120,208,21548,1,0,0:0:0:0:
224,180,21762,1,0,0:0:0:0:
328,204,21977,2,0,L|424:201,1,75
488,269,22405,6,0,P|511:199|479:124,1,150
399,63,23048,2,0,P|376:133|408:208,1,150
256,192,24120,12,0,27120,0:0:0:0:
263,231,27548,101,2,0:0:0:0:
96,120,27977,1,6,0:0:0:0:
207,108,28191,1,4,0:0:0:0:
164,210,28405,2,0,P|162:245|173:289,1,75,4|4,0:0|0:0,0:0:0:0:
269,334,28834,1,4,0:0:0:0:
263,231,29048,1,4,0:0:0:0:
358,275,29262,6,0,L|508:266,1,150,4|4,0:0|0:0,0:0:0:0:
508,156,29905,2,0,L|358:165,1,150,4|0,0:0|0:0,0:0:0:0:
32,216,30977,102,0,L|24:124,1,75,4|4,0:0|0:0,0:0:0:0:
48,48,31405,1,4,0:0:0:0:
148,248,31834,2,0,L|140:156,1,75,4|4,0:0|0:0,0:0:0:0:
164,80,32262,1,4,0:0:0:0:
256,280,32691,2,0,L|248:188,1,75,4|4,0:0|0:0,0:0:0:0:
272,112,33119,1,4,0:0:0:0:
273,15,33334,2,0,P|361:75|347:182,1,225,4|0,0:0|0:0,0:0:0:0:
488,40,34405,5,2,0:0:0:0:
284,88,34834,1,6,0:0:0:0:
373,19,35048,1,4,0:0:0:0:
394,129,35262,2,0,P|396:164|383:206,1,75,4|4,0:0|0:0,0:0:0:0:
308,286,35691,1,4,0:0:0:0:
283,176,35905,1,4,0:0:0:0:
204,246,36120,102,0,L|54:237,1,150,4|4,0:0|0:0,0:0:0:0:
40,350,36762,2,0,L|190:359,1,150,4|0,0:0|0:0,0:0:0:0:
448,332,37834,6,0,L|456:240,1,75,6|4,0:0|0:0,0:0:0:0:
432,164,38262,1,6,0:0:0:0:
348,348,38691,2,0,L|356:256,1,75,4|4,0:0|0:0,0:0:0:0:
332,180,39119,1,4,0:0:0:0:
248,372,39548,2,0,L|256:280,1,75,4|4,0:0|0:0,0:0:0:0:
232,204,39976,1,4,0:0:0:0:
156,272,40191,2,0,P|141:168|291:121,1,225,4|0,0:0|0:0,0:0:0:0:
326,42,41262,101,2,0:0:0:0:
344,24,41691,1,2,0:0:0:0:
430,89,41905,1,0,0:0:0:0:
332,132,42120,2,0,L|325:224,1,75
392,288,42548,2,0,L|386:362,1,75
280,304,42977,6,0,B|230:310|230:310|184:295|184:295|87:307,1,150,2|0,0:0|0:0,0:0:0:0:
140,208,43620,2,0,B|190:202|190:202|236:217|236:217|333:205,1,150
326,42,44691,101,2,0:0:0:0:
348,32,45120,1,0,0:0:0:0:
439,103,45334,1,0,0:0:0:0:
335,147,45549,2,0,L|328:239,1,75
414,286,45977,2,0,L|408:360,1,75
329,221,46405,6,0,B|252:245|252:245|136:218,1,150,2|0,0:0|0:0,0:0:0:0:
39,223,47048,2,0,B|106:207|106:207|192:231,1,150
320,318,48120,102,0,P|330:284|330:239,1,75,2|0,0:0|0:0,0:0:0:0:
384,156,48548,2,0,P|350:146|305:146,1,75,2|0,0:0|0:0,0:0:0:0:
220,96,48977,2,0,P|210:130|210:175,1,75,2|0,0:0|0:0,0:0:0:0:
160,260,49405,2,0,P|194:270|239:270,1,75,2|0,0:0|0:0,0:0:0:0:
405,242,49834,6,0,L|320:244,1,75,2|0,0:0|0:0,0:0:0:0:
209,169,50262,2,0,L|283:167,1,75,2|0,0:0|0:0,0:0:0:0:
412,88,50691,2,0,L|327:90,1,75,2|0,0:0|0:0,0:0:0:0:
216,15,51119,2,0,L|290:13,1,75,2|0,0:0|0:0,0:0:0:0:
420,96,51548,101,2,0:0:0:0:
452,184,51762,1,2,0:0:0:0:
392,272,51977,1,2,0:0:0:0:
432,372,52191,1,2,0:0:0:0:
320,356,52405,6,0,L|282:363,3,37.5,2|2|2|2,0:0|0:0|0:0|0:0,0:0:0:0:
256,344,52834,2,0,L|218:351,3,37.5,2|2|2|2,0:0|0:0|0:0|0:0,0:0:0:0:
192,340,53262,1,12,0:0:0:0:
110,293,56691,6,0,B|158:296|158:296|204:288|204:288|256:298,1,140.625,6|0,0:0|0:0,0:0:0:0:
247,296,57120,2,0,P|258:253|242:191,1,93.75
251,114,57548,2,0,P|240:157|256:219,1,93.75,8|0,0:0|0:0,0:0:0:0:
334,165,57977,1,0,0:0:0:0:
421,123,58191,2,0,P|429:168|418:213,1,93.75,0|2,0:0|0:0,0:0:0:0:
475,303,58620,6,0,L|478:347,1,23.4375,0|0,0:0|2:0,0:0:0:0:
379,315,58834,2,0,L|382:359,1,23.4375,0|0,0:0|2:0,0:0:0:0:
279,323,59048,2,0,L|282:367,1,23.4375,0|0,0:0|2:0,0:0:0:0:
183,331,59262,1,8,0:0:0:0:
223,227,59477,2,0,P|217:173|189:134,1,93.75,0|0,3:0|3:0,3:0:0:0:
88,228,59905,1,0,3:0:0:0:
197,141,60120,102,0,P|253:124|336:149,1,140.625,2|0,0:0|0:0,0:0:0:0:
330,145,60548,2,0,L|319:51,1,93.75
186,47,60977,2,0,L|197:141,1,93.75,8|0,0:0|0:0,0:0:0:0:
259,227,61405,1,0,0:0:0:0:
336,152,61620,2,0,L|325:58,1,93.75,0|2,0:0|0:0,0:0:0:0:
186,47,62048,5,0,3:0:0:0:
186,47,62155,1,0,3:0:0:0:
186,47,62262,2,0,P|142:35|82:59,1,93.75,0|0,3:0|3:0,3:0:0:0:
65,193,62691,1,8,3:0:0:0:
65,193,62798,1,0,3:0:0:0:
65,193,62905,1,0,3:0:0:0:
140,123,63120,1,2,0:0:0:0:
165,221,63334,1,8,0:0:0:0:
255,119,63548,102,0,P|301:144|246:145,1,140.625,2|0,0:0|0:0,0:0:0:0:
248,150,63977,2,0,P|240:197|254:242,1,93.75
451,292,64405,2,0,P|451:244|430:202,1,93.75,8|0,0:0|0:0,0:0:0:0:
335,151,64834,1,2,0:0:0:0:
252,238,65048,6,0,P|291:263|338:268,1,93.75
335,151,65477,1,0,0:0:0:0:
332,144,65584,1,0,0:0:0:0:
330,137,65691,2,0,L|322:101,1,23.4375,0|0,0:0|2:0,0:0:0:0:
236,69,65905,2,0,L|228:33,1,23.4375,0|0,0:0|2:0,0:0:0:0:
173,148,66120,2,0,P|128:162|82:158,1,93.75,8|0,3:0|3:0,3:0:0:0:
10,210,66548,2,0,P|-4:166|0:120,1,93.75,0|0,3:0|3:0,3:0:0:0:
94,244,66977,102,0,P|145:244|189:232,1,93.75,6|0,0:0|0:0,0:0:0:0:
286,182,67405,2,0,P|301:230|293:282,1,93.75
241,371,67834,2,0,P|289:386|341:378,1,93.75,8|0,0:0|0:0,0:0:0:0:
403,295,68262,1,0,0:0:0:0:
499,353,68477,2,0,P|514:305|506:253,1,93.75
403,295,68905,6,8,L|304:288,1,93.75
276,180,69334,1,0,0:0:0:0:
276,180,69441,1,0,0:0:0:0:
276,180,69548,1,0,0:0:0:0:
237,74,69762,2,0,P|191:62|136:72,1,93.75,8|0,0:0|0:0,0:0:0:0:
45,156,70191,1,8,0:0:0:0:
184,152,70405,6,0,B|193:198|193:198|182:243,1,93.75,2|0,0:0|0:0,0:0:0:0:
44,248,70834,2,0,B|34:202|34:202|45:157,1,93.75,2|0,0:0|0:0,0:0:0:0:
184,152,71262,2,0,P|249:170|340:148,1,140.625,8|0,0:0|0:0,0:0:0:0:
320,157,71691,2,0,P|327:218|310:262,1,93.75
192,317,72120,5,2,0:0:0:0:
100,236,72334,2,0,L|43:227,2,46.875
213,194,72762,1,0,0:0:0:0:
323,140,72977,2,0,P|333:209|308:274,1,140.625,8|0,0:0|0:0,0:0:0:0:
308,273,73405,1,0,0:0:0:0:
276,384,73620,1,0,0:0:0:0:
196,292,73834,102,0,L|186:141,1,140.625,6|0,0:0|0:0,0:0:0:0:
186,151,74262,2,0,P|232:140|286:162,1,93.75
360,116,74691,2,0,L|384:64,2,46.875,8|0|0,0:0|0:0|0:0,0:0:0:0:
352,208,75120,2,0,P|341:254|363:308,1,93.75
496,312,75548,6,0,B|458:294|458:294|341:300,1,140.625,2|0,0:0|0:0,0:0:0:0:
359,299,75977,2,0,L|418:323,2,46.875
209,274,76405,2,0,L|142:273,2,46.875,8|0|0,0:0|0:0|0:0,0:0:0:0:
252,196,76834,2,0,L|213:150,2,46.875,2|0|8,0:0|0:0|0:0,0:0:0:0:
206,306,77262,102,0,P|161:288|215:290,1,140.625,6|0,0:0|0:0,0:0:0:0:
214,278,77691,2,0,P|224:227|254:194,1,93.75,2|0,0:0|0:0,0:0:0:0:
339,125,78120,2,0,P|272:94|187:117,1,140.625,8|0,0:0|0:0,0:0:0:0:
208,104,78548,2,0,L|222:2,1,93.75
110,48,78977,5,2,0:0:0:0:
116,160,79191,1,0,0:0:0:0:
109,163,79298,1,0,0:0:0:0:
102,166,79405,1,0,0:0:0:0:
215,213,79620,1,0,0:0:0:0:
306,148,79834,2,0,P|349:133|393:147,1,93.75,8|0,0:0|3:0,0:0:0:0:
436,220,80262,2,0,P|392:234|349:219,1,93.75,0|0,3:0|3:0,3:0:0:0:
164,140,80691,102,0,L|165:283,1,140.625,6|0,0:0|0:0,0:0:0:0:
165,281,81120,2,0,L|202:292,1,23.4375,0|0,0:0|2:0,0:0:0:0:
276,344,81334,2,0,L|313:355,1,23.4375,0|0,0:0|2:0,0:0:0:0:
408,328,81548,1,8,0:0:0:0:
332,240,81762,2,0,L|320:173,2,46.875
308,112,82191,6,0,P|357:120|399:151,1,93.75,0|2,0:0|0:0,0:0:0:0:
393,144,83477,86,0,P|354:119|308:112,1,93.75,0|8,2:0|0:0,0:0:0:0:
331,232,83905,1,0,0:0:0:0:
331,232,84012,1,0,0:0:0:0:
331,232,84120,38,0,P|302:257|322:209,1,140.625,6|0,0:0|2:0,0:0:0:0:
316,205,84548,2,0,L|307:104,1,93.75
203,38,84977,1,8,0:0:0:0:
121,84,85191,2,0,L|65:78,2,46.875
203,38,85620,2,0,P|216:88|198:144,1,93.75,0|2,0:0|0:0,0:0:0:0:
120,184,86048,5,0,0:0:0:0:
120,184,86155,1,0,0:0:0:0:
120,184,86262,1,0,0:0:0:0:
208,228,86477,1,0,0:0:0:0:
328,176,86691,1,8,0:0:0:0:
356,276,86905,85,0,0:0:0:0:
432,196,87120,1,0,0:0:0:0:
396,96,87334,1,0,0:0:0:0:
328,176,87548,6,0,B|286:184|286:184|167:179,1,140.625,6|0,0:0|0:0,0:0:0:0:
188,179,87977,2,0,P|171:150|199:176,1,93.75
261,300,88405,1,8,0:0:0:0:
360,328,88620,2,0,L|372:376,2,46.875
336,229,89048,1,0,0:0:0:0:
296,140,89262,6,0,P|340:131|391:149,1,93.75,2|0,0:0|0:0,0:0:0:0:
432,240,89691,2,0,L|494:245,2,46.875
263,317,90120,2,0,P|199:289|287:300,1,281.25,8|0,0:0|0:0,0:0:0:0:
300,292,90977,102,0,B|318:225|318:225|299:136,1,140.625,6|0,0:0|0:0,0:0:0:0:
303,155,91405,2,0,P|345:145|399:153,1,93.75
512,200,91834,1,8,0:0:0:0:
424,244,92048,2,0,L|406:287,2,46.875
394,151,92477,2,0,P|384:109|399:53,1,93.75,0|2,0:0|0:0,0:0:0:0:
481,109,92905,5,0,0:0:0:0:
481,109,93012,1,0,0:0:0:0:
481,109,93120,1,0,0:0:0:0:
394,60,93334,1,0,0:0:0:0:
280,104,93548,1,8,0:0:0:0:
192,56,93762,85,0,0:0:0:0:
192,160,93977,1,0,0:0:0:0:
288,204,94191,1,0,0:0:0:0:
168,284,94405,102,0,B|96:286|96:286|134:233|243:276,1,187.5,6|0,0:0|0:0,0:0:0:0:
256,192,95262,12,0,97834,0:0:0:0:
272,208,98262,53,0,0:0:0:0:
272,208,98477,1,0,0:0:0:0:
272,208,98691,2,0,L|364:218,1,75,8|0,0:0|0:0,0:0:0:0:
428,268,99120,2,0,P|443:235|439:184,1,75
380,120,99548,1,2,0:0:0:0:
380,120,100405,1,8,0:0:0:0:
320,224,100620,37,0,0:0:0:0:
248,119,100834,1,0,0:0:0:0:
176,224,101048,1,0,0:0:0:0:
131,118,101262,102,0,P|116:84|149:119,1,140.625,6|0,0:0|0:0,0:0:0:0:
156,115,101691,2,0,B|205:126|205:126|268:117,1,93.75
348,76,102120,85,8,0:0:0:0:
344,184,102334,1,0,0:0:0:0:
338,288,102548,2,0,L|334:367,2,75,0|0|2,0:0|0:0|0:0,0:0:0:0:
338,288,103834,38,0,P|292:300|232:283,1,93.75,8|0,0:0|0:0,0:0:0:0:
140,288,104262,2,0,L|143:237,2,46.875
192,384,104690,1,6,0:0:0:0:
228,196,105120,69,0,0:0:0:0:
296,112,105334,1,0,0:0:0:0:
336,213,105548,2,0,L|338:293,1,75,8|0,0:0|0:0,0:0:0:0:
428,321,105977,2,0,L|423:169,1,150,0|2,0:0|0:0,0:0:0:0:
423,171,107262,1,8,0:0:0:0:
315,115,107477,37,0,0:0:0:0:
200,156,107691,1,0,0:0:0:0:
84,124,107905,1,0,0:0:0:0:
113,238,108120,102,0,P|70:263|103:218,1,140.625,6|0,0:0|0:0,0:0:0:0:
92,212,108548,2,0,P|74:160|91:111,1,93.75
192,157,108977,85,8,0:0:0:0:
160,65,109191,1,0,0:0:0:0:
276,105,109405,2,0,L|428:113,1,150,0|2,0:0|0:0,0:0:0:0:
425,112,110691,38,0,L|403:13,1,93.75,8|0,0:0|0:0,0:0:0:0:
320,88,111120,2,0,L|255:94,2,46.875
352,192,111548,102,0,B|363:283|363:283|349:350,1,140.625,6|0,0:0|0:0,0:0:0:0:
352,330,111977,2,0,P|304:318|251:335,1,93.75
164,364,112405,85,8,0:0:0:0:
179,264,112620,1,0,0:0:0:0:
126,176,112834,2,0,P|165:163|264:203,1,150,0|2,0:0|0:0,0:0:0:0:
380,264,113477,5,0,0:0:0:0:
380,264,113584,2,0,L|500:260,1,112.5
448,353,114120,1,8,0:0:0:0:
500,248,114334,2,0,L|491:127,2,112.5,0|0|2,0:0|0:0|0:0,0:0:0:0:
280,284,115405,101,0,0:0:0:0:
176,268,115620,1,0,0:0:0:0:
156,168,115834,1,8,0:0:0:0:
244,108,116048,1,0,0:0:0:0:
320,188,116262,2,0,L|406:183,1,75
487,281,116691,6,0,B|447:283|447:283|415:273|415:273|355:275,1,112.5,2|0,0:0|0:0,0:0:0:0:
376,274,117120,1,0,0:0:0:0:
274,311,117334,22,0,P|271:271|281:230,1,75,0|8,0:0|0:0,0:0:0:0:
360,172,117762,1,0,0:0:0:0:
261,135,117977,2,0,L|270:88,2,46.875
168,208,118405,70,0,L|53:215,1,112.5,6|0,1:0|0:0,0:0:0:0:
55,214,118834,1,0,0:0:0:0:
116,296,119048,1,0,0:0:0:0:
16,356,119262,1,8,0:0:0:0:
104,384,119477,1,0,0:0:0:0:
196,352,119691,2,0,P|249:341|312:367,1,112.5
302,359,120120,6,0,L|292:240,1,112.5,2|0,0:0|0:0,0:0:0:0:
292,246,120548,1,0,0:0:0:0:
352,164,120762,1,0,0:0:0:0:
256,152,120977,1,8,0:0:0:0:
314,66,121191,2,0,P|257:50|196:67,2,112.5,0|0|2,0:0|0:0|0:0,0:0:0:0:
240,304,122262,101,0,0:0:0:0:
318,264,122477,1,0,0:0:0:0:
488,304,122691,1,8,0:0:0:0:
410,264,122906,1,0,0:0:0:0:
365,188,123120,2,0,L|359:88,1,75
265,153,123548,22,0,B|262:103|262:103|279:59|279:59|274:-2,1,150
360,113,124191,6,0,B|400:133|430:109|430:109|467:131|510:102,1,150
