osu file format v14

[General]
AudioFilename: 01. Mirai Infinity.mp3
AudioLeadIn: 0
PreviewTime: 57301
Countdown: 0
SampleSet: Soft
StackLeniency: 0.3
Mode: 0
LetterboxInBreaks: 1
SkinPreference:Hyperdimension Neptunia v11
WidescreenStoryboard: 0

[Editor]
Bookmarks: 13518,91355,170491
DistanceSpacing: 2
BeatDivisor: 4
GridSize: 4
TimelineZoom: 3.047999

[Metadata]
Title:Mirai Infinity
TitleUnicode:ミラインフィニティ
Artist:Neptune (CV. Rie Tanaka)
ArtistUnicode:ネプテューヌ(CV.田中理恵)
Creator:Aikyuu-Chan
Version:NEXT FUTURE ULTIMATE PLANEPTUNE INFINITY IDOL GENERATION!
Source:神次元アイドル ネプテューヌPP
Tags:Kami Jigen Idol Neptune PP PSVita Hyperdimension Idol Neptunia PP HYPER DIMENSION NEPTUNE SHARE COMPLETE DISCS Album Disc 5 超次元ゲイム ネプテューヌ シェアコンプリート ディスクス Disc 5 Neptune INFINITY Idol Game Visual Novel Extra Song Cosplay
BeatmapID:1983481
BeatmapSetID:949915

[Difficulty]
HPDrainRate:0
CircleSize:3
OverallDifficulty:10
ApproachRate:9.9
SliderMultiplier:1.9
SliderTickRate:1

[Events]
//Background and Video events
0,0,"nepneo_20130318215152.jpg",0,0
//Break Periods
//Storyboard Layer 0 (Background)
//Storyboard Layer 1 (Fail)
//Storyboard Layer 2 (Pass)
//Storyboard Layer 3 (Foreground)
//Storyboard Layer 4 (Overlay)
//Storyboard Sound Samples

[TimingPoints]
3139.75714872597,324.324324324324,4,2,0,100,1,0
13518,-100,4,1,0,100,0,1
13599,-100,4,1,1,100,0,0
23896,-100,4,2,1,100,0,1
23977,-100,4,2,1,100,0,0
34274,-125,4,2,0,80,0,0
44653,-100,4,2,0,100,0,0
44977,-83.3333333333333,4,2,0,100,0,0
45301,-71.4285714285714,4,2,0,100,0,0
45626,-62.5,4,2,0,100,0,0
45950,-100,4,2,0,100,0,0
47247,-83.3333333333333,4,2,0,100,0,0
47572,-62.5,4,2,0,100,0,0
47896,-55.5555555555556,4,2,0,100,0,0
48220,-52.6315789473684,4,2,0,100,0,0
48545,-100,4,2,0,100,0,0
49842,-50,4,2,0,100,0,0
57301,-50,4,1,6,5,0,0
57626,-66.6666666666667,4,2,1,100,0,1
66707,-55.5555555555556,4,1,2,100,0,0
68004,-66.6666666666667,4,2,2,100,0,1
78383,-100,4,2,0,100,0,0
80977,-125,4,2,1,100,0,0
91680,-100,4,2,3,100,0,1
91761,-100,4,2,2,100,0,0
101734,-125,4,2,0,80,0,0
114383,-50,4,1,6,5,0,0
114707,-66.6666666666667,4,2,1,100,0,1
123788,-55.5555555555556,4,1,2,100,0,0
125085,-66.6666666666667,4,2,2,100,0,1
135464,-100,4,2,0,100,0,0
156058,-100,4,2,1,100,0,1
156220,-100,4,2,1,100,0,0
167896,-50,4,3,1,60,0,0
170491,-200,4,1,2,20,0,1
170572,-200,4,1,2,40,0,0
179572,-50,4,2,1,100,0,0
180869,-58.8235294117647,4,2,1,100,0,1
189950,-50,4,3,1,100,0,0
191247,-58.8235294117647,4,2,2,100,0,1
201626,-100,4,3,0,100,0,0
202923,-125,4,2,0,70,0,0
212328,-125,4,1,0,70,0,0
215900,342.857142857143,4,2,0,100,1,0
215900,-111.111111111111,4,2,1,100,0,0
217274,389.61038961039,4,2,0,100,1,0
217274,-125,4,2,1,100,0,0
218054,431.654676258993,4,2,0,100,1,0
218054,-142.857142857143,4,2,1,100,0,0
218921,340.909090909091,4,2,0,100,1,0
218921,-90.9090909090909,4,2,1,100,0,0
222330,1000,4,2,0,100,1,0
222330,-100,4,2,4,100,0,0

[HitObjects]
256,192,2815,5,12,1:0:0:0:
408,132,3139,5,10,1:0:0:0:
408,132,3220,1,0,0:0:0:0:
408,132,3301,2,0,P|448:96|464:52,2,95
52,60,3788,1,8,0:0:0:0:
169,270,3950,2,0,B|136:244|136:244|92:272,1,95
462,58,4274,1,0,0:0:0:0:
92,272,4437,6,0,P|48:248|28:204,1,95,10|0,1:0|0:0,0:0:0:0:
460,104,4761,1,0,0:0:0:0:
460,104,4842,1,0,0:0:0:0:
460,104,4923,1,0,0:0:0:0:
116,275,5085,2,0,P|86:312|41:320,2,95,8|0|0,0:0|0:0|0:0,0:0:0:0:
48,44,5572,1,0,0:0:0:0:
428,84,5734,5,10,1:0:0:0:
400,264,5896,1,0,0:0:0:0:
400,264,5977,1,0,0:0:0:0:
400,264,6058,1,0,0:0:0:0:
60,112,6220,2,0,L|104:24,1,95,0|8,0:0|0:0,0:0:0:0:
400,120,6545,1,0,0:0:0:0:
400,120,6626,1,0,0:0:0:0:
400,120,6707,1,0,0:0:0:0:
60,272,6869,2,0,L|104:360,1,95,0|10,0:0|1:0,0:0:0:0:
476,192,7193,5,0,0:0:0:0:
300,48,7355,1,8,1:0:0:0:
432,256,7518,1,0,0:0:0:0:
424,56,7680,1,8,1:0:0:0:
340,232,7842,1,0,0:0:0:0:
152,120,8004,1,8,1:0:0:0:
456,144,8166,1,0,0:0:0:0:
148,216,8328,6,0,L|108:160,2,47.5,12|0|0,1:0|0:0|0:0,0:0:0:0:
256,300,8653,1,2,0:0:0:0:
356,148,8815,2,0,B|372:108|372:108|424:88,1,95,0|8,0:0|0:0,0:0:0:0:
256,88,9139,1,0,0:0:0:0:
420,294,9301,2,0,B|372:276|372:276|356:236,1,95,2|0,0:0|0:0,0:0:0:0:
348,188,9545,1,0,0:0:0:0:
340,144,9626,6,0,P|296:108|256:100,1,95,10|0,1:0|0:0,0:0:0:0:
8,120,9950,2,0,P|40:76|40:32,1,95,2|0,0:0|0:0,0:0:0:0:
284,312,10274,1,8,0:0:0:0:
292,88,10437,1,0,0:0:0:0:
40,236,10599,2,0,B|40:283|40:283|20:327,1,95,2|0,0:0|0:0,0:0:0:0:
368,152,10923,5,10,1:0:0:0:
368,152,11004,1,0,0:0:0:0:
368,152,11085,2,0,P|400:108|408:68,1,95,0|2,0:0|0:0,0:0:0:0:
136,160,11410,2,0,P|104:116|96:76,1,95,0|8,0:0|0:0,0:0:0:0:
164,52,11653,1,0,0:0:0:0:
208,112,11734,2,0,P|256:128|284:96,1,95,0|2,0:0|0:0,0:0:0:0:
356,304,12058,1,4,1:0:0:0:
56,340,12383,5,6,0:0:0:0:
316,80,12545,1,6,0:0:0:0:
404,232,12707,2,0,L|372:272,1,47.5,8|0,0:0|0:0,0:0:0:0:
332,288,12869,1,2,0:0:0:0:
288,272,12950,1,0,0:0:0:0:
240,272,13031,1,2,0:0:0:0:
200,296,13112,1,0,0:0:0:0:
164,328,13193,1,2,0:0:0:0:
116,336,13274,1,0,0:0:0:0:
92,296,13355,1,2,0:0:0:0:
88,248,13437,1,0,0:0:0:0:
80,200,13518,6,0,P|120:116|208:92,1,190,2|4,1:0|3:0,0:0:0:0:
480,36,14004,1,4,3:0:0:0:
168,178,14166,2,0,L|216:74,2,95,8|0|8,0:0|0:0|3:0,0:0:0:0:
232,300,14653,1,0,0:0:0:0:
232,300,14734,1,0,0:0:0:0:
232,300,14815,2,0,B|144:284|144:284|88:304|40:224,1,190,2|4,1:0|3:0,0:0:0:0:
104,140,15301,1,4,3:0:0:0:
224,156,15464,6,0,L|296:80,1,95,8|0,0:0|0:0,0:0:0:0:
380,264,15788,1,8,3:0:0:0:
472,64,15950,1,0,0:0:0:0:
112,84,16112,2,0,P|64:72|32:32,1,95,2|0,1:0|0:0,0:0:0:0:
400,308,16437,2,4,P|445:318|477:353,1,95,4|4,3:0|3:0,3:0:0:0:
348,124,16761,1,8,0:0:0:0:
216,284,16923,1,0,0:0:0:0:
392,224,17085,1,8,3:0:0:0:
212,76,17247,1,0,0:0:0:0:
96,316,17410,5,2,1:0:0:0:
132,344,17491,1,0,0:0:0:0:
180,352,17572,1,0,0:0:0:0:
224,332,17653,1,0,0:0:0:0:
256,296,17734,1,4,3:0:0:0:
260,248,17815,1,0,0:0:0:0:
272,204,17896,1,4,3:0:0:0:
312,176,17977,1,0,0:0:0:0:
356,156,18058,6,0,L|408:48,1,95,8|0,0:0|0:0,0:0:0:0:
408,288,18383,2,0,P|372:312|312:304,1,95,8|0,3:0|0:0,0:0:0:0:
40,52,18707,2,0,L|96:144,1,95,2|0,1:0|0:0,0:0:0:0:
40,332,19031,2,4,L|96:240,1,95,4|4,3:0|3:0,3:0:0:0:
192,4,19355,1,8,0:0:0:0:
256,356,19518,1,0,0:0:0:0:
256,32,19680,1,8,3:0:0:0:
324,384,19842,1,0,0:0:0:0:
445,84,20004,6,0,B|396:120|392:184|392:184|336:232,2,190,2|8|8,1:0|1:0|1:0,0:0:0:0:
256,176,20815,1,0,0:0:0:0:
66,84,20977,2,0,B|116:120|120:184|120:184|176:232,2,190,8|2|8,1:0|1:0|1:0,0:0:0:0:
224,324,21788,2,0,B|256:340|256:340|256:356|256:356|256:356|256:356|256:340|256:340|280:324,1,95,0|8,0:0|1:0,0:0:0:0:
400,220,22112,1,0,0:0:0:0:
256,24,22274,1,0,1:0:0:0:
112,220,22437,1,0,0:0:0:0:
384,312,22599,5,4,1:0:0:0:
436,292,22680,1,4,0:0:0:0:
476,252,22761,1,12,0:0:0:0:
440,208,22842,1,4,0:0:0:0:
384,192,22923,1,12,0:0:0:0:
328,208,23004,1,4,0:0:0:0:
300,256,23085,1,12,0:0:0:0:
332,300,23166,1,4,0:0:0:0:
380,332,23247,6,2,B|404:296|404:296|432:324|476:312,1,95
384,40,23572,2,2,P|340:56|296:40,1,95
164,192,23896,6,0,B|164:104|164:104|108:108|68:72,2,190,4|8|8,0:0|0:0|0:0,0:0:0:0:
256,336,24707,1,0,0:0:0:0:
380,192,24869,2,0,L|440:112,2,95,8|0|4,0:0|0:0|0:0,0:0:0:0:
336,212,25274,1,2,0:0:0:0:
292,200,25355,1,2,0:0:0:0:
256,168,25437,1,2,0:0:0:0:
232,128,25518,2,0,P|256:68|296:44,1,95,8|2,0:0|0:0,0:0:0:0:
436,192,25842,6,4,L|468:256,1,47.5,12|4,0:0|0:0,0:0:0:0:
68,152,26004,2,4,L|48:100,1,47.5
240,340,26166,2,4,L|188:364,1,47.5,12|4,0:0|0:0,0:0:0:0:
324,124,26328,2,4,L|360:156,1,47.5
124,376,26491,6,0,P|132:260|208:232,2,190,4|8|8,0:0|0:0|0:0,0:0:0:0:
256,136,27301,1,0,0:0:0:0:
432,368,27464,2,0,P|452:328|432:280,2,95,8|0|4,0:0|0:0|0:0,0:0:0:0:
120,40,27950,2,0,P|88:68|32:60,1,95,0|8,0:0|0:0,0:0:0:0:
256,348,28274,1,0,0:0:0:0:
256,348,28437,2,0,L|256:248,1,95,8|2,0:0|0:0,0:0:0:0:
256,196,28680,1,2,0:0:0:0:
256,152,28762,2,0,L|256:56,1,95,8|2,0:0|0:0,0:0:0:0:
332,116,29004,1,0,0:0:0:0:
368,196,29085,6,0,B|408:172|408:172|408:128|408:128|456:108|484:60,2,190,4|8|8,0:0|0:0|0:0,0:0:0:0:
64,56,29896,1,0,0:0:0:0:
460,336,30058,1,8,0:0:0:0:
176,324,30220,2,0,P|128:284|116:244,1,95,0|4,0:0|0:0,0:0:0:0:
280,300,30545,1,0,0:0:0:0:
444,256,30707,2,0,P|420:304|384:316,1,95,8|0,0:0|0:0,0:0:0:0:
256,128,31031,2,0,L|256:28,1,95,8|0,0:0|0:0,0:0:0:0:
256,260,31355,2,0,L|256:356,1,95,8|0,0:0|0:0,0:0:0:0:
448,64,31680,5,4,0:0:0:0:
312,328,31842,1,0,0:0:0:0:
104,64,32004,1,8,0:0:0:0:
456,316,32166,1,0,0:0:0:0:
148,240,32328,1,8,0:0:0:0:
340,40,32491,1,0,0:0:0:0:
12,344,32653,1,8,0:0:0:0:
424,196,32815,2,0,L|468:136,2,47.5,0|0|2,0:0|0:0|0:0,0:0:0:0:
380,212,33058,5,0,0:0:0:0:
336,200,33139,1,2,0:0:0:0:
292,220,33220,1,0,0:0:0:0:
264,260,33301,1,2,0:0:0:0:
288,300,33383,1,0,0:0:0:0:
332,320,33464,1,2,0:0:0:0:
380,316,33545,1,0,0:0:0:0:
404,276,33626,1,2,0:0:0:0:
80,88,33788,5,0,0:0:0:0:
152,148,33869,1,0,0:0:0:0:
200,72,33950,1,2,0:0:0:0:
408,280,34112,1,0,0:0:0:0:
408,280,34274,6,0,P|336:308|276:272,2,152,2|4|4,1:0|0:0|0:0,0:0:0:0:
269,102,35247,2,0,P|339:75|408:104,2,152,4|2|4,0:0|1:0|0:0,0:0:0:0:
456,240,36058,1,0,0:0:0:0:
444,324,36139,1,0,0:0:0:0:
364,312,36220,2,0,L|292:284,1,76,4|0,0:0|0:0,0:0:0:0:
180,224,36545,6,0,B|144:168|144:168|164:136|160:88|160:88|124:72,2,152,4|2|4,0:0|1:0|0:0,0:0:0:0:
256,272,37355,1,0,0:0:0:0:
348,256,37518,2,0,P|388:160|348:168,1,228,4|0,0:0|0:0,0:0:0:0:
349,167,38166,1,2,1:0:0:0:
92,168,38328,1,4,0:0:0:0:
96,240,38410,1,4,0:0:0:0:
168,256,38491,2,4,P|200:232|224:188,1,76
350,78,38815,2,0,P|310:174|350:166,1,228,2|2,1:0|0:0,0:0:0:0:
164,156,39464,6,0,P|96:208|0:192,2,152,2|8|8,1:0|0:0|0:0,0:0:0:0:
256,32,40437,1,8,0:0:0:0:
479,207,40761,2,0,P|404:204|348:156,1,152,2|8,1:0|0:0,0:0:0:0:
348,156,41247,1,0,0:0:0:0:
96,92,41410,2,8,L|48:48,2,38
176,328,41734,5,8,1:0:0:0:
44,68,41896,1,8,1:0:0:0:
64,144,41977,1,0,0:0:0:0:
132,180,42058,2,0,L|292:140,1,152,2|8,1:0|0:0,0:0:0:0:
344,220,42545,1,0,0:0:0:0:
284,312,42707,2,0,P|184:236|240:192,1,228,8|0,0:0|0:0,0:0:0:0:
227,194,43355,1,2,1:0:0:0:
308,328,43518,1,0,0:0:0:0:
308,328,43599,1,0,0:0:0:0:
308,328,43680,2,0,L|376:252,1,76,8|0,0:0|0:0,0:0:0:0:
216,180,44004,6,0,L|228:128,3,38,8|0|8|0,0:0|0:0|0:0|0:0,0:0:0:0:
144,152,44328,2,0,L|124:188,3,38,8|0|8|0,0:0|0:0|0:0|0:0,0:0:0:0:
32,32,44653,6,0,L|104:104,1,95,2|0,0:0|0:0,0:0:0:0:
208,112,44977,2,0,L|128:32,1,113.999996520996,8|0,1:0|0:0,0:0:0:0:
224,32,45301,2,0,L|318:126,1,132.999995941162,2|2,0:0|0:0,0:0:0:0:
419,127,45626,2,0,L|312:20,1,152,8|0,1:0|0:0,0:0:0:0:
348,324,45950,5,2,0:0:0:0:
56,32,46112,1,0,0:0:0:0:
160,308,46274,1,8,1:0:0:0:
492,360,46437,1,0,0:0:0:0:
452,160,46599,6,0,L|494:138,3,47.5,2|0|2|0,0:0|0:0|0:0|0:0,0:0:0:0:
452,224,46923,2,0,L|500:248,3,47.5,8|0|0|0,1:0|0:0|0:0|0:0,0:0:0:0:
480,352,47247,6,0,L|396:268,1,113.999996520996,2|2,0:0|0:0,0:0:0:0:
303,271,47491,1,0,0:0:0:0:
303,271,47571,2,0,L|384:352,1,113.999996520996,2|2,0:0|0:0,0:0:0:0:
288,352,47815,1,0,0:0:0:0:
288,352,47895,2,0,L|176:240,1,152,2|2,0:0|0:0,0:0:0:0:
200,364,48139,1,0,0:0:0:0:
200,364,48220,2,0,L|72:236,1,180.49999518013,2|2,0:0|0:0,0:0:0:0:
80,192,48464,1,0,0:0:0:0:
116,152,48545,5,10,1:0:0:0:
184,156,48626,1,0,0:0:0:0:
248,144,48707,1,4,0:0:0:0:
304,108,48788,1,0,0:0:0:0:
352,60,48869,1,10,1:0:0:0:
416,40,48950,1,0,0:0:0:0:
472,72,49031,1,4,0:0:0:0:
464,136,49112,1,0,0:0:0:0:
408,172,49193,5,10,1:0:0:0:
356,128,49274,1,0,0:0:0:0:
376,64,49355,1,4,0:0:0:0:
436,32,49437,1,0,0:0:0:0:
484,80,49518,1,10,1:0:0:0:
456,140,49599,1,0,0:0:0:0:
392,152,49680,1,4,0:0:0:0:
336,188,49761,1,0,0:0:0:0:
284,208,49842,6,0,L|308:-4,1,190,8|0,1:0|0:0,0:0:0:0:
136,28,50166,2,0,L|164:216,1,190,8|0,1:0|0:0,0:0:0:0:
380,228,50491,2,0,L|416:36,1,190,8|0,1:0|0:0,0:0:0:0:
64,140,50815,2,0,L|96:328,1,190,2|0,0:0|0:0,0:0:0:0:
416,300,51139,6,0,P|440:216|424:100,1,190,2|0,0:0|0:0,0:0:0:0:
252,44,51464,2,0,P|208:116|92:96,1,190,8|0,1:0|0:0,0:0:0:0:
316,344,51788,2,0,P|372:268|464:280,1,190,8|0,1:0|0:0,0:0:0:0:
80,80,52112,2,0,L|40:284,1,190,2|0,0:0|0:0,0:0:0:0:
496,92,52437,6,0,L|440:196,1,95,2|0,0:0|0:0,0:0:0:0:
432,208,52599,1,4,0:0:0:0:
16,292,52761,1,8,1:0:0:0:
16,292,52923,2,0,L|61:208,1,95,2|0,0:0|0:0,0:0:0:0:
80,176,53085,1,0,0:0:0:0:
260,36,53247,1,8,0:0:0:0:
260,36,53410,2,0,L|364:92,1,95,2|0,0:0|0:0,0:0:0:0:
376,100,53572,1,4,0:0:0:0:
256,352,53734,1,8,1:0:0:0:
256,352,53896,2,0,L|172:306,1,95,2|0,0:0|0:0,0:0:0:0:
140,287,54058,1,4,0:0:0:0:
256,48,54220,5,8,0:0:0:0:
256,48,54301,1,0,0:0:0:0:
256,48,54383,2,0,P|324:180|336:48,2,380,2|2|4,0:0|0:0|1:0,0:0:0:0:
256,192,55112,12,6,57301,0:0:0:0:
88,176,57626,6,0,P|216:240|336:168,1,285.000010871888,2|4,0:0|0:0,0:0:0:0:
208,136,58112,1,4,0:0:0:0:
84,100,58274,2,0,P|212:36|332:108,1,285.000010871888,2|4,0:0|0:0,0:0:0:0:
340,296,58761,1,4,0:0:0:0:
436,200,58923,6,0,L|464:96,3,71.2500027179719,4|0|8|0,1:0|0:0|0:0|0:0,0:0:0:0:
368,184,59247,2,0,L|376:104,3,71.2500027179719,2|0|8|0,0:0|0:0|0:0|0:0,0:0:0:0:
292,180,59572,2,0,L|284:109,3,71.2500027179719,2|0|8|0,0:0|0:0|0:0|0:0,0:0:0:0:
224,196,59896,2,0,L|205:127,3,71.2500027179719,2|0|8|0,0:0|0:0|0:0|0:0,0:0:0:0:
68,48,60220,5,10,1:0:0:0:
116,288,60383,1,4,0:0:0:0:
340,192,60545,2,4,L|448:60,2,142.500005435944
276,52,61031,1,2,0:0:0:0:
240,136,61112,1,2,0:0:0:0:
172,192,61193,2,0,L|64:60,2,142.500005435944,2|8|6,0:0|0:0|1:0,0:0:0:0:
180,288,61599,1,4,0:0:0:0:
256,332,61680,1,4,0:0:0:0:
420,324,61842,5,2,0:0:0:0:
464,192,61923,1,0,0:0:0:0:
452,56,62004,1,4,0:0:0:0:
328,68,62166,5,2,0:0:0:0:
272,76,62247,1,0,0:0:0:0:
220,104,62328,1,4,0:0:0:0:
200,160,62410,1,0,0:0:0:0:
160,200,62491,1,2,0:0:0:0:
104,204,62572,1,0,0:0:0:0:
60,172,62653,1,4,0:0:0:0:
88,124,62734,1,0,0:0:0:0:
144,128,62815,6,0,B|220:128|220:128|256:68,1,142.500005435944,10|4,1:0|0:0,0:0:0:0:
368,256,63139,2,4,B|292:256|292:256|257:313,1,142.500005435944
40,36,63464,2,0,L|152:212,1,142.500005435944,2|0,0:0|0:0,0:0:0:0:
168,236,63707,1,4,0:0:0:0:
220,304,63788,1,4,0:0:0:0:
472,36,63950,2,0,L|360:212,1,142.500005435944,0|10,0:0|1:0,0:0:0:0:
256,268,64274,1,0,0:0:0:0:
40,144,64437,2,0,B|64:84|64:84|112:76|136:32,2,142.500005435944,2|0|2,0:0|0:0|0:0,0:0:0:0:
28,252,64842,5,0,0:0:0:0:
80,352,64923,1,0,0:0:0:0:
192,352,65004,1,0,0:0:0:0:
296,308,65085,1,2,0:0:0:0:
376,228,65166,1,0,0:0:0:0:
352,116,65247,1,0,0:0:0:0:
268,192,65328,1,0,0:0:0:0:
348,204,65410,6,0,L|476:140,1,142.500005435944,10|4,1:0|0:0,0:0:0:0:
52,232,65734,2,4,P|44:296|128:292,1,142.500005435944
156,172,66058,2,4,L|28:108,1,142.500005435944
460,232,66382,2,0,P|468:296|384:292,1,142.500005435944,4|2,0:0|0:0,0:0:0:0:
320,300,66626,1,2,0:0:0:0:
216,308,66707,1,2,1:0:0:0:
192,208,66788,1,2,0:0:0:0:
296,208,66869,6,8,L|396:8,2,170.999994781494,8|8|8,1:0|1:0|1:0,1:0:0:0:
196,144,67355,2,2,L|120:104,3,85.4999973907472,6|2|2|2,0:0|0:0|0:0|0:0,0:0:0:0:
372,55,67680,2,2,L|412:131,3,85.4999973907472,6|2|2|2,0:0|0:0|0:0|0:0,0:0:0:0:
484,200,68004,6,0,L|216:324,1,285.000010871888,2|4,1:0|0:0,0:0:0:0:
168,32,68491,2,0,L|303:74,1,142.500005435944,8|4,1:0|0:0,0:0:0:0:
132,196,68815,1,8,1:0:0:0:
340,180,68977,2,0,P|392:120|400:52,2,142.500005435944,4|8|2,0:0|1:0|1:0,0:0:0:0:
256,272,69464,1,8,1:0:0:0:
172,180,69626,2,0,P|120:120|112:52,2,142.500005435944,4|8|4,0:0|1:0|0:0,0:0:0:0:
256,256,70031,5,2,0:0:0:0:
308,160,70112,1,10,0:0:0:0:
240,68,70193,1,2,0:0:0:0:
344,24,70274,1,6,0:0:0:0:
448,72,70355,1,2,0:0:0:0:
376,160,70437,1,10,0:0:0:0:
468,228,70518,1,2,0:0:0:0:
364,276,70599,6,0,B|328:344|328:344|248:372|224:308|224:308|140:288,1,285.000010871888,2|4,1:0|0:0,0:0:0:0:
472,52,71085,1,8,1:0:0:0:
140,176,71247,1,4,0:0:0:0:
324,200,71410,2,0,L|304:284,2,71.2500027179719,8|0|4,1:0|0:0|0:0,0:0:0:0:
228,84,71734,1,8,1:0:0:0:
56,156,71896,1,2,1:0:0:0:
172,272,72058,2,0,P|224:312|288:272,2,142.500005435944,8|4|8,1:0|0:0|1:0,0:0:0:0:
124,80,72545,5,6,0:0:0:0:
48,144,72626,1,2,0:0:0:0:
112,212,72707,1,10,0:0:0:0:
188,160,72788,1,2,0:0:0:0:
128,88,72869,1,6,0:0:0:0:
48,136,72950,1,2,0:0:0:0:
116,200,73031,1,10,0:0:0:0:
192,148,73112,1,2,0:0:0:0:
224,80,73193,6,0,L|364:28,3,142.500005435944,2|8|4|8,1:0|1:0|0:0|1:0,0:0:0:0:
52,312,73842,1,4,0:0:0:0:
240,256,74004,1,8,1:0:0:0:
272,324,74085,1,0,0:0:0:0:
340,352,74166,2,0,L|384:196,1,142.500005435944,4|8,0:0|1:0,0:0:0:0:
92,212,74491,1,2,1:0:0:0:
432,48,74653,1,8,1:0:0:0:
168,152,74815,2,0,P|108:196|32:200,1,142.500005435944,4|8,0:0|1:0,0:0:0:0:
400,256,75139,6,2,L|440:336,3,71.2500027179719,6|2|10|2,0:0|0:0|0:0|0:0,0:0:0:0:
340,304,75464,2,2,L|348:384,3,71.2500027179719,6|2|10|2,0:0|0:0|0:0|0:0,0:0:0:0:
272,348,75788,5,10,0:0:0:0:
56,32,75950,1,10,0:0:0:0:
356,180,76112,1,10,0:0:0:0:
68,256,76274,1,10,0:0:0:0:
324,56,76437,1,10,0:0:0:0:
152,336,76599,1,10,0:0:0:0:
480,312,76761,2,10,P|411:295|359:247,1,142.500005435944
260,124,77085,6,0,L|240:44,2,71.2500027179719,6|0|0,1:0|0:0|0:0,0:0:0:0:
252,320,77410,1,8,1:0:0:0:
104,120,77572,1,8,1:0:0:0:
252,320,77734,1,8,1:0:0:0:
412,216,77896,6,2,L|440:136,1,71.2500027179719
296,52,78058,2,2,L|284:124,1,71.2500027179719
152,272,78220,2,2,L|224:252,1,71.2500027179719
256,192,78383,12,0,80004,0:0:0:0:
200,148,80328,6,4,P|288:116|388:160,1,190
424,324,80977,5,10,1:0:0:0:
48,44,81139,1,0,0:0:0:0:
120,344,81301,1,2,0:0:0:0:
292,32,81464,1,0,0:0:0:0:
376,344,81626,1,2,0:0:0:0:
104,40,81788,1,0,0:0:0:0:
496,208,81950,1,2,0:0:0:0:
36,340,82112,1,0,0:0:0:0:
240,88,82274,6,0,L|308:40,3,76,10|0|2|0,1:0|0:0|0:0|0:0,0:0:0:0:
376,368,82923,2,0,B|400:320|400:320|444:304|472:248,1,152,2|2,0:0|0:0,0:0:0:0:
32,40,83410,1,8,0:0:0:0:
56,120,83491,1,8,0:0:0:0:
132,160,83572,2,0,L|236:304,1,152,10|2,1:0|0:0,0:0:0:0:
472,36,84058,1,0,0:0:0:0:
292,296,84220,2,0,L|352:132,1,152,2|2,0:0|0:0,0:0:0:0:
40,352,84707,1,0,0:0:0:0:
152,168,84869,6,0,L|184:136,1,38,10|0,1:0|0:0,0:0:0:0:
400,328,85031,2,0,L|368:288,1,38
400,84,85193,2,0,L|384:124,1,38,2|0,0:0|0:0,0:0:0:0:
108,264,85355,2,0,L|152:248,1,38
484,80,85518,6,0,L|421:36,1,76,2|0,0:0|0:0,0:0:0:0:
256,356,85842,2,0,L|316:284,1,76,2|0,0:0|0:0,0:0:0:0:
32,76,86166,2,0,P|64:136|132:208,2,152,10|2|2,1:0|0:0|0:0,0:0:0:0:
480,76,86977,1,0,0:0:0:0:
32,76,87139,1,2,0:0:0:0:
452,240,87301,1,0,0:0:0:0:
136,296,87464,1,10,1:0:0:0:
480,76,87788,6,0,P|448:136|380:208,1,152,2|2,0:0|0:0,0:0:0:0:
328,159,88274,2,0,P|366:190|396:199,1,76,0|2,0:0|0:0,0:0:0:0:
360,332,88599,1,0,0:0:0:0:
136,216,88761,6,0,L|68:60,1,152,10|2,1:0|0:0,0:0:0:0:
436,76,89247,1,8,0:0:0:0:
352,68,89328,1,8,0:0:0:0:
436,76,89410,2,0,L|376:216,1,152,2|2,0:0|0:0,0:0:0:0:
196,316,89896,1,8,0:0:0:0:
196,232,89977,1,8,0:0:0:0:
196,316,90058,2,0,P|256:352|324:316,1,152,10|2,1:0|0:0,0:0:0:0:
256,216,90545,1,0,0:0:0:0:
216,144,90707,6,4,L|184:92,3,38
256,136,91031,2,4,L|256:80,3,38
296,144,91355,2,2,L|315:111,3,38,10|2|2|2,1:0|0:0|0:0|0:0,0:0:0:0:
314,111,91680,5,10,1:0:0:0:
44,344,92004,1,2,0:0:0:0:
372,64,92166,1,0,0:0:0:0:
448,120,92247,1,0,0:0:0:0:
436,216,92328,2,0,P|388:256|356:256,1,95,2|0,0:0|0:0,0:0:0:0:
160,64,92653,1,2,1:0:0:0:
208,304,92815,2,0,L|168:360,2,47.5,0|0|2,0:0|0:0|0:0,0:0:0:0:
40,32,93139,1,0,0:0:0:0:
376,88,93301,6,0,L|400:208,1,95,2|0,0:0|0:0,0:0:0:0:
76,340,93626,2,0,L|44:244,1,95,2|0,0:0|0:0,0:0:0:0:
376,88,93950,2,0,P|432:100|464:76,1,95,10|0,1:0|0:0,0:0:0:0:
160,335,94274,2,0,P|112:319|76:339,1,95,2|0,0:0|0:0,0:0:0:0:
368,48,94599,5,2,0:0:0:0:
120,340,94761,1,0,0:0:0:0:
80,88,94923,1,2,0:0:0:0:
508,280,95085,1,0,0:0:0:0:
76,44,95247,5,10,1:0:0:0:
28,104,95328,1,0,0:0:0:0:
28,180,95410,1,0,0:0:0:0:
88,228,95491,1,0,0:0:0:0:
164,224,95572,1,2,0:0:0:0:
224,176,95653,1,0,0:0:0:0:
228,100,95734,1,0,0:0:0:0:
172,52,95815,1,0,0:0:0:0:
124,112,95896,6,0,L|191:289,1,190,2|2,0:0|0:0,0:0:0:0:
40,40,96383,1,0,0:0:0:0:
476,192,96545,2,0,L|450:283,1,95,10|0,1:0|0:0,0:0:0:0:
40,100,96869,2,0,B|56:48|56:48|24:16,1,95,2|0,0:0|0:0,0:0:0:0:
176,312,97193,1,2,0:0:0:0:
288,112,97355,1,0,0:0:0:0:
72,232,97518,1,2,0:0:0:0:
356,332,97680,1,0,0:0:0:0:
408,60,97842,6,0,P|352:136|260:124,2,190,10|2|2,1:0|0:0|0:0,0:0:0:0:
92,296,98653,1,0,0:0:0:0:
64,96,98815,2,2,P|80:40|120:120,2,190,2|10|2,0:0|1:0|0:0,0:0:0:0:
264,280,99626,1,0,0:0:0:0:
40,64,99788,1,2,0:0:0:0:
208,336,99950,1,0,0:0:0:0:
448,44,100112,1,2,0:0:0:0:
360,316,100274,1,0,0:0:0:0:
40,40,100437,5,10,1:0:0:0:
464,352,100599,1,10,0:0:0:0:
256,28,100761,1,10,0:0:0:0:
56,336,100923,1,10,0:0:0:0:
464,52,101085,1,10,0:0:0:0:
56,336,101410,1,2,0:0:0:0:
56,96,101572,5,8,1:0:0:0:
56,96,101653,1,8,1:0:0:0:
56,96,101734,1,4,0:0:0:0:
100,168,101896,1,0,0:0:0:0:
156,104,102058,1,4,0:0:0:0:
224,152,102220,2,0,L|304:120,1,76,0|4,0:0|0:0,0:0:0:0:
340,192,102545,1,0,0:0:0:0:
304,268,102707,2,0,L|232:316,1,76,4|0,0:0|0:0,0:0:0:0:
200,240,103031,6,0,P|160:200|148:104,2,152,4|4|4,0:0|0:0|0:0,0:0:0:0:
284,256,103842,1,0,0:0:0:0:
340,192,104004,1,4,0:0:0:0:
380,120,104166,2,0,L|344:52,1,76,0|4,0:0|0:0,0:0:0:0:
108,312,104491,5,0,0:0:0:0:
172,256,104653,1,4,0:0:0:0:
212,328,104815,1,0,0:0:0:0:
292,300,104977,2,0,P|332:224|324:160,2,152,4|4|4,0:0|0:0|0:0,0:0:0:0:
232,240,105788,1,0,0:0:0:0:
180,176,105950,2,0,L|148:92,1,76,4|0,0:0|0:0,0:0:0:0:
236,100,106274,2,0,P|272:40|280:20,1,76,4|0,0:0|0:0,0:0:0:0:
274,34,106518,1,0,0:0:0:0:
274,34,106599,1,4,0:0:0:0:
404,88,106761,1,0,0:0:0:0:
404,88,106923,1,4,0:0:0:0:
28,28,107085,6,6,L|80:120,1,76
64,180,107410,1,6,0:0:0:0:
92,260,107572,1,6,0:0:0:0:
144,324,107734,2,4,P|168:340|216:328,1,76,4|6,0:0|0:0,0:0:0:0:
252,260,108058,1,4,0:0:0:0:
296,188,108220,1,4,0:0:0:0:
264,264,108383,6,6,L|304:344,2,76
228,180,108869,1,6,0:0:0:0:
136,180,109031,1,4,0:0:0:0:
60,128,109193,2,4,P|88:96|124:80,1,76,6|4,0:0|0:0,0:0:0:0:
304,316,109518,5,6,1:0:0:0:
228,268,109680,1,0,0:0:0:0:
180,200,109842,2,0,L|140:112,1,76,4|0,0:0|0:0,0:0:0:0:
64,136,110166,2,0,L|24:212,1,76,4|0,0:0|0:0,0:0:0:0:
80,272,110491,2,0,L|184:272,1,76,4|0,0:0|0:0,0:0:0:0:
476,32,110815,5,6,1:0:0:0:
376,356,110977,1,0,0:0:0:0:
96,280,111139,1,4,0:0:0:0:
328,164,111301,1,0,0:0:0:0:
64,92,111464,2,0,P|92:116|132:120,1,76,6|0,1:0|0:0,0:0:0:0:
448,92,111789,2,0,P|420:116|380:120,1,76,6|0,1:0|0:0,0:0:0:0:
256,244,112112,6,0,L|256:320,1,76,6|0,1:0|0:0,0:0:0:0:
328,216,112437,2,0,L|400:260,1,76,6|0,1:0|0:0,0:0:0:0:
184,216,112761,2,0,L|112:260,1,76,6|0,1:0|0:0,0:0:0:0:
256,140,113085,2,0,L|256:64,1,76,6|0,1:0|0:0,0:0:0:0:
468,360,113410,5,12,0:0:0:0:
32,32,113572,1,8,0:0:0:0:
72,232,113734,1,2,0:0:0:0:
64,308,113815,1,2,0:0:0:0:
136,328,113896,1,2,0:0:0:0:
276,224,114058,2,2,L|312:168,3,38
336,176,114383,2,0,P|392:112|384:240,1,285,12|8,0:0|0:0,0:0:0:0:
392,272,114707,6,0,L|216:296,1,142.500005435944,10|0,0:0|0:0,0:0:0:0:
208,216,115031,1,10,0:0:0:0:
236,132,115193,2,0,L|360:40,1,142.500005435944,0|6,0:0|0:0,0:0:0:0:
396,144,115518,1,0,0:0:0:0:
380,260,115680,2,0,L|220:308,1,142.500005435944,6|0,0:0|0:0,0:0:0:0:
96,144,116004,1,10,0:0:0:0:
96,144,116085,1,0,0:0:0:0:
96,144,116166,6,0,P|176:108|200:56,1,142.500005435944,0|10,0:0|0:0,0:0:0:0:
144,244,116491,1,0,0:0:0:0:
388,308,116653,1,6,0:0:0:0:
312,152,116815,1,0,0:0:0:0:
192,336,116977,1,6,0:0:0:0:
448,232,117139,1,0,0:0:0:0:
264,72,117301,6,0,L|140:152,1,142.500005435944,10|0,0:0|0:0,0:0:0:0:
252,348,117626,2,0,L|380:252,1,142.500005435944,10|0,0:0|0:0,0:0:0:0:
392,96,117950,1,6,0:0:0:0:
104,200,118112,2,0,L|28:248,2,71.2500027179719,0|0|6,0:0|0:0|0:0,0:0:0:0:
204,80,118437,1,0,0:0:0:0:
268,204,118599,2,0,P|340:244|416:228,1,142.500005435944,10|0,0:0|0:0,0:0:0:0:
344,168,118923,2,0,P|280:128|212:152,1,142.500005435944,10|0,0:0|0:0,0:0:0:0:
192,280,119247,1,6,0:0:0:0:
460,88,119410,5,0,0:0:0:0:
364,112,119491,1,0,0:0:0:0:
280,60,119572,1,6,0:0:0:0:
188,96,119653,1,0,0:0:0:0:
128,176,119734,1,0,0:0:0:0:
168,268,119815,1,0,0:0:0:0:
244,252,119896,6,0,B|280:160|280:160|317:137,1,142.500005435944,10|0,0:0|0:0,0:0:0:0:
442,97,120220,2,0,P|366:97|302:177,1,142.500005435944,10|0,0:0|0:0,0:0:0:0:
72,244,120545,1,6,0:0:0:0:
72,64,120707,1,0,0:0:0:0:
128,112,120788,1,0,0:0:0:0:
184,64,120869,2,0,P|256:80|276:24,1,142.500005435944,6|0,0:0|0:0,0:0:0:0:
8,192,121193,1,10,0:0:0:0:
344,292,121355,2,0,P|236:324|232:340,1,142.500005435944,0|10,0:0|0:0,0:0:0:0:
496,192,121680,1,0,0:0:0:0:
256,28,121842,1,6,0:0:0:0:
64,260,122004,5,0,0:0:0:0:
64,260,122085,1,0,0:0:0:0:
64,260,122166,2,0,L|128:296,3,71.2500027179719,6|0|0|0,0:0|0:0|0:0|0:0,0:0:0:0:
236,264,122491,5,10,0:0:0:0:
480,68,122653,1,2,0:0:0:0:
80,72,122815,1,10,0:0:0:0:
408,304,122977,1,2,0:0:0:0:
40,216,123139,1,6,0:0:0:0:
444,132,123301,1,2,0:0:0:0:
444,132,123383,1,2,0:0:0:0:
444,132,123464,1,6,0:0:0:0:
208,332,123626,1,4,0:0:0:0:
48,52,123788,1,2,0:0:0:0:
472,360,123950,5,8,1:0:0:0:
252,20,124112,1,8,1:0:0:0:
136,360,124274,2,10,L|280:264,1,170.999994781494
360,212,124518,1,10,0:0:0:0:
340,120,124599,1,10,0:0:0:0:
248,100,124680,1,10,0:0:0:0:
172,156,124761,1,10,0:0:0:0:
92,204,124842,1,10,0:0:0:0:
32,132,124923,1,10,0:0:0:0:
104,68,125004,1,10,0:0:0:0:
176,96,125085,6,0,B|284:72|284:72|304:40,1,142.500005435944,6|4,0:0|0:0,0:0:0:0:
460,192,125410,1,12,0:0:0:0:
260,296,125572,2,0,B|192:256|192:256|120:264,1,142.500005435944,4|12,0:0|0:0,0:0:0:0:
68,120,125896,2,0,L|16:52,1,71.2500027179719,4|0,0:0|0:0,0:0:0:0:
104,68,126058,2,0,P|172:80|248:48,1,142.500005435944,12|4,0:0|0:0,0:0:0:0:
316,192,126383,1,6,0:0:0:0:
416,312,126545,2,0,P|360:312|272:352,1,142.500005435944,4|6,0:0|1:0,0:0:0:0:
280,168,126869,2,0,P|360:180|412:140,1,142.500005435944,4|6,0:0|1:0,0:0:0:0:
456,96,127112,5,0,0:0:0:0:
384,68,127193,1,4,0:0:0:0:
308,84,127274,1,0,0:0:0:0:
264,148,127355,1,6,1:0:0:0:
200,196,127437,1,0,0:0:0:0:
128,168,127518,1,4,0:0:0:0:
108,92,127599,1,0,0:0:0:0:
180,64,127680,6,0,P|256:64|308:20,1,142.500005435944,6|4,1:0|0:0,0:0:0:0:
420,132,128004,1,12,0:0:0:0:
300,336,128166,2,0,P|240:300|200:208,1,142.500005435944,4|12,0:0|0:0,0:0:0:0:
68,156,128491,1,4,0:0:0:0:
192,64,128653,2,0,P|260:96|356:80,2,142.500005435944,12|4|6,0:0|0:0|0:0,0:0:0:0:
104,192,129139,1,4,0:0:0:0:
192,320,129301,2,0,P|260:288|356:304,2,142.500005435944,6|4|6,1:0|0:0|1:0,0:0:0:0:
160,296,129707,6,0,L|136:216,2,71.2500027179719,0|4|0,0:0|0:0|0:0,0:0:0:0:
236,152,129950,2,0,L|280:68,1,71.2500027179719,6|0,1:0|0:0,0:0:0:0:
415,355,130112,2,0,L|344:352,1,71.2500027179719,4|0,0:0|0:0,0:0:0:0:
288,256,130274,6,0,P|220:236|168:180,2,142.500005435944,6|4|12,1:0|0:0|0:0,0:0:0:0:
364,84,130761,1,4,0:0:0:0:
104,320,130923,1,12,0:0:0:0:
416,272,131085,1,4,0:0:0:0:
428,200,131166,1,0,0:0:0:0:
400,136,131247,2,0,P|337:167|267:161,1,142.500005435944,12|0,0:0|0:0,0:0:0:0:
156,92,131572,5,6,0:0:0:0:
60,352,131734,2,0,B|88:320|128:344|136:292|196:304,1,142.500005435944,4|6,0:0|1:0,0:0:0:0:
256,24,132058,1,4,0:0:0:0:
452,352,132220,2,0,B|424:320|384:344|376:292|316:304,1,142.500005435944,6|4,1:0|0:0,0:0:0:0:
92,176,132545,2,0,L|132:96,1,71.2500027179719,6|0,1:0|0:0,0:0:0:0:
376,216,132707,2,0,L|336:320,1,71.2500027179719,4|0,0:0|0:0,0:0:0:0:
264,328,132869,5,2,0:0:0:0:
68,244,133031,1,2,0:0:0:0:
184,40,133193,1,2,0:0:0:0:
420,204,133355,1,2,0:0:0:0:
208,40,133518,1,2,0:0:0:0:
88,232,133680,1,2,0:0:0:0:
268,336,133842,1,2,0:0:0:0:
480,24,134004,2,10,B|492:104|492:104|500:36,1,142.500005435944
220,324,134328,5,2,0:0:0:0:
120,112,134491,1,2,0:0:0:0:
416,116,134653,1,2,0:0:0:0:
448,348,134815,2,2,B|384:308|384:308|328:352,1,142.500005435944
64,36,135139,6,2,B|128:76|128:76|184:32,1,142.500005435944
256,192,135464,12,12,136761,0:0:0:0:
248,108,136923,5,2,0:0:0:0:
462,335,137085,2,0,P|415:333|376:308,2,95,8|2|8,0:0|0:0|0:0,0:0:0:0:
208,232,137572,1,2,0:0:0:0:
108,120,137734,2,0,P|84:56|56:40,1,95,8|2,0:0|0:0,0:0:0:0:
511,287,138058,6,0,P|428:247|340:276,2,190,12|8|8,0:0|0:0|0:0,0:0:0:0:
140,68,138869,1,2,0:0:0:0:
188,320,139031,1,8,0:0:0:0:
436,64,139193,1,2,0:0:0:0:
36,292,139355,2,0,L|136:252,1,95,8|2,0:0|0:0,0:0:0:0:
476,92,139680,2,0,L|387:127,1,95,8|2,0:0|0:0,0:0:0:0:
28,40,140004,5,10,0:0:0:0:
8,132,140085,1,2,0:0:0:0:
48,220,140166,1,2,0:0:0:0:
140,240,140247,1,2,0:0:0:0:
208,176,140328,1,10,0:0:0:0:
248,88,140410,1,2,0:0:0:0:
336,128,140491,1,2,0:0:0:0:
312,220,140572,1,2,0:0:0:0:
384,224,140653,6,0,P|424:192|448:144,1,95,12|0,0:0|0:0,0:0:0:0:
67,154,140977,2,0,P|90:195|128:224,1,95,8|0,0:0|0:0,0:0:0:0:
412,56,141301,1,8,0:0:0:0:
88,352,141464,1,0,0:0:0:0:
416,148,141626,1,8,0:0:0:0:
76,56,141788,1,0,0:0:0:0:
408,308,141950,2,2,L|480:348,3,47.5,14|2|2|2,0:0|0:0|0:0|0:0,0:0:0:0:
392,272,142274,6,0,L|380:160,1,95,8|0,0:0|0:0,0:0:0:0:
52,72,142599,2,0,P|100:68|148:88,1,95,8|0,0:0|0:0,0:0:0:0:
316,312,142923,2,0,P|368:304|400:264,1,95,8|0,0:0|0:0,0:0:0:0:
228,88,143247,5,12,0:0:0:0:
264,340,143410,1,0,0:0:0:0:
144,256,143572,1,8,0:0:0:0:
352,164,143734,1,0,0:0:0:0:
144,92,143896,1,8,0:0:0:0:
156,316,144058,1,0,0:0:0:0:
356,168,144220,2,0,P|376:116|368:76,1,95,8|0,0:0|0:0,0:0:0:0:
116,88,144545,5,14,0:0:0:0:
116,88,144626,1,2,0:0:0:0:
116,88,144707,1,2,0:0:0:0:
224,232,144869,6,0,L|276:128,2,95,8|0|8,0:0|0:0|0:0,0:0:0:0:
80,56,145355,1,0,0:0:0:0:
364,312,145518,1,8,0:0:0:0:
112,312,145680,1,0,0:0:0:0:
136,48,145842,5,14,0:0:0:0:
204,116,145923,1,2,0:0:0:0:
164,204,146004,1,2,0:0:0:0:
484,224,146166,5,10,0:0:0:0:
428,300,146247,1,2,0:0:0:0:
332,304,146328,1,2,0:0:0:0:
104,104,146491,6,0,P|156:76|184:24,2,95,8|0|8,0:0|0:0|0:0,0:0:0:0:
352,344,146977,1,0,0:0:0:0:
40,172,147139,1,12,0:0:0:0:
352,188,147301,2,0,L|408:72,1,95,0|8,0:0|0:0,0:0:0:0:
28,72,147626,2,0,L|112:156,1,95,0|8,0:0|0:0,0:0:0:0:
376,136,147950,1,0,0:0:0:0:
196,248,148112,1,8,0:0:0:0:
432,256,148274,2,0,L|372:320,1,47.5
360,304,148437,6,0,L|264:244,1,95,12|0,0:0|0:0,0:0:0:0:
44,36,148761,1,10,0:0:0:0:
44,36,148842,1,2,0:0:0:0:
44,36,148923,1,2,0:0:0:0:
424,228,149085,2,2,L|460:176,2,47.5,10|2|2,0:0|0:0|0:0,0:0:0:0:
104,256,149410,1,8,0:0:0:0:
288,56,149572,1,2,0:0:0:0:
300,104,149653,1,2,0:0:0:0:
300,148,149734,6,0,L|252:232,2,95,12|0|8,0:0|0:0|0:0,0:0:0:0:
356,272,150220,1,0,0:0:0:0:
432,180,150383,2,0,L|479:97,2,95,8|0|8,0:0|0:0|0:0,0:0:0:0:
404,224,150788,1,2,0:0:0:0:
360,252,150869,1,2,0:0:0:0:
308,248,150950,1,2,0:0:0:0:
280,176,151031,5,12,1:0:0:0:
76,324,151193,1,0,0:0:0:0:
120,132,151355,6,2,L|64:164,3,47.5,10|2|2|2,0:0|0:0|0:0|0:0,0:0:0:0:
40,244,151680,1,10,0:0:0:0:
104,316,151761,1,2,0:0:0:0:
156,236,151842,1,2,0:0:0:0:
152,140,151923,1,2,0:0:0:0:
244,156,152004,1,10,0:0:0:0:
284,244,152085,1,2,0:0:0:0:
348,204,152166,6,2,L|412:160,3,47.5,6|2|10|2,1:0|0:0|0:0|0:0,0:0:0:0:
456,244,152491,1,2,0:0:0:0:
484,152,152572,1,2,0:0:0:0:
452,64,152653,1,10,0:0:0:0:
356,56,152734,1,2,0:0:0:0:
316,144,152815,1,2,0:0:0:0:
224,124,152896,1,2,0:0:0:0:
160,52,152977,1,10,0:0:0:0:
104,128,153058,1,2,0:0:0:0:
140,176,153139,6,2,L|192:232,1,47.5
288,304,153301,2,2,L|336:240,1,47.5,10|2,0:0|0:0,0:0:0:0:
352,228,153464,1,2,0:0:0:0:
60,40,153626,5,12,1:0:0:0:
136,100,153707,1,0,0:0:0:0:
72,168,153788,1,4,1:0:0:0:
444,88,153950,5,8,0:0:0:0:
36,36,154112,1,4,1:0:0:0:
188,356,154274,1,8,0:0:0:0:
316,212,154437,5,4,1:0:0:0:
264,132,154518,1,0,0:0:0:0:
188,188,154599,1,8,0:0:0:0:
332,320,154761,6,4,P|376:336|424:324,2,95,4|12|4,1:0|1:0|1:0,1:0:0:0:
408,32,155247,1,0,0:0:0:0:
156,308,155410,6,6,P|172:188|104:280,1,285,6|6,1:0|1:0,1:0:0:0:
36,32,156058,5,6,1:0:0:0:
68,108,156139,1,2,1:0:0:0:
144,80,156220,1,2,1:0:0:0:
444,332,156383,1,0,0:0:0:0:
448,84,156545,1,0,0:0:0:0:
276,296,156707,1,0,0:0:0:0:
24,192,156869,1,0,0:0:0:0:
360,44,157031,1,2,1:0:0:0:
416,104,157112,1,2,1:0:0:0:
360,164,157193,1,2,1:0:0:0:
476,352,157355,5,6,1:0:0:0:
420,292,157437,1,2,1:0:0:0:
360,344,157518,1,2,1:0:0:0:
68,52,157680,1,0,0:0:0:0:
64,300,157842,1,0,0:0:0:0:
236,88,158004,1,0,0:0:0:0:
488,192,158166,1,0,0:0:0:0:
92,40,158328,1,2,1:0:0:0:
148,100,158410,1,2,1:0:0:0:
88,156,158491,1,2,1:0:0:0:
96,304,158653,6,0,P|124:288|156:232,2,95,4|0|0,1:0|0:0|0:0,0:0:0:0:
456,128,159139,1,0,0:0:0:0:
155,148,159301,2,0,P|134:106|96:80,1,95
396,356,159626,1,2,1:0:0:0:
324,320,159707,1,2,1:0:0:0:
284,248,159788,1,2,1:0:0:0:
416,80,159950,6,0,P|388:96|356:152,2,95,4|0|0,1:0|0:0|0:0,0:0:0:0:
56,256,160436,1,0,0:0:0:0:
356,235,160598,2,0,P|377:277|416:304,1,95
104,324,160923,1,10,1:0:0:0:
24,328,161004,1,10,1:0:0:0:
60,256,161085,1,10,1:0:0:0:
152,96,161247,5,6,1:0:0:0:
176,140,161328,1,2,0:0:0:0:
220,168,161410,1,2,0:0:0:0:
268,144,161491,1,2,0:0:0:0:
300,104,161572,1,2,0:0:0:0:
344,132,161653,1,2,0:0:0:0:
344,184,161734,1,2,0:0:0:0:
308,224,161815,1,2,0:0:0:0:
260,244,161896,1,2,0:0:0:0:
248,296,161977,1,2,0:0:0:0:
292,328,162058,1,2,0:0:0:0:
344,312,162139,1,2,0:0:0:0:
384,276,162220,1,2,0:0:0:0:
432,252,162301,1,2,0:0:0:0:
476,220,162383,1,2,0:0:0:0:
460,172,162464,1,2,0:0:0:0:
416,144,162545,5,6,1:0:0:0:
368,168,162626,1,2,0:0:0:0:
332,208,162707,1,2,0:0:0:0:
284,188,162788,1,2,0:0:0:0:
276,136,162869,1,2,0:0:0:0:
260,88,162950,1,2,0:0:0:0:
208,76,163031,1,2,0:0:0:0:
164,100,163112,1,2,0:0:0:0:
136,144,163193,1,2,0:0:0:0:
136,192,163274,1,2,0:0:0:0:
168,232,163355,1,2,0:0:0:0:
184,284,163437,1,2,0:0:0:0:
224,320,163518,1,2,0:0:0:0:
260,284,163599,1,2,0:0:0:0:
300,320,163680,1,2,0:0:0:0:
340,288,163761,1,2,0:0:0:0:
392,280,163842,6,0,L|436:148,1,95,12|0,1:0|0:0,0:0:0:0:
204,92,164166,2,0,L|112:112,1,95
196,312,164491,1,12,1:0:0:0:
372,96,164653,1,0,0:0:0:0:
344,256,164815,2,0,L|416:320,2,95,0|0|6,0:0|0:0|1:0,0:0:0:0:
292,272,165220,5,2,0:0:0:0:
296,220,165302,1,2,0:0:0:0:
328,180,165383,1,2,0:0:0:0:
356,136,165464,2,0,L|284:72,2,95,2|0|6,0:0|0:0|1:0,0:0:0:0:
392,176,165869,5,2,0:0:0:0:
364,220,165950,1,2,0:0:0:0:
324,256,166031,1,2,0:0:0:0:
272,260,166112,2,0,L|208:331,2,95,2|0|6,0:0|0:0|1:0,0:0:0:0:
300,216,166518,5,2,0:0:0:0:
284,164,166599,1,2,0:0:0:0:
240,136,166680,1,2,0:0:0:0:
192,152,166761,2,0,P|132:184|88:180,2,95,2|0|6,0:0|0:0|1:0,0:0:0:0:
200,100,167166,5,2,0:0:0:0:
160,64,167247,1,2,0:0:0:0:
108,76,167328,1,2,0:0:0:0:
68,112,167410,2,0,P|68:159|61:206,2,95,2|0|6,0:0|0:0|1:0,0:0:0:0:
496,292,167896,6,0,L|440:188,1,95,4|0,0:0|0:0,0:0:0:0:
432,176,168058,1,4,0:0:0:0:
16,92,168220,1,8,1:0:0:0:
16,92,168382,2,0,L|61:176,1,95,4|0,0:0|0:0,0:0:0:0:
80,208,168544,1,4,0:0:0:0:
260,348,168706,1,8,1:0:0:0:
260,348,168869,2,0,L|364:292,1,95,4|0,0:0|0:0,0:0:0:0:
376,284,169031,1,4,0:0:0:0:
256,32,169193,1,8,1:0:0:0:
256,32,169355,2,0,L|172:78,1,95,4|0,0:0|0:0,0:0:0:0:
140,97,169517,1,4,0:0:0:0:
256,336,169679,5,8,1:0:0:0:
256,336,169842,2,10,P|324:204|336:336,1,380
92,52,170491,5,12,0:0:0:0:
100,132,170653,1,8,0:0:0:0:
156,192,170815,2,8,L|200:208,2,47.5,12|8|12,0:0|0:0|0:0,0:0:0:0:
100,252,171301,1,8,0:0:0:0:
156,312,171464,2,8,L|216:296,1,47.5,12|8,0:0|0:0,0:0:0:0:
268,256,171788,1,12,0:0:0:0:
316,192,171950,1,8,0:0:0:0:
388,152,172112,2,8,L|420:112,3,47.5,10|8|10|8,0:0|0:0|0:0|0:0,0:0:0:0:
396,68,172680,1,0,0:0:0:0:
356,64,172761,2,8,P|320:68|296:60,1,47.5,10|8,0:0|0:0,0:0:0:0:
96,332,173085,6,8,L|144:288,1,47.5,10|8,1:0|0:0,0:0:0:0:
212,288,173410,2,8,L|252:320,1,47.5,12|8,0:0|0:0,0:0:0:0:
328,312,173734,1,12,0:0:0:0:
384,256,173896,1,8,0:0:0:0:
384,256,173977,1,0,0:0:0:0:
384,256,174058,2,8,L|412:208,2,47.5,12|8|12,0:0|0:0|0:0,0:0:0:0:
320,204,174545,1,8,0:0:0:0:
240,184,174707,1,10,0:0:0:0:
164,164,174869,2,8,L|124:132,1,47.5,8|10,0:0|0:0,0:0:0:0:
80,136,175112,1,0,0:0:0:0:
60,180,175193,2,8,L|24:224,2,47.5,8|10|8,0:0|0:0|0:0,0:0:0:0:
448,72,175680,6,8,P|428:104|408:108,1,47.5,10|8,1:0|0:0,0:0:0:0:
356,152,176004,2,8,P|356:192|368:200,1,47.5,12|8,0:0|0:0,0:0:0:0:
296,248,176328,1,12,0:0:0:0:
228,200,176491,1,8,0:0:0:0:
152,232,176653,1,12,0:0:0:0:
108,300,176815,1,8,0:0:0:0:
48,248,176977,2,8,L|32:200,3,47.5,12|8|10|8,0:0|0:0|0:0|0:0,0:0:0:0:
72,132,177626,2,8,L|176:104,1,95,10|10,0:0|0:0,0:0:0:0:
400,344,178112,1,8,0:0:0:0:
400,344,178193,1,8,0:0:0:0:
400,344,178274,6,0,L|352:320,1,47.5,2|8,1:0|0:0,0:0:0:0:
336,244,178599,2,0,L|340:176,1,47.5,4|8,0:0|0:0,0:0:0:0:
304,124,178923,1,4,0:0:0:0:
232,160,179085,1,4,0:0:0:0:
156,128,179247,2,0,L|136:80,2,47.5,2|2|8,0:0|0:0|1:0,0:0:0:0:
208,200,179734,1,8,1:0:0:0:
284,124,179896,6,0,L|336:40,3,95,2|0|2|0,3:3|3:3|3:3|3:3,3:3:0:0:
328,160,180220,2,0,L|424:108,3,95,4|0|4|0,3:3|3:3|3:3|3:3,3:3:0:0:
328,200,180545,2,0,L|432:216,3,95,2|0|2|0,3:3|3:3|3:3|3:3,3:3:0:0:
421,214,180869,6,10,B|365:269|365:269|273:205|134:280,1,323.000006160736
120,132,181355,1,0,0:0:0:0:
304,172,181518,2,0,P|384:192|448:144,1,161.500003080368,4|0,0:0|0:0,0:0:0:0:
128,320,181842,2,0,P|112:240|44:212,2,161.500003080368,4|0|4,0:0|0:0|0:0,0:0:0:0:
312,96,182328,1,0,0:0:0:0:
360,344,182491,1,4,0:0:0:0:
24,36,182653,1,0,0:0:0:0:
128,44,182734,1,0,0:0:0:0:
100,136,182815,1,4,0:0:0:0:
224,268,182977,2,0,P|304:240|372:268,1,161.500003080368,0|4,0:0|0:0,0:0:0:0:
48,136,183301,1,0,0:0:0:0:
384,168,183464,6,0,P|444:108|472:32,1,161.500003080368,4|0,0:0|0:0,0:0:0:0:
164,56,183788,1,4,0:0:0:0:
452,320,183950,1,0,0:0:0:0:
384,56,184112,1,4,0:0:0:0:
440,288,184274,1,0,0:0:0:0:
388,168,184355,1,0,0:0:0:0:
256,196,184437,2,0,B|176:212|176:212|120:148,1,161.500003080368,4|0,0:0|0:0,0:0:0:0:
320,328,184761,1,4,0:0:0:0:
444,36,184923,2,0,B|460:116|460:116|396:172,1,161.500003080368,0|4,0:0|0:0,0:0:0:0:
316,208,185166,1,0,0:0:0:0:
248,148,185247,2,0,B|264:68|264:68|200:12,1,161.500003080368,0|4,0:0|0:0,0:0:0:0:
104,144,185491,1,0,0:0:0:0:
152,300,185572,1,0,0:0:0:0:
400,340,185734,2,0,B|464:256|464:256|512:228,1,161.500003080368,4|0,0:0|0:0,0:0:0:0:
192,160,186058,5,4,0:0:0:0:
308,132,186220,1,0,0:0:0:0:
96,56,186383,1,4,0:0:0:0:
484,284,186545,1,0,0:0:0:0:
60,340,186707,1,4,0:0:0:0:
48,84,186869,1,0,0:0:0:0:
112,128,186950,1,0,0:0:0:0:
176,84,187031,1,4,0:0:0:0:
360,292,187193,2,0,B|412:284|416:348|416:348|452:324|488:360,1,161.500003080368,0|4,0:0|0:0,0:0:0:0:
404,72,187518,1,0,0:0:0:0:
152,96,187680,2,0,B|100:104|96:40|96:40|60:64|24:28,1,161.500003080368,4|0,0:0|0:0,0:0:0:0:
136,340,188004,1,4,0:0:0:0:
352,160,188166,2,0,P|420:84|416:8,2,161.500003080368,0|4|0,0:0|0:0|0:0,0:0:0:0:
52,120,188653,5,10,0:0:0:0:
396,288,188815,1,10,0:0:0:0:
356,40,188977,1,10,0:0:0:0:
196,332,189139,1,10,0:0:0:0:
32,28,189301,1,10,0:0:0:0:
36,232,189464,1,10,0:0:0:0:
448,148,189626,1,10,0:0:0:0:
208,160,189788,1,10,0:0:0:0:
480,36,189950,5,4,0:0:0:0:
428,364,190112,6,0,L|452:176,1,190,10|4,0:0|0:0,0:0:0:0:
160,88,190355,1,0,0:0:0:0:
88,40,190436,2,0,L|64:228,1,190,10|4,0:0|0:0,0:0:0:0:
112,324,190680,1,0,0:0:0:0:
176,256,190761,2,0,L|276:184,1,95,10|0,0:0|0:0,0:0:0:0:
468,132,190923,2,0,L|360:64,1,95,4|0,0:0|0:0,0:0:0:0:
32,132,191085,2,0,L|136:172,1,95,10|0,0:0|0:0,0:0:0:0:
340,272,191247,5,4,1:0:0:0:
404,224,191328,1,0,0:0:0:0:
436,148,191410,1,8,1:0:0:0:
412,72,191491,1,0,0:0:0:0:
332,60,191572,1,4,1:0:0:0:
260,96,191653,1,0,0:0:0:0:
180,100,191734,1,8,1:0:0:0:
104,76,191815,1,0,0:0:0:0:
48,136,191896,5,4,1:0:0:0:
60,216,191977,1,0,0:0:0:0:
128,256,192058,1,8,1:0:0:0:
196,212,192139,1,0,0:0:0:0:
264,252,192220,1,4,1:0:0:0:
280,332,192301,1,0,0:0:0:0:
200,348,192383,1,8,1:0:0:0:
128,312,192464,1,0,0:0:0:0:
148,232,192545,5,4,1:0:0:0:
224,208,192626,1,0,0:0:0:0:
300,232,192707,1,8,1:0:0:0:
348,296,192788,1,0,0:0:0:0:
424,264,192869,1,4,1:0:0:0:
460,192,192950,1,0,0:0:0:0:
408,132,193031,1,8,1:0:0:0:
332,108,193112,1,0,0:0:0:0:
268,156,193193,5,6,1:0:0:0:
192,132,193274,1,0,0:0:0:0:
140,72,193355,1,0,0:0:0:0:
60,92,193437,1,0,0:0:0:0:
40,172,193518,1,6,1:0:0:0:
96,232,193599,1,0,0:0:0:0:
172,252,193680,1,0,0:0:0:0:
216,320,193761,1,0,0:0:0:0:
288,328,193842,6,0,L|344:216,1,80.750001540184,6|0,1:0|0:0,0:0:0:0:
48,40,194004,2,0,P|56:80|96:100,1,80.750001540184,8|0,1:0|0:0,0:0:0:0:
144,312,194166,2,0,L|180:220,1,80.750001540184,4|0,1:0|0:0,0:0:0:0:
480,68,194328,2,0,B|448:32|448:32|408:28,1,80.750001540184,8|0,1:0|0:0,0:0:0:0:
332,272,194491,2,0,L|424:248,1,80.750001540184,4|0,1:0|0:0,0:0:0:0:
80,96,194653,2,0,L|104:184,1,80.750001540184,8|0,1:0|0:0,0:0:0:0:
200,352,194815,2,0,L|236:264,1,80.750001540184,4|0,1:0|0:0,0:0:0:0:
324,72,194977,2,0,L|364:152,1,80.750001540184,8|0,1:0|0:0,0:0:0:0:
260,336,195139,6,0,L|168:332,1,80.750001540184,4|0,1:0|0:0,0:0:0:0:
252,48,195301,2,0,L|344:52,1,80.750001540184,8|0,1:0|0:0,0:0:0:0:
116,268,195464,2,0,L|88:184,1,80.750001540184,4|0,1:0|0:0,0:0:0:0:
396,116,195626,2,0,L|424:200,1,80.750001540184,8|0,1:0|0:0,0:0:0:0:
92,96,195788,2,0,L|152:28,1,80.750001540184,6|0,1:0|0:0,0:0:0:0:
420,288,195950,2,0,L|360:356,1,80.750001540184
256,24,196112,2,0,L|340:32,1,80.750001540184,6|0,1:0|0:0,0:0:0:0:
256,360,196274,2,0,L|172:352,1,80.750001540184
48,320,196437,5,6,1:0:0:0:
16,212,196518,1,0,0:0:0:0:
60,108,196599,1,8,1:0:0:0:
156,48,196680,1,0,0:0:0:0:
260,92,196761,1,4,1:0:0:0:
356,152,196842,1,0,0:0:0:0:
348,264,196923,1,8,1:0:0:0:
276,352,197004,1,0,0:0:0:0:
176,296,197085,5,4,1:0:0:0:
136,192,197166,1,0,0:0:0:0:
228,124,197247,1,8,1:0:0:0:
276,228,197328,1,0,0:0:0:0:
320,332,197410,1,4,1:0:0:0:
432,324,197491,1,0,0:0:0:0:
432,212,197572,1,8,1:0:0:0:
364,124,197653,1,0,0:0:0:0:
296,144,197734,6,0,L|340:248,3,80.750001540184,4|0|8|0,1:0|0:0|1:0|0:0,0:0:0:0:
380,192,198059,2,0,L|436:124,3,80.750001540184,6|0|0|0,1:0|0:0|0:0|0:0,0:0:0:0:
476,164,198383,2,0,L|476:280,3,80.750001540184,6|0|0|0,1:0|0:0|0:0|0:0,0:0:0:0:
420,260,198707,2,0,L|332:284,3,80.750001540184,6|0|0|0,1:0|0:0|0:0|0:0,0:0:0:0:
28,64,199031,5,2,0:0:0:0:
484,320,199193,1,2,0:0:0:0:
0,148,199355,1,2,0:0:0:0:
512,236,199517,1,2,0:0:0:0:
0,236,199680,1,2,0:0:0:0:
512,148,199842,1,2,0:0:0:0:
28,324,200004,1,2,0:0:0:0:
484,60,200166,1,2,0:0:0:0:
88,332,200328,6,4,L|32:268,2,80.750001540184
204,76,200653,1,8,1:0:0:0:
440,276,200815,1,8,1:0:0:0:
244,356,200977,5,2,0:0:0:0:
104,276,201058,1,2,0:0:0:0:
104,116,201139,1,2,0:0:0:0:
232,20,201220,1,2,0:0:0:0:
388,64,201301,1,2,0:0:0:0:
220,344,201464,5,12,1:0:0:0:
256,192,201626,12,12,202599,0:0:0:0:
144,200,202923,6,0,P|296:232|424:148,1,304,2|8,0:0|0:0,0:0:0:0:
264,304,204220,2,0,P|296:152|212:24,1,304,2|8,0:0|0:0,0:0:0:0:
222,31,205193,1,4,0:0:0:0:
368,184,205518,6,0,P|216:152|88:236,1,304,2|8,0:0|0:0,0:0:0:0:
248,80,206815,2,0,P|216:232|300:360,1,304,2|8,0:0|0:0,0:0:0:0:
400,208,207788,1,4,0:0:0:0:
216,84,208112,6,0,P|168:136|80:120,1,152,2|8,0:0|0:0,0:0:0:0:
92,268,208761,2,0,P|164:228|236:240,1,152,8|8,0:0|0:0,0:0:0:0:
376,108,209410,1,6,0:0:0:0:
256,36,210058,6,0,L|256:192,1,152,8|8,0:0|0:0,0:0:0:0:
216,84,210707,2,0,P|244:296|284:80,1,608,2|6,0:0|0:0,0:0:0:0:
156,328,212328,6,4,L|96:220,2,114
312,280,213139,2,8,P|388:192|384:84,1,228
256,192,213950,12,12,216928,0:0:0:0:
200,84,217274,6,0,L|80:184,1,152,2|4,0:0|0:0,0:0:0:0:
448,296,218054,2,0,L|416:160,1,132.999995941162,2|12,0:0|0:0,0:0:0:0:
236,212,218921,6,2,L|252:124,38,52.2500015945435
280,192,222330,1,6,0:0:0:0:
