osu file format v14

[General]
AudioFilename: 01. Mirai Infinity.mp3
AudioLeadIn: 0
PreviewTime: 57301
Countdown: 0
SampleSet: None
StackLeniency: 0.3
Mode: 0
LetterboxInBreaks: 1
SkinPreference:Hyperdimension Neptunia v11
WidescreenStoryboard: 1

[Editor]
Bookmarks: 13518,91355,170491
DistanceSpacing: 0.8
BeatDivisor: 4
GridSize: 4
TimelineZoom: 3.047999

[Metadata]
Title:Mirai Infinity
TitleUnicode:ミラインフィニティ
Artist:Neptune (CV. Rie Tanaka)
ArtistUnicode:ネプテューヌ(CV.田中理恵)
Creator:Aikyuu-Chan
Version:Advanced Idol
Source:神次元アイドル ネプテューヌPP
Tags:Kami Jigen Idol Neptune PP PSVita Hyperdimension Idol Neptunia PP HYPER DIMENSION NEPTUNE SHARE COMPLETE DISCS Album Disc 5 超次元ゲイム ネプテューヌ シェアコンプリート ディスクス Disc 5 Neptune INFINITY Idol Game Visual Novel Extra Song Cosplay
BeatmapID:1983479
BeatmapSetID:949915

[Difficulty]
HPDrainRate:4
CircleSize:3.5
OverallDifficulty:4
ApproachRate:6
SliderMultiplier:1.2
SliderTickRate:1

[Events]
//Background and Video events
0,0,"nepneo_20130318215152.jpg",0,0
//Break Periods
2,80977,89657
2,136761,139603
//Storyboard Layer 0 (Background)
//Storyboard Layer 1 (Fail)
//Storyboard Layer 2 (Pass)
//Storyboard Layer 3 (Foreground)
//Storyboard Sound Samples

[TimingPoints]
3139.75714872597,324.324324324324,4,2,0,100,1,0
13518,-100,4,2,0,100,0,1
13599,-100,4,2,0,100,0,0
23896,-100,4,2,0,100,0,1
23977,-100,4,2,0,100,0,0
34274,-125,4,2,0,80,0,0
44653,-100,4,2,0,100,0,0
44977,-83.3333333333333,4,2,0,100,0,0
45301,-71.4285714285714,4,2,0,100,0,0
45626,-62.5,4,2,0,100,0,0
45950,-100,4,2,0,100,0,0
47247,-83.3333333333333,4,2,0,100,0,0
47572,-62.5,4,2,0,100,0,0
47896,-55.5555555555556,4,2,0,100,0,0
48220,-52.6315789473684,4,2,0,100,0,0
48545,-100,4,2,0,100,0,0
49842,-50,4,2,0,100,0,0
57301,-50,4,1,6,5,0,0
57626,-83.3333333333333,4,2,0,100,0,1
66707,-55.5555555555556,4,2,0,100,0,0
68004,-83.3333333333333,4,2,0,100,0,1
78383,-100,4,2,0,100,0,0
80977,-100,4,2,0,80,0,0
91355,-50,4,2,0,5,0,0
91680,-100,4,2,0,100,0,1
91761,-100,4,2,0,100,0,0
101734,-125,4,2,0,80,0,0
114383,-50,4,1,6,5,0,0
114707,-83.3333333333333,4,2,0,100,0,1
123788,-55.5555555555556,4,2,0,100,0,0
125085,-83.3333333333333,4,2,0,100,0,1
135464,-100,4,2,0,100,0,0
156058,-100,4,2,0,100,0,1
156220,-100,4,2,0,100,0,0
167896,-50,4,2,0,60,0,0
170491,-200,4,2,0,20,0,1
170572,-200,4,2,0,40,0,0
178274,-100,4,2,0,40,0,0
179572,-50,4,2,0,100,0,0
180869,-76.9230769230769,4,2,0,100,0,1
189950,-50,4,2,0,100,0,0
191247,-76.9230769230769,4,2,0,100,0,1
201626,-100,4,2,0,100,0,0
202923,-125,4,2,0,70,0,0
210707,-83.3333333333333,4,2,0,70,0,0
212328,-125,4,2,0,70,0,0
215900,342.857142857143,4,2,0,100,1,0
215900,-111.111111111111,4,2,0,100,0,0
217274,389.61038961039,4,2,0,100,1,0
217274,-125,4,2,0,100,0,0
218054,431.654676258993,4,2,0,100,1,0
218054,-142.857142857143,4,2,0,100,0,0
218921,340.909090909091,4,2,0,100,1,0
218921,-90.9090909090909,4,2,0,100,0,0
222330,1000,4,2,0,100,1,0

[HitObjects]
256,192,2815,5,0,0:0:0:0:
292,308,3139,6,0,P|324:252|324:180,1,120
268,196,3626,1,0,0:0:0:0:
208,180,3788,2,0,P|213:120|243:69,1,120
304,68,4274,1,0,0:0:0:0:
364,68,4437,6,0,B|408:108|408:132|384:172,1,120
276,224,5085,2,0,L|148:184,1,120
128,140,5572,1,0,0:0:0:0:
240,100,5896,6,0,L|290:68,2,60
292,208,6545,1,0,0:0:0:0:
252,252,6707,1,0,0:0:0:0:
192,252,6869,2,0,P|180:220|192:128,1,120
240,100,7355,6,0,L|304:68,1,60
348,100,7680,1,0,0:0:0:0:
392,140,7842,2,0,L|412:200,2,60
300,272,8491,6,0,L|176:228,1,120
204,112,9139,2,0,P|284:120|308:92,1,120
404,164,9788,1,0,0:0:0:0:
404,164,9950,2,0,L|388:232,1,60
332,232,10274,1,0,0:0:0:0:
272,244,10437,1,0,0:0:0:0:
220,212,10599,2,0,L|200:140,1,60
212,96,10923,1,0,0:0:0:0:
272,92,11085,6,0,P|320:96|336:72,3,60
376,124,11734,1,0,0:0:0:0:
404,176,11896,1,0,0:0:0:0:
384,232,12058,2,0,P|344:288|272:292,1,120
240,276,12545,2,0,L|200:208,1,60
156,192,12869,2,0,L|96:136,1,60
112,92,13193,1,0,0:0:0:0:
232,88,13518,6,0,P|276:52|340:52,1,120
376,164,14166,1,0,0:0:0:0:
308,264,14491,2,0,P|272:280|252:280,1,60
200,252,14815,2,0,P|168:212|168:192,1,60
188,148,15139,2,0,P|220:128|228:104,1,60
288,104,15464,6,0,L|432:116,1,120
440,228,16112,2,0,B|420:268|420:268|400:344,2,120
368,132,17085,1,0,0:0:0:0:
332,84,17247,2,0,L|264:72,1,60
220,104,17572,2,0,L|204:168,1,60
216,220,17896,1,0,0:0:0:0:
176,264,18058,6,0,P|136:300|96:256,1,120
40,156,18707,2,0,P|80:120|120:164,1,120
236,184,19355,1,0,0:0:0:0:
352,208,19680,2,0,L|376:148,1,60
348,100,20004,1,0,0:0:0:0:
304,60,20166,1,0,0:0:0:0:
256,100,20328,6,0,B|208:100|208:100|180:128|180:172,1,120
292,204,20977,2,0,B|368:196|368:196|396:148,1,120
384,40,21626,2,0,P|316:72|288:36,1,120
172,60,22274,2,0,P|152:108|184:164,1,120
300,192,22923,6,0,L|348:152,1,60
404,136,23247,2,0,L|476:128,1,60
484,188,23572,2,0,L|464:272,1,60
412,264,23896,6,0,P|300:300|196:244,1,240
80,216,24869,2,0,P|96:196|104:156,1,60
136,112,25193,1,0,0:0:0:0:
188,84,25355,1,0,0:0:0:0:
236,124,25518,2,0,P|268:100|288:96,1,60
332,136,25842,6,0,B|348:152|348:152|408:168|348:192|348:192|332:208,1,120
236,280,26491,2,0,P|192:268|192:200,1,120
212,84,27139,2,0,L|336:104,1,120
372,144,27626,1,0,0:0:0:0:
396,200,27788,6,0,L|376:256,3,60
316,272,28437,6,0,B|272:264|240:288|240:288|180:288,1,120
128,192,29085,2,0,P|104:132|104:64,2,120
240,144,30058,1,0,0:0:0:0:
276,192,30220,1,0,0:0:0:0:
336,192,30383,2,0,P|360:132|360:64,2,120
256,284,31355,1,0,0:0:0:0:
172,200,31680,2,0,P|120:236|60:204,3,120
84,100,32977,6,0,L|160:92,4,60
8,192,33950,1,0,0:0:0:0:
356,304,34274,6,0,P|372:272|380:204,3,96
324,136,35572,1,0,0:0:0:0:
256,68,35896,2,0,L|212:112,1,48
124,208,36545,1,0,0:0:0:0:
184,280,36869,2,0,L|324:236,1,144
256,192,37518,12,0,39139,0:0:0:0:
220,80,39464,6,0,P|184:104|188:160,3,96
156,244,40761,1,0,0:0:0:0:
216,316,41085,2,0,L|272:284,1,48
392,236,41734,1,0,0:0:0:0:
364,144,42058,1,0,0:0:0:0:
240,72,42545,2,0,L|188:92,1,48
256,192,42869,12,0,44328,0:0:0:0:
204,320,44653,6,0,P|264:308|296:236,3,120
320,144,45950,2,0,L|248:120,1,60
204,128,46274,2,0,L|144:176,1,60
124,216,46599,2,0,L|128:284,1,60
180,304,46923,1,0,0:0:0:0:
208,143,47247,6,0,P|240:81|308:64,3,143.999995605469
392,152,48545,2,0,L|468:192,1,60
452,240,48868,2,0,L|405:277,1,60
348,296,49193,2,0,L|280:292,1,60
260,240,49517,1,0,0:0:0:0:
120,244,49842,6,0,B|56:244|56:244|20:192|56:140|56:140|120:140,1,240
392,140,50491,2,0,B|456:140|456:140|492:192|456:244|456:244|392:244,1,240
120,244,51139,2,0,B|220:204|220:204|220:68,1,240
292,71,51788,2,0,B|292:204|292:204|392:244,1,240
256,192,52437,12,0,54058,0:0:0:0:
335,99,54383,6,0,B|288:140|224:132|224:132|256:192|256:192|208:212,1,240
256,192,55031,12,0,57301,0:0:0:0:
156,232,57626,6,0,P|204:184|200:88,1,143.999995605469
256,56,58112,1,0,0:0:0:0:
300,112,58274,2,0,P|304:182|353:232,1,143.999995605469
420,264,58761,1,0,0:0:0:0:
468,208,58923,1,0,0:0:0:0:
452,136,59085,2,0,L|392:88,1,71.9999978027344
340,48,59410,1,0,0:0:0:0:
268,44,59572,2,0,P|236:28|196:44,3,71.9999978027344
144,80,60220,6,0,P|124:120|128:152,1,71.9999978027344
148,216,60545,2,0,P|196:212|208:192,1,71.9999978027344
264,152,60869,2,0,B|308:152|308:152|320:120|320:120|376:80,1,143.999995605469
412,140,61355,1,0,0:0:0:0:
436,208,61518,2,0,L|404:284,1,71.9999978027344
336,284,61842,1,0,0:0:0:0:
272,316,62004,1,0,0:0:0:0:
224,264,62166,2,0,P|188:244|156:252,3,71.9999978027344
92,224,62815,5,0,0:0:0:0:
52,164,62977,1,0,0:0:0:0:
112,124,63139,2,0,L|184:108,1,71.9999978027344
252,128,63464,2,0,P|336:128|392:88,1,143.999995605469
364,28,63950,5,0,0:0:0:0:
296,52,64112,1,0,0:0:0:0:
224,68,64274,2,0,P|176:68|124:52,1,71.9999978027344
80,68,64599,1,0,0:0:0:0:
56,136,64761,1,0,0:0:0:0:
96,196,64923,2,0,P|136:216|168:212,2,71.9999978027344
132,132,65410,6,0,L|200:96,3,71.9999978027344
264,120,66058,1,0,0:0:0:0:
332,96,66220,1,0,0:0:0:0:
372,156,66383,2,0,P|360:192|304:224,1,71.9999978027344
256,288,66707,5,0,0:0:0:0:
156,248,66869,1,0,0:0:0:0:
100,156,67031,2,0,P|128:111|177:90,1,107.999996704102
268,148,67355,2,0,P|371:147|431:232,1,215.999993408203
276,316,68004,6,0,P|196:284|160:224,1,143.999995605469
192,172,68491,1,0,0:0:0:0:
264,164,68653,2,0,P|312:116|280:40,1,143.999995605469
224,64,69139,1,0,0:0:0:0:
164,104,69301,1,0,0:0:0:0:
112,156,69464,2,0,P|84:200|56:196,1,71.9999978027344
80,272,69788,2,0,B|124:288|124:288|152:288,4,71.9999978027344
60,204,70599,6,0,B|48:144|48:144|68:100|128:96,1,143.999995605469
160,152,71085,1,0,0:0:0:0:
188,216,71247,2,0,B|246:227|246:227|290:207|293:163,1,143.999995605469
272,96,71734,1,0,0:0:0:0:
344,88,71896,2,0,L|420:64,3,71.9999978027344
428,136,72545,2,0,L|424:216,3,71.9999978027344
384,268,73193,5,0,0:0:0:0:
328,316,73355,1,0,0:0:0:0:
260,288,73518,2,0,P|200:272|160:268,1,71.9999978027344
128,232,73842,2,0,B|96:184|76:140|76:140|104:88,1,143.999995605469
164,96,74328,2,0,L|260:104,1,71.9999978027344
304,128,74653,1,0,0:0:0:0:
344,188,74815,1,0,0:0:0:0:
268,308,75139,2,0,P|180:272|164:212,1,143.999995605469
56,140,75788,6,0,L|96:80,3,71.9999978027344
168,92,76437,2,0,L|220:160,3,71.9999978027344
280,176,77085,1,0,0:0:0:0:
344,204,77247,2,0,P|376:188|392:148,1,71.9999978027344
348,100,77572,2,0,P|304:108|260:88,1,71.9999978027344
136,88,78058,2,0,L|132:184,1,71.9999978027344
256,192,78383,12,0,80004,0:0:0:0:
172,192,90707,6,0,P|224:192|256:132,2,120
100,96,91680,6,0,P|64:140|64:204,1,120
204,264,92329,2,0,P|240:280|260:280,1,60
312,252,92653,2,0,P|344:212|344:192,1,60
324,148,92977,2,0,P|292:128|284:104,1,60
224,104,93302,6,0,L|80:116,1,120
72,228,93950,2,0,B|92:268|92:268|112:344,2,120
144,132,94923,1,0,0:0:0:0:
180,84,95085,2,0,L|248:72,1,60
292,104,95410,2,0,L|308:168,1,60
296,220,95734,1,0,0:0:0:0:
336,264,95896,6,0,P|376:300|416:256,1,120
472,156,96545,2,0,P|432:120|392:164,1,120
276,184,97193,1,0,0:0:0:0:
160,208,97518,2,0,L|136:148,1,60
164,100,97842,1,0,0:0:0:0:
208,60,98004,1,0,0:0:0:0:
256,100,98166,6,0,B|304:100|304:100|332:128|332:172,1,120
220,204,98815,2,0,B|144:196|144:196|116:148,1,120
128,40,99464,2,0,P|196:72|224:36,1,120
340,60,100112,2,0,P|360:108|328:164,1,120
288,208,100599,6,0,L|240:168,1,60
184,152,100923,2,0,L|112:144,1,60
44,56,101410,1,0,0:0:0:0:
204,136,101734,5,0,0:0:0:0:
288,204,101896,6,0,L|348:188,1,48
376,168,102220,2,0,L|408:120,1,48
324,76,102707,2,0,P|268:80|240:112,3,96
208,196,104004,1,0,0:0:0:0:
252,280,104328,1,0,0:0:0:0:
296,296,104491,6,0,L|344:272,1,48
372,232,104815,1,0,0:0:0:0:
360,184,104977,2,0,P|304:152|288:112,2,96
456,184,105950,2,0,P|480:136|488:92,1,96
400,52,106599,1,0,0:0:0:0:
308,84,106923,1,0,0:0:0:0:
268,108,107085,6,0,L|200:128,1,48
188,156,107410,2,0,L|184:220,1,48
208,296,107896,1,0,0:0:0:0:
296,332,108220,1,0,0:0:0:0:
340,316,108383,6,0,P|364:296|372:268,1,48
388,236,108707,2,0,L|380:180,1,48
344,100,109193,1,0,0:0:0:0:
256,60,109518,6,0,P|216:72|164:56,3,96
88,116,110815,2,0,L|112:212,1,96
208,204,111464,2,0,B|244:204|244:204|260:172|296:160,1,96
360,224,112112,6,0,B|396:200|396:200|400:168|416:144,2,96
268,244,113085,1,0,0:0:0:0:
176,272,113410,2,0,L|144:224,1,48
76,168,113896,2,0,L|228:136,1,144
356,152,114707,6,0,P|308:200|312:296,1,143.999995605469
256,328,115193,1,0,0:0:0:0:
212,272,115355,2,0,P|208:202|159:152,1,143.999995605469
92,120,115842,1,0,0:0:0:0:
44,176,116004,1,0,0:0:0:0:
60,248,116166,2,0,L|120:296,1,71.9999978027344
172,336,116491,1,0,0:0:0:0:
244,340,116653,2,0,P|276:356|316:340,3,71.9999978027344
368,304,117301,6,0,P|388:264|384:232,1,71.9999978027344
364,168,117626,2,0,P|316:172|304:192,1,71.9999978027344
248,232,117950,2,0,B|204:232|204:232|192:264|192:264|136:304,1,143.999995605469
100,244,118436,1,0,0:0:0:0:
76,176,118599,2,0,L|108:100,1,71.9999978027344
176,100,118923,1,0,0:0:0:0:
240,68,119085,1,0,0:0:0:0:
288,120,119247,2,0,P|324:140|356:132,3,71.9999978027344
420,160,119896,5,0,0:0:0:0:
460,220,120058,1,0,0:0:0:0:
400,260,120220,2,0,L|328:276,1,71.9999978027344
260,256,120545,2,0,P|176:256|120:296,1,143.999995605469
148,356,121031,5,0,0:0:0:0:
216,332,121193,1,0,0:0:0:0:
288,316,121355,2,0,P|336:316|388:332,1,71.9999978027344
432,316,121680,1,0,0:0:0:0:
456,248,121842,1,0,0:0:0:0:
416,188,122004,2,0,P|376:168|344:172,2,71.9999978027344
380,252,122491,6,0,L|312:288,3,71.9999978027344
248,264,123139,1,0,0:0:0:0:
180,288,123301,1,0,0:0:0:0:
140,228,123464,2,0,P|152:192|208:160,1,71.9999978027344
256,96,123788,5,0,0:0:0:0:
356,136,123950,1,0,0:0:0:0:
412,228,124112,2,0,P|384:273|335:294,1,107.999996704102
244,236,124436,2,0,P|141:237|81:152,1,215.999993408203
236,68,125085,6,0,P|316:100|352:160,1,143.999995605469
320,212,125572,1,0,0:0:0:0:
248,220,125734,2,0,P|200:268|232:344,1,143.999995605469
288,320,126220,1,0,0:0:0:0:
348,280,126382,1,0,0:0:0:0:
400,228,126545,2,0,P|428:184|456:188,1,71.9999978027344
432,112,126869,2,0,B|388:96|388:96|360:96,4,71.9999978027344
452,180,127680,6,0,B|464:240|464:240|444:284|384:288,1,143.999995605469
352,232,128166,1,0,0:0:0:0:
324,168,128328,2,0,B|266:157|266:157|222:177|219:221,1,143.999995605469
240,288,128815,1,0,0:0:0:0:
168,296,128977,2,0,L|92:320,3,71.9999978027344
84,248,129626,2,0,L|88:168,3,71.9999978027344
128,116,130274,5,0,0:0:0:0:
184,68,130436,1,0,0:0:0:0:
252,96,130599,2,0,P|312:112|352:116,1,71.9999978027344
384,152,130923,2,0,B|416:200|436:244|436:244|408:296,1,143.999995605469
348,288,131409,2,0,L|252:280,1,71.9999978027344
208,256,131734,1,0,0:0:0:0:
168,196,131896,1,0,0:0:0:0:
244,76,132220,2,0,P|332:112|348:172,1,143.999995605469
456,244,132869,6,0,L|416:304,3,71.9999978027344
344,292,133518,2,0,L|292:224,3,71.9999978027344
232,208,134166,1,0,0:0:0:0:
168,180,134328,2,0,P|136:196|120:236,1,71.9999978027344
164,284,134653,2,0,P|208:276|252:296,1,71.9999978027344
376,296,135139,2,0,L|380:200,1,71.9999978027344
256,192,135464,12,0,136437,0:0:0:0:
200,192,140653,6,0,P|248:144|248:76,1,120
364,140,141301,2,0,B|328:168|352:216|352:216|328:248,1,120
212,260,141950,1,0,0:0:0:0:
112,192,142274,2,0,P|124:160|128:128,1,60
168,88,142599,2,0,P|216:76|236:68,1,60
284,76,142923,2,0,L|340:120,1,60
376,152,143247,5,0,0:0:0:0:
404,204,143410,1,0,0:0:0:0:
396,264,143572,1,0,0:0:0:0:
344,296,143734,2,0,L|260:304,1,60
232,272,144058,2,0,P|220:232|216:208,1,60
176,168,144383,1,0,0:0:0:0:
128,128,144545,1,0,0:0:0:0:
180,100,144707,2,0,L|256:84,1,60
300,96,145031,2,0,L|344:136,4,60
240,92,145842,6,0,P|184:72|152:136,2,120
284,204,146815,1,0,0:0:0:0:
240,248,146977,1,0,0:0:0:0:
292,280,147139,2,0,P|336:280|348:264,1,60
396,236,147464,2,0,L|408:168,1,60
372,128,147788,2,0,L|316:72,1,60
268,92,148112,2,0,P|240:128|208:120,1,60
172,108,148437,1,0,0:0:0:0:
112,120,148599,6,0,P|68:104|60:72,3,60
104,52,149247,1,0,0:0:0:0:
164,48,149410,1,0,0:0:0:0:
224,48,149572,2,0,P|272:60|296:52,1,60
340,68,149896,1,0,0:0:0:0:
388,104,150058,1,0,0:0:0:0:
404,164,150220,2,0,L|384:220,1,60
344,268,150545,2,0,L|288:312,2,60
336,208,151031,5,0,0:0:0:0:
196,104,152166,1,0,0:0:0:0:
80,164,153626,2,0,P|92:192|192:204,2,120
116,116,154437,1,0,0:0:0:0:
236,100,154761,1,0,0:0:0:0:
296,96,154923,1,0,0:0:0:0:
344,128,155085,1,0,0:0:0:0:
372,244,155410,6,0,B|312:272|292:208|292:208|216:200,1,180
164,228,156058,6,0,P|116:180|128:60,1,180
236,56,156869,1,0,0:0:0:0:
356,68,157193,1,0,0:0:0:0:
360,128,157355,6,0,B|364:180|364:180|300:200|300:200|272:256,1,180
160,296,158166,1,0,0:0:0:0:
40,280,158491,1,0,0:0:0:0:
72,228,158653,6,0,B|108:208|124:148|124:148|168:148|200:104,1,180
272,20,159464,1,0,0:0:0:0:
360,100,159788,1,0,0:0:0:0:
340,156,159950,6,0,P|300:216|384:244,1,180
476,176,160761,1,0,0:0:0:0:
412,72,161085,1,0,0:0:0:0:
352,84,161247,6,0,P|304:88|216:64,1,120
176,60,161734,2,0,L|144:192,1,120
92,284,162383,1,0,0:0:0:0:
152,288,162545,6,0,P|212:264|236:208,1,120
280,176,163031,2,0,P|336:148|392:164,1,120
376,280,163680,1,0,0:0:0:0:
320,300,163842,6,0,P|256:276|212:304,1,120
156,284,164328,1,0,0:0:0:0:
112,244,164491,1,0,0:0:0:0:
116,184,164653,2,0,L|176:144,1,60
224,156,164977,1,0,0:0:0:0:
256,192,165139,12,0,167572,0:0:0:0:
104,192,167896,6,0,B|148:140|148:140|204:132,1,120
256,40,168383,6,0,B|308:84|308:84|316:140,1,120
408,192,168869,6,0,B|364:244|364:244|308:252,1,120
256,344,169355,6,0,B|204:300|204:300|196:244,1,120
256,192,169842,6,0,B|268:220|288:240|308:236|316:208|364:180|280:144|280:144|288:116|364:116,1,240
404,264,170491,6,8,L|372:204,1,60,12|8,0:0|0:0,0:0:0:0:
336,164,171139,2,8,L|276:132,1,60
228,112,171788,1,12,0:0:0:0:
172,128,172112,1,10,1:0:0:0:
120,156,172437,2,8,L|128:220,1,60,10|10,1:0|1:0,0:0:0:0:
232,304,173085,6,8,P|280:272|292:272,1,60,14|8,0:0|0:0,0:0:0:0:
340,272,173734,2,8,P|376:248|384:224,1,60
376,172,174383,1,12,0:0:0:0:
348,120,174707,1,10,1:0:0:0:
292,96,175031,2,8,L|232:88,1,60,10|10,1:0|1:0,0:0:0:0:
56,300,175680,6,8,P|96:260|100:248,1,60,14|8,0:0|0:0,0:0:0:0:
144,220,176328,2,8,L|100:164,1,60
100,112,176977,1,12,0:0:0:0:
140,68,177301,1,10,1:0:0:0:
200,80,177626,2,8,L|264:88,1,60,10|10,1:0|1:0,0:0:0:0:
316,108,178274,6,0,L|376:132,3,60,6|0|0|0,0:0|0:0|0:0|0:0,0:0:0:0:
368,192,178923,2,0,L|300:224,4,60
352,72,179734,6,0,L|244:132,1,120
160,212,180058,2,0,P|116:176|132:120,1,120
272,316,180545,1,0,0:0:0:0:
373,202,180869,6,0,B|317:186|289:130|289:130|241:130,1,155.999992858887
188,148,181355,1,0,0:0:0:0:
152,200,181518,1,0,0:0:0:0:
176,256,181680,1,0,0:0:0:0:
236,276,181842,2,0,P|272:248|288:204,1,77.9999964294435
328,172,182166,2,0,P|376:164|416:176,1,77.9999964294435
440,224,182491,2,0,P|432:280|396:300,1,77.9999964294435
356,300,182815,1,0,0:0:0:0:
308,264,182977,1,0,0:0:0:0:
248,248,183139,1,0,0:0:0:0:
212,300,183301,1,0,0:0:0:0:
160,264,183464,6,0,P|144:232|140:188,3,77.9999964294435
172,136,184112,1,0,0:0:0:0:
232,120,184274,1,0,0:0:0:0:
284,156,184437,1,0,0:0:0:0:
276,216,184599,2,0,B|296:268|296:268|280:308|192:308,1,155.999992858887
156,272,185085,1,0,0:0:0:0:
104,240,185247,2,0,B|84:188|84:188|100:148|188:148,1,155.999992858887
224,180,185734,2,0,L|320:232,1,77.9999964294435
348,244,186058,5,0,0:0:0:0:
396,204,186220,1,0,0:0:0:0:
412,144,186383,1,0,0:0:0:0:
364,104,186545,2,0,L|276:60,1,77.9999964294435
184,128,187031,2,0,L|152:216,1,77.9999964294435
184,260,187355,1,0,0:0:0:0:
244,284,187518,2,0,L|328:256,1,77.9999964294435
392,160,188004,2,0,P|320:128|308:48,1,155.999992858887
180,72,188653,6,0,P|176:120|160:152,3,77.9999964294435
104,124,189301,2,0,P|64:168|40:168,3,77.9999964294435
100,252,189950,1,0,0:0:0:0:
164,324,190112,1,0,0:0:0:0:
236,264,190274,2,0,P|284:224|300:164,2,120
164,200,190761,2,0,L|136:136,4,60
228,204,191247,6,0,B|280:164|244:108|244:108|244:56,1,155.999992858887
120,76,191896,2,0,P|140:160|116:228,1,155.999992858887
220,296,192545,2,0,B|280:272|336:288|336:288|356:244,1,155.999992858887
296,144,193193,2,0,P|248:164|216:152,1,77.9999964294435
176,116,193518,2,0,P|120:108|96:128,1,77.9999964294435
92,180,193842,6,0,P|132:272|180:288,1,155.999992858887
304,292,194491,2,0,P|371:257|390:184,1,155.999992858887
352,136,194977,1,0,0:0:0:0:
336,76,195139,1,0,0:0:0:0:
280,52,195301,2,0,P|244:36|208:64,6,77.9999964294435
328,92,196437,6,0,B|328:152|328:152|356:180|328:228|280:208,1,155.999992858887
224,112,197085,2,0,B|132:140|44:56|44:56|36:128|68:168,1,311.999985717774
84,288,198058,1,0,0:0:0:0:
192,228,198383,2,0,B|284:200|372:284|372:284|376:244|376:244,1,233.999989288331
372,188,199031,6,0,L|356:112,1,77.9999964294435
292,104,199355,2,0,P|252:72|224:72,1,77.9999964294435
172,100,199680,2,0,P|128:148|120:168,1,77.9999964294435
132,220,200004,2,0,B|160:288|160:288|184:292,1,77.9999964294435
224,308,200328,1,0,0:0:0:0:
288,304,200491,6,0,P|320:280|336:240,3,77.9999964294435
332,120,201301,2,0,P|304:156|260:180,1,77.9999964294435
256,192,201626,12,0,202923,0:0:0:0:
252,96,203572,5,0,0:0:0:0:
252,96,204220,1,0,0:0:0:0:
144,136,205518,1,0,0:0:0:0:
184,224,206815,5,0,0:0:0:0:
260,232,207139,1,0,0:0:0:0:
336,220,207464,1,0,0:0:0:0:
364,148,207788,2,0,L|276:96,1,96
256,24,209410,5,0,0:0:0:0:
384,72,210058,2,0,P|421:99|432:152,1,96
256,140,210707,2,0,B|220:80|164:116|132:144|156:208|200:244|256:280|256:280|316:244|356:208|376:144|352:116|292:80|256:140,1,575.999982421876
124,276,212328,6,0,P|168:312|188:308,2,72
48,116,213139,2,0,P|100:76|156:120,1,144
256,192,213950,12,0,217271,0:0:0:0:
208,244,218054,6,0,L|264:168,1,83.9999974365235
256,192,218921,12,0,222330,0:0:0:0:
