osu file format v14

[General]
AudioFilename: 01. Smile Spiral.mp3
AudioLeadIn: 0
PreviewTime: 53894
Countdown: 0
SampleSet: None
StackLeniency: 0.4
Mode: 0
LetterboxInBreaks: 1
WidescreenStoryboard: 0

[Editor]
Bookmarks: 54940,126103,190289
DistanceSpacing: 1
BeatDivisor: 4
GridSize: 4
TimelineZoom: 2

[Metadata]
Title:Smile Spiral
TitleUnicode:スマイル・スパイラル
Artist:Neptune (CV: Rie Tanaka) x Nepgear (CV: Horie Yui)
ArtistUnicode:ネプテューヌ (CV:田中理恵)xネプギア (CV:堀江由衣)
Creator:Aikyuu-Chan
Version:Normal
Source:超次元ゲイム ネプテューヌ
Tags:超次元ゲイム ネプテューヌ デュエットシスターズソング Vol.1 Choujigen Geimu Neptune Hyperdimension Game Neptunia Duet Sister Song Vol.1 Neptune Nepgear Idol Cosplay RPG Visual Novel xLolicore-
BeatmapID:1421331
BeatmapSetID:672361

[Difficulty]
HPDrainRate:4
CircleSize:3
OverallDifficulty:4
ApproachRate:5
SliderMultiplier:1.2
SliderTickRate:1

[Events]
//Background and Video events
0,0,"Neptune-Nepgear.jpg",0,0
//Break Periods
2,88429,98171
2,159839,163753
//Storyboard Layer 0 (Background)
//Storyboard Layer 1 (Fail)
//Storyboard Layer 2 (Pass)
//Storyboard Layer 3 (Foreground)
//Storyboard Sound Samples

[TimingPoints]
3360,348.837209302326,4,2,0,80,1,0
3360,-100,4,2,1,80,0,0
17313,-100,4,2,0,80,0,1
17400,-100,4,2,2,80,0,0
39639,-100,4,2,0,80,0,1
39726,-100,4,2,0,80,0,0
53944,-100,4,1,1,25,0,0
54987,-100,4,2,1,80,0,1
64755,-100,4,3,1,50,0,0
66150,-100,4,2,2,80,0,1
71732,-100,4,2,2,80,0,0
81502,-100,4,2,0,80,0,0
88478,-100,4,2,1,80,0,0
99639,-100,4,2,1,80,0,1
99726,-100,4,2,1,80,0,0
110801,-100,4,2,1,80,0,1
110889,-100,4,2,1,80,0,0
124755,-100,4,1,1,25,0,0
126150,-100,4,2,2,80,0,1
135918,-100,4,3,1,50,0,0
137313,-100,4,2,1,80,0,1
142894,-100,4,2,2,80,0,0
152662,-100,4,2,0,80,0,0
154057,-142.857142857143,4,2,0,80,0,0
165220,-100,4,2,0,80,0,1
165307,-100,4,2,0,80,0,0
179173,-100,4,2,0,70,0,1
179261,-100,4,2,0,70,0,0
190336,-100,4,2,1,80,0,1
195918,-100,4,2,1,80,0,0
207080,-142.857142857143,4,2,0,80,0,0
212662,-100,4,2,3,80,0,0
240569,-50,4,2,6,80,0,1
243360,-58.8235294117647,4,2,5,90,0,1
246150,-66.6666666666667,4,2,4,80,0,1
248941,-76.9230769230769,4,2,3,70,0,1
251732,-100,4,2,2,60,0,0
254522,697.674418604651,4,2,0,5,1,0
254522,-200,4,2,0,5,0,0

[Colours]
Combo1 : 255,255,255
Combo2 : 128,0,128
Combo3 : 255,128,255
Combo4 : 255,128,192
Combo5 : 217,66,205

[HitObjects]
460,64,3360,6,0,L|342:87,1,120,4|2,0:0|0:0,0:0:0:0:
332,172,4057,1,8,0:0:0:0:
308,252,4406,1,4,0:0:0:0:
224,268,4755,2,0,P|164:256|120:216,1,120,8|2,0:0|0:0,0:0:0:0:
120,132,5452,2,0,P|164:92|222:81,1,120,8|4,0:0|0:0,0:0:0:0:
288,136,6150,6,0,B|376:216|372:240|372:240|344:296|392:340,1,240,8|0,0:0|0:0,0:0:0:0:
304,356,7196,1,4,0:0:0:0:
220,336,7545,2,0,B|262:296|234:240|234:240|230:216|318:136,1,240,8|0,0:0|0:0,0:0:0:0:
400,120,8592,1,2,0:0:0:0:
256,192,8941,12,12,11208,0:0:0:0:
256,192,11731,12,12,14348,0:0:0:0:
84,172,15220,6,0,P|164:248|236:168,1,240,8|4,0:0|0:0,0:0:0:0:
308,108,16266,2,0,P|388:32|460:112,1,240,4|4,0:0|0:0,0:0:0:0:
372,152,17313,5,4,0:0:0:0:
456,200,17662,2,0,L|364:300,3,120,2|0|2|0,0:0|0:0|0:0|0:0,0:0:0:0:
296,300,19057,1,2,0:0:0:0:
208,336,19406,1,0,0:0:0:0:
136,272,19755,2,0,P|189:167|167:51,2,240,2|2|2,0:0|0:0|0:0,0:0:0:0:
52,224,21499,1,0,0:0:0:0:
80,126,21848,2,0,P|140:94|172:34,3,120,2|0|2|0,0:0|0:0|0:0|0:0,0:0:0:0:
264,44,23243,1,2,0:0:0:0:
404,76,23766,6,0,P|416:144|380:192,1,120,0|2,0:0|0:0,0:0:0:0:
332,124,24464,2,0,P|280:152|268:232,1,120,0|2,0:0|0:0,0:0:0:0:
336,244,25162,2,0,P|391:309|436:304,1,120,0|2,0:0|0:0,0:0:0:0:
468,196,25860,2,2,L|472:128,1,60
472,88,26208,1,8,0:0:0:0:
344,80,26557,1,8,0:0:0:0:
344,80,26732,2,0,L|216:56,3,120,8|2|0|2,0:0|0:0|0:0|0:0,0:0:0:0:
116,148,28127,1,8,0:0:0:0:
88,32,28476,6,0,P|108:132|196:244,1,240,4|4,0:0|0:0,0:0:0:0:
256,168,29522,1,8,0:0:0:0:
316,244,29871,2,0,P|391:151|418:36,1,240,4|4,0:0|0:0,0:0:0:0:
328,72,30918,5,8,0:0:0:0:
288,160,31266,2,0,B|224:200|220:240|220:240|156:192|92:196,1,240,4|6,0:0|0:0,0:0:0:0:
72,288,32313,2,0,L|188:320,1,120,2|6,0:0|0:0,0:0:0:0:
284,320,33011,2,0,L|408:256,1,120,2|6,0:0|0:0,0:0:0:0:
456,192,33708,1,2,0:0:0:0:
444,96,34057,2,0,P|396:44|344:32,1,120,6|12,1:0|1:0,0:0:0:0:
272,88,34929,6,0,P|160:176|56:192,1,240,2|8,0:0|0:0,0:0:0:0:
88,236,35975,2,0,P|208:284|264:272,1,180,4|8,0:0|0:0,0:0:0:0:
348,256,36848,2,0,B|408:164|408:164|384:104|464:56,2,240,4|2|4,0:0|0:0|0:0,0:0:0:0:
276,316,38592,1,2,0:0:0:0:
276,316,38941,1,2,0:0:0:0:
276,316,39289,1,2,0:0:0:0:
180,304,39638,6,0,L|80:212,1,120,4|0,0:0|0:0,0:0:0:0:
184,188,40336,2,0,L|84:96,1,120,8|2,0:0|0:0,0:0:0:0:
172,48,41034,2,0,P|232:72|296:48,1,120,4|0,0:0|0:0,0:0:0:0:
280,152,41731,6,0,P|340:176|404:152,1,120,8|2,0:0|0:0,0:0:0:0:
436,76,42429,1,4,0:0:0:0:
440,268,43127,1,2,0:0:0:0:
397,346,43824,2,0,P|286:315|260:204,1,240,4|8,0:0|0:0,0:0:0:0:
200,128,44871,1,8,0:0:0:0:
264,60,45220,6,0,P|374:91|401:202,1,240,4|0,0:0|0:0,0:0:0:0:
316,156,46266,2,0,L|216:264,3,120,2|4|0|8,0:0|0:0|0:0|0:0,0:0:0:0:
234,244,47662,1,2,0:0:0:0:
124,200,48010,6,0,P|155:310|266:337,1,240,4|0,0:0|0:0,0:0:0:0:
234,244,49057,2,0,L|316:156,3,120,2|4|0|8,0:0|0:0|0:0|0:0,0:0:0:0:
316,156,50452,1,2,0:0:0:0:
256,192,50801,12,6,53592,0:0:0:0:
180,112,54115,6,0,L|112:140,4,60,2|0|2|0|2,0:0|0:0|0:0|0:0|0:0,0:0:0:0:
276,72,54987,5,2,0:0:0:0:
344,140,55336,2,0,P|332:204|268:240,1,120,4|8,0:0|0:0,0:0:0:0:
236,156,56034,2,0,P|179:137|136:96,1,120,4|2,0:0|0:0,0:0:0:0:
224,60,56732,1,4,0:0:0:0:
320,48,57080,1,8,0:0:0:0:
360,136,57429,1,4,0:0:0:0:
360,136,57778,6,0,P|372:224|308:368,1,240,2|8,0:0|0:0,0:0:0:0:
256,284,58825,1,4,0:0:0:0:
196,360,59173,2,0,P|143:253|151:135,1,240,2|4,0:0|0:0,0:0:0:0:
256,100,60220,1,8,0:0:0:0:
256,196,60569,6,0,B|264:280|264:280|352:288|424:232,1,240,2|4,0:0|0:0,0:0:0:0:
416,144,61615,1,8,0:0:0:0:
320,144,61964,2,0,B|312:60|312:60|224:52|164:98,1,240,2|4,0:0|0:0,0:0:0:0:
100,168,63010,1,8,0:0:0:0:
152,248,63359,6,0,L|280:268,1,120,2|4,0:0|0:0,0:0:0:0:
336,336,64057,2,0,P|384:288|412:224,1,120,8|4,0:0|0:0,0:0:0:0:
356,160,64755,1,2,0:0:0:0:
356,160,65103,1,2,0:0:0:0:
356,160,65452,1,2,0:0:0:0:
356,160,65801,1,2,0:0:0:0:
300,80,66150,6,0,B|216:92|216:92|128:140|60:56,1,240,4|2,0:0|0:0,0:0:0:0:
44,164,67196,1,8,0:0:0:0:
76,252,67545,2,0,B|157:263|157:263|245:311|298:243,1,240,4|2,0:0|0:0,0:0:0:0:
288,148,68592,1,8,0:0:0:0:
312,56,68941,6,0,B|412:152|496:132|504:56|472:8|400:0|368:48|372:124|400:192|436:208|428:236|368:292,1,480,4|4,0:0|0:0,0:0:0:0:
284,280,70685,2,0,L|160:268,1,120,2|8,0:0|0:0,0:0:0:0:
68,272,71382,1,2,0:0:0:0:
12,176,71731,6,0,B|108:80|212:176|212:176|196:36|196:36|312:36|312:36|300:176|300:176|408:84|500:176,1,840,4|10,0:0|0:0,0:0:0:0:
496,208,74522,6,0,B|400:304|296:208|296:208|312:348|312:348|196:348|196:348|208:208|208:208|100:300|8:208,1,840,4|10,0:0|0:0,0:0:0:0:
4,156,77313,6,0,P|76:180|216:96,1,240,4|2,0:0|0:0,0:0:0:0:
256,20,78359,1,8,0:0:0:0:
296,108,78708,2,0,P|389:179|503:159,1,240,4|2,0:0|0:0,0:0:0:0:
428,96,79755,1,8,0:0:0:0:
388,184,80103,2,0,B|304:216|252:168|252:168|188:120|104:204|60:252,1,360,4|8,0:0|0:0,0:0:0:0:
132,316,81499,5,6,0:0:0:0:
132,316,81848,1,6,0:0:0:0:
256,192,82196,12,14,85684,0:0:0:0:
424,352,99638,6,0,P|404:252|316:140,1,240,4|4,0:0|0:0,0:0:0:0:
256,216,100685,1,8,0:0:0:0:
196,140,101034,2,0,P|121:233|94:348,1,240,4|4,0:0|0:0,0:0:0:0:
184,312,102080,1,8,0:0:0:0:
224,224,102429,6,0,B|288:184|292:144|292:144|356:192|420:188,1,240,4|4,0:0|0:0,0:0:0:0:
440,96,103476,2,0,L|324:64,1,120,0|4,0:0|0:0,0:0:0:0:
228,64,104173,2,0,L|104:128,1,120,0|4,0:0|0:0,0:0:0:0:
56,192,104871,1,0,0:0:0:0:
68,288,105220,2,0,P|116:340|168:352,1,120,4|0,0:0|0:0,0:0:0:0:
264,204,106092,6,0,P|376:116|480:100,1,240,2|8,0:0|0:0,0:0:0:0:
352,128,107138,2,0,P|232:80|176:92,1,180,4|8,0:0|0:0,0:0:0:0:
260,184,108011,2,0,B|200:276|200:276|224:336|144:384,2,240,4|2|4,0:0|0:0|0:0,0:0:0:0:
212,72,109755,1,2,0:0:0:0:
212,72,110104,1,2,0:0:0:0:
212,72,110452,1,2,0:0:0:0:
332,80,110801,6,0,L|432:172,1,120,4|0,0:0|0:0,0:0:0:0:
328,196,111499,2,0,L|428:288,1,120,8|2,0:0|0:0,0:0:0:0:
340,336,112197,2,0,P|280:312|216:336,1,120,4|0,0:0|0:0,0:0:0:0:
232,232,112894,6,0,P|172:208|108:232,1,120,8|2,0:0|0:0,0:0:0:0:
76,308,113592,1,4,0:0:0:0:
72,116,114290,1,2,0:0:0:0:
304,56,114987,2,0,P|415:87|441:198,1,240,4|8,0:0|0:0,0:0:0:0:
324,228,116034,1,8,0:0:0:0:
244,320,116383,6,0,P|134:289|107:178,1,240,4|0,0:0|0:0,0:0:0:0:
196,228,117429,2,0,L|296:120,3,120,2|4|0|8,0:0|0:0|0:0|0:0,0:0:0:0:
278,140,118825,1,2,0:0:0:0:
388,184,119173,6,0,P|357:74|246:47,1,240,4|0,0:0|0:0,0:0:0:0:
278,140,120220,2,0,L|196:228,3,120,2|4|0|8,0:0|0:0|0:0|0:0,0:0:0:0:
196,228,121615,1,2,0:0:0:0:
256,192,121964,12,6,124755,0:0:0:0:
256,216,125278,6,0,L|256:156,4,60,2|0|2|0|2,0:0|0:0|0:0|0:0|0:0,0:0:0:0:
236,312,126150,5,2,0:0:0:0:
168,244,126499,2,0,P|180:180|220:144,1,120,4|8,0:0|0:0,0:0:0:0:
276,228,127197,2,0,P|333:247|376:288,1,120,4|2,0:0|0:0,0:0:0:0:
288,324,127894,1,4,0:0:0:0:
192,336,128243,1,8,0:0:0:0:
152,248,128592,1,4,0:0:0:0:
152,248,128941,6,0,P|140:160|204:16,1,240,2|8,0:0|0:0,0:0:0:0:
256,100,129987,1,4,0:0:0:0:
316,24,130336,2,0,P|369:131|361:249,1,240,2|4,0:0|0:0,0:0:0:0:
256,284,131383,1,8,0:0:0:0:
256,188,131732,6,0,B|264:104|264:104|352:96|424:152,1,240,2|4,0:0|0:0,0:0:0:0:
416,240,132778,1,8,0:0:0:0:
320,240,133127,2,0,B|312:324|312:324|224:332|164:286,1,240,2|4,0:0|0:0,0:0:0:0:
100,216,134173,1,8,0:0:0:0:
241,117,134522,6,0,L|360:136,1,120,2|4,0:0|0:0,0:0:0:0:
400,272,135220,2,0,P|352:320|288:348,1,120,8|4,0:0|0:0,0:0:0:0:
156,224,135918,1,2,0:0:0:0:
156,224,136266,1,2,0:0:0:0:
156,224,136615,1,2,0:0:0:0:
156,224,136964,1,2,0:0:0:0:
212,304,137313,6,0,B|296:292|296:292|384:244|452:328,1,240,4|2,0:0|0:0,0:0:0:0:
468,220,138360,1,8,0:0:0:0:
436,132,138708,2,0,B|355:121|355:121|267:73|214:141,1,240,4|2,0:0|0:0,0:0:0:0:
224,236,139755,1,8,0:0:0:0:
200,328,140104,6,0,B|100:232|16:252|8:328|40:376|112:384|144:336|140:260|112:192|76:176|84:148|144:92,1,480,4|4,0:0|0:0,0:0:0:0:
228,104,141848,2,0,L|352:116,1,120,2|8,0:0|0:0,0:0:0:0:
444,112,142546,1,2,0:0:0:0:
256,192,142893,12,6,145161,0:0:0:0:
256,192,145684,12,10,147952,0:0:0:0:
256,152,148476,22,0,B|224:92|192:72|148:72|112:92|100:128|108:172|128:208|152:240|176:260|200:276|224:296|256:320|256:320|284:300|316:276|344:264|368:236|392:208|400:172|412:128|396:92|356:72|316:72|284:92|256:152,1,840,4|8,0:0|0:0,0:0:0:0:
184,192,151266,2,0,P|256:324|316:192,1,360,4|2,0:0|0:0,0:0:0:0:
416,216,152662,5,2,0:0:0:0:
416,216,153011,1,2,0:0:0:0:
344,152,153360,6,0,L|276:136,3,60,4|0|4|0,0:0|0:0|0:0|0:0,0:0:0:0:
256,192,154057,12,14,159639,0:0:0:0:
256,160,165220,6,0,L|316:116,3,60,2|8|8|8,0:0|0:0|0:0|0:0,0:0:0:0:
384,224,166092,2,0,L|420:276,2,60,6|0|4,0:0|0:0|0:0,0:0:0:0:
200,304,166790,1,2,0:0:0:0:
112,264,167139,1,2,0:0:0:0:
96,168,167487,1,2,0:0:0:0:
240,80,167836,6,0,L|296:32,4,60,4|2|0|4|4,0:0|0:0|0:0|0:0|0:0,0:0:0:0:
324,124,168883,2,0,L|396:140,2,60,8|8|8,0:0|0:0|0:0,0:0:0:0:
304,168,169406,1,2,0:0:0:0:
292,264,169929,6,0,P|360:264|408:232,1,120,4|8,0:0|0:0,0:0:0:0:
428,196,170453,1,8,0:0:0:0:
448,152,170627,2,0,P|400:80|464:20,1,180,4|4,0:0|0:0,0:0:0:0:
460,68,171325,2,0,P|400:112|332:112,1,120,8|8,0:0|0:0,0:0:0:0:
312,104,171848,1,4,0:0:0:0:
264,100,172022,2,0,P|188:120|216:216,1,180,8|2,0:0|0:0,0:0:0:0:
244,224,172720,1,4,0:0:0:0:
284,248,172894,6,0,L|328:320,3,60,4|0|2|0,0:0|0:0|0:0|0:0,0:0:0:0:
332,256,173592,2,0,L|380:292,3,60,2|0|4|0,0:0|0:0|0:0|0:0,0:0:0:0:
380,244,174290,2,0,L|448:252,3,60,4|0|2|0,0:0|0:0|0:0|0:0,0:0:0:0:
428,204,174987,2,0,B|376:20|200:360|136:152,1,360,2|2,0:0|0:0,0:0:0:0:
172,76,176383,1,2,0:0:0:0:
172,76,176732,1,12,0:0:0:0:
268,76,177080,6,0,L|304:16,3,60,2|2|2|2,0:0|0:0|0:0|0:0,0:0:0:0:
256,192,177778,12,10,179173,0:0:0:0:
112,160,180569,5,2,0:0:0:0:
112,160,181266,1,4,0:0:0:0:
112,160,181964,1,8,0:0:0:0:
376,160,182662,5,2,0:0:0:0:
376,160,183360,1,4,0:0:0:0:
376,160,184057,1,8,0:0:0:0:
256,328,184755,5,2,0:0:0:0:
256,64,186150,5,10,0:0:0:0:
256,192,187546,5,6,0:0:0:0:
344,256,188418,6,0,L|392:312,2,60,2|2|2,0:0|0:0|0:0,0:0:0:0:
384,200,189115,2,8,L|456:228,2,60
360,108,189813,6,0,P|264:148|168:140,1,180,4|2,0:0|0:0,0:0:0:0:
144,164,190511,5,0,0:0:0:0:
132,212,190685,2,0,P|180:280|224:296,1,120,8|2,0:0|0:0,0:0:0:0:
260,292,191208,1,0,0:0:0:0:
308,284,191383,2,0,P|360:240|368:168,1,120,8|2,0:0|0:0,0:0:0:0:
384,144,191906,1,0,0:0:0:0:
392,96,192080,2,0,P|424:64|508:48,1,120,8|2,0:0|0:0,0:0:0:0:
496,96,192604,1,0,0:0:0:0:
492,144,192778,1,8,0:0:0:0:
468,184,192953,2,0,B|436:352|348:128|84:304,1,420,0|4,0:0|0:0,0:0:0:0:
68,204,194522,6,0,L|96:72,1,120,2|8,0:0|0:0,0:0:0:0:
172,144,195220,2,0,L|216:32,1,120,2|8,0:0|0:0,0:0:0:0:
304,68,195918,6,0,L|388:64,3,60,2|8|8|4,0:0|0:0|0:0|0:0,0:0:0:0:
348,160,196790,2,8,L|424:192,2,60
284,232,197487,2,2,L|280:308,1,60
252,328,197836,1,2,0:0:0:0:
116,228,198185,1,4,0:0:0:0:
264,96,198708,6,0,L|268:12,3,60,2|8|8|4,0:0|0:0|0:0|0:0,0:0:0:0:
180,56,199580,2,8,L|124:79,2,60
312,116,200278,2,2,L|316:184,1,60
312,228,200626,1,2,0:0:0:0:
220,332,200975,1,4,0:0:0:0:
292,208,201499,6,0,L|356:192,1,60,2|0,0:0|0:0,0:0:0:0:
372,148,201848,2,0,L|416:96,1,60,2|0,0:0|0:0,0:0:0:0:
328,56,202371,2,0,P|248:80|188:80,1,120,4|4,0:0|0:0,0:0:0:0:
124,120,203069,2,4,L|160:248,1,120
252,252,203765,1,8,0:0:0:0:
308,332,204115,6,0,B|392:304|464:240|464:240|356:120|468:88|468:88|304:48,1,540,2|10,0:0|0:0,0:0:0:0:
160,72,206034,1,6,0:0:0:0:
180,220,206383,6,0,L|196:296,2,60,8|4|8,0:0|0:0|0:0,0:0:0:0:
220,196,206906,1,4,0:0:0:0:
256,192,207080,12,6,212313,0:0:0:0:
304,120,212662,6,0,P|348:212|280:344,2,240,2|8|2,0:0|0:0|0:0,0:0:0:0:
256,204,214406,1,4,0:0:0:0:
256,204,214755,1,8,0:0:0:0:
256,204,215103,1,4,0:0:0:0:
208,320,215453,6,0,P|164:228|232:96,2,240,2|8|2,0:0|0:0|0:0,0:0:0:0:
304,312,217197,2,0,L|400:240,1,120,4|8,0:0|0:0,0:0:0:0:
408,144,217894,1,4,0:0:0:0:
336,80,218243,6,0,B|256:120|196:68|196:68|120:144,1,240,2|8,0:0|0:0,0:0:0:0:
176,304,219639,2,0,B|256:264|316:316|316:316|392:240,1,240,2|8,0:0|0:0,0:0:0:0:
496,100,221034,6,0,P|440:148|396:144,1,120,2|4,0:0|0:0,0:0:0:0:
308,180,221732,2,0,P|244:216|240:272,1,120,8|4,0:0|0:0,0:0:0:0:
136,216,222429,1,2,0:0:0:0:
52,148,222778,1,4,0:0:0:0:
112,76,223127,1,8,0:0:0:0:
192,132,223476,1,4,0:0:0:0:
128,204,223825,6,0,L|176:340,1,120,2|8,0:0|0:0,0:0:0:0:
204,228,224522,2,0,L|280:344,1,120,2|8,0:0|0:0,0:0:0:0:
292,236,225220,2,0,L|384:336,1,120,2|8,0:0|0:0,0:0:0:0:
360,228,225918,2,0,L|488:296,1,120,2|8,0:0|0:0,0:0:0:0:
384,180,226615,6,0,L|336:44,1,120,10|4,0:0|0:0,0:0:0:0:
308,148,227313,2,0,L|232:40,1,120,10|4,0:0|0:0,0:0:0:0:
224,144,228011,2,0,L|140:56,1,120,10|4,0:0|0:0,0:0:0:0:
152,156,228708,2,0,L|24:88,1,120,10|4,0:0|0:0,0:0:0:0:
36,196,229405,6,0,L|-12:260,3,60,2|8|8|4,0:0|0:0|0:0|0:0,0:0:0:0:
104,288,230278,2,8,L|152:328,2,60
152,192,230976,2,2,L|236:172,1,60
248,172,231325,1,2,0:0:0:0:
360,224,231673,1,4,0:0:0:0:
420,76,232197,6,0,L|448:24,3,60,2|8|8|4,0:0|0:0|0:0|0:0,0:0:0:0:
328,72,233069,2,8,L|268:48,2,60
344,180,233766,2,2,P|312:224|284:232,1,60
268,248,234115,1,2,0:0:0:0:
124,192,234464,1,4,0:0:0:0:
370,355,234987,6,0,L|384:296,3,60,2|0|4|0,0:0|0:0|0:0|0:0,0:0:0:0:
424,268,235685,2,0,L|410:209,3,60,2|0|4|0,0:0|0:0|0:0|0:0,0:0:0:0:
388,172,236383,2,12,L|332:148,1,60,2|12,0:0|0:0,0:0:0:0:
292,136,236732,1,8,0:0:0:0:
244,140,236906,1,12,0:0:0:0:
72,188,237255,1,8,0:0:0:0:
140,308,237604,1,8,0:0:0:0:
352,236,238476,6,0,L|284:276,2,60,4|4|4,0:0|0:0|0:0,0:0:0:0:
392,212,238999,2,0,B|436:76|232:92|144:284|80:116,1,420,2|6,0:0|0:0,0:0:0:0:
256,192,240569,12,14,251731,0:0:0:0:
