osu file format v14

[General]
AudioFilename: audio.mp3
AudioLeadIn: 0
PreviewTime: 50295
Countdown: 0
SampleSet: Soft
StackLeniency: 0.5
Mode: 0
LetterboxInBreaks: 0
WidescreenStoryboard: 1

[Editor]
DistanceSpacing: 1.4
BeatDivisor: 4
GridSize: 4
TimelineZoom: 1.899999

[Metadata]
Title:intro
TitleUnicode:intro
Artist:Neople
ArtistUnicode:Neople
Creator:SuperDalouBot
Version:Normal
Source:던전앤파이터
Tags:Dungeon and Fighter Online DNF DFO MMORPG opening comic bgm Nexon Video Game Instrumental kanor Muziyami Kuse KuBsNia_ZhoYL_ SnowMagicK
BeatmapID:2348910
BeatmapSetID:903515

[Difficulty]
HPDrainRate:4
CircleSize:3.2
OverallDifficulty:5
ApproachRate:6
SliderMultiplier:1.5
SliderTickRate:1

[Events]
//Background and Video events
0,0,"background.jpg",0,0
//Break Periods
//Storyboard Layer 0 (Background)
//Storyboard Layer 1 (Fail)
//Storyboard Layer 2 (Pass)
//Storyboard Layer 3 (Foreground)
//Storyboard Layer 4 (Overlay)
//Storyboard Sound Samples

[TimingPoints]
1400,582.52427184466,4,2,1,50,1,0
10720,-111.111111111111,4,2,1,50,0,0
12613,-111.111111111111,4,2,1,30,0,0
13050,-111.111111111111,4,2,1,50,0,0
13924,-111.111111111111,4,2,1,40,0,0
15089,-111.111111111111,4,2,1,30,0,0
15380,-111.111111111111,4,2,1,50,0,0
16545,-111.111111111111,4,2,1,40,0,0
17710,-111.111111111111,4,2,1,60,0,0
19895,-100,4,2,3,40,0,0
20040,-100,4,2,1,75,0,0
29069,-100,4,2,1,65,0,0
29361,-100,4,2,1,75,0,0
33584,-100,4,2,1,85,0,0
33730,-100,4,2,1,65,0,0
34021,-100,4,2,1,75,0,0
38244,-100,4,2,1,85,0,0
38390,-100,4,2,1,65,0,0
38681,-100,4,2,1,75,0,0
40574,-100,4,2,1,85,0,0
41011,-100,4,2,1,75,0,0
42904,-100,4,2,1,85,0,0
43050,-100,4,2,1,65,0,0
43341,-100,4,2,1,75,0,0
45234,-100,4,2,1,85,0,0
45671,-100,4,2,1,75,0,0
47565,-100,4,2,1,90,0,0
48293,-100,4,2,1,40,0,0
50332,-100,4,2,1,70,0,0
52079,-100,4,2,1,75,0,0
52662,-100,4,2,2,70,0,0
54409,-100,4,2,2,75,0,0
54992,-100,4,2,1,70,0,0
56739,-100,4,2,1,75,0,0
57322,-100,4,2,2,70,0,0
59361,-100,4,2,2,75,0,0
59652,-100,4,2,1,75,0,0
61545,-100,4,2,1,80,0,0
61982,-100,4,2,2,75,0,0
63875,-100,4,2,2,80,0,0
64312,-100,4,2,1,75,0,0
66205,-100,4,2,1,80,0,0
66642,-100,4,2,2,75,0,0
67807,-100,4,2,2,70,0,0
68390,-100,4,2,2,75,0,0
68681,-100,4,2,2,80,0,0
68972,-100,4,2,1,85,0,0
78001,-100,4,2,1,75,0,0
78147,-100,4,2,1,65,0,0
78293,-100,4,2,1,85,0,0
87467,-100,4,2,1,75,0,0
87613,-100,4,2,1,90,0,1
91108,-100,4,2,2,90,0,1
91836,-100,4,2,1,70,0,1
92273,-100,4,2,1,90,0,1
95768,-100,4,2,2,90,0,1
96933,-100,4,2,1,95,0,1
97225,-100,4,2,3,95,0,1
97516,-100,4,2,1,95,0,1
98099,-100,4,2,2,95,0,1
98390,-100,4,2,3,95,0,1
98681,-100,4,2,2,95,0,1
99264,-100,4,2,1,95,0,1
99555,-100,4,2,3,95,0,1
99846,-100,4,2,1,95,0,1
100429,-100,4,2,3,95,0,1
100866,-100,4,2,2,95,0,1
101594,-100,4,2,1,95,0,1
101885,-100,4,2,3,95,0,1
102176,-100,4,2,1,95,0,1
102759,-100,4,2,2,95,0,1
103050,-100,4,2,3,95,0,1
103341,-100,4,2,2,95,0,1
103924,-100,4,2,1,95,0,1
104215,-100,4,2,3,95,0,1
104506,-100,4,2,1,95,0,1
105089,-100,4,2,3,95,0,1
105526,-100,4,2,2,95,0,1
105817,-100,4,2,2,85,0,1
106254,-100,4,2,1,75,0,0
106545,-100,4,2,1,30,0,0
108001,-100,4,2,1,25,0,0
108584,-100,4,2,1,23,0,0
109166,-100,4,2,1,21,0,0
109749,-100,4,2,1,19,0,0
110332,-100,4,2,1,17,0,0
110914,-100,4,2,1,15,0,0

[Colours]
Combo1 : 158,62,255
Combo2 : 255,57,63
Combo3 : 57,156,255

[HitObjects]
227,311,10720,5,4,0:3:0:0:
227,311,11302,2,0,L|235:240,1,67.4999979400635,0|0,0:0|0:0,0:0:0:0:
311,188,11885,2,0,L|303:117,1,67.4999979400635,0|0,0:3|0:0,0:0:0:0:
322,28,12467,2,0,L|376:33,2,33.7499989700318,0|0|0,0:0|3:0|3:0,0:0:0:0:
232,59,13050,6,0,B|147:88|147:88|16:67,2,202.499993820191,4|0|0,0:3|3:0|3:0,0:0:0:0:
419,83,15380,5,4,0:3:0:0:
419,83,15963,2,0,L|410:160,1,67.4999979400635,0|0,0:0|0:0,0:0:0:0:
337,208,16545,2,0,L|346:285,1,67.4999979400635,0|0,3:0|0:0,0:0:0:0:
435,306,17128,2,0,L|444:229,1,67.4999979400635,0|0,3:0|0:0,0:0:0:0:
411,150,17710,6,0,L|420:73,2,67.4999979400635,4|2|2,0:3|0:3|0:3,0:0:0:0:
337,208,18584,1,2,0:0:0:0:
337,208,18730,2,0,P|284:221|217:202,1,101.249996910095,2|2,0:3|0:3,0:0:0:0:
172,145,19458,2,0,L|82:152,1,67.4999979400635,2|2,0:0|0:3,0:0:0:0:
54,137,19895,1,2,0:3:0:0:
54,137,20040,6,0,P|34:205|79:306,1,150,4|8,0:0|0:0,0:0:0:0:
133,350,20914,1,0,0:0:0:0:
208,277,21205,2,0,P|259:271|308:280,1,75,2|0,0:0|0:0,0:0:0:0:
377,319,21788,2,0,P|415:321|452:315,1,75,8|0,0:0|0:0,0:0:0:0:
510,228,22370,6,0,L|495:66,1,150,4|8,0:0|0:0,0:0:0:0:
406,24,23244,1,0,0:0:0:0:
330,97,23535,2,0,P|294:102|257:97,1,75,2|0,0:0|0:0,0:0:0:0:
176,27,24118,1,8,0:0:0:0:
106,105,24409,1,0,0:0:0:0:
186,175,24700,6,0,L|198:337,1,150,4|8,0:0|0:0,0:0:0:0:
103,372,25574,1,0,0:0:0:0:
25,301,25865,2,0,L|31:202,1,75,2|0,0:0|0:0,0:0:0:0:
2,124,26448,2,0,P|40:120|101:140,1,75,8|0,0:0|0:0,0:0:0:0:
165,182,27031,6,0,P|208:191|322:135,1,150,4|8,0:0|0:0,0:0:0:0:
358,65,27904,1,0,0:0:0:0:
457,98,28196,1,2,0:0:0:0:
457,98,28341,2,0,L|451:195,1,75,10|2,0:0|0:0,0:0:0:0:
448,225,28778,2,0,L|501:222,2,37.5,8|2|2,0:0|0:0|0:3,0:0:0:0:
370,296,29361,6,0,P|295:275|207:303,1,150,4|8,0:0|0:0,0:0:0:0:
135,343,30234,1,2,0:0:0:0:
55,274,30526,1,2,0:3:0:0:
55,274,30671,2,0,L|47:180,1,75,8|2,0:0|0:0,0:0:0:0:
45,146,31108,2,0,P|81:157|145:147,1,75,8|2,0:0|0:3,0:0:0:0:
222,141,31691,6,0,L|226:301,1,150,4|8,0:0|0:0,0:0:0:0:
302,363,32565,1,2,0:0:0:0:
376,289,32856,1,2,0:3:0:0:
376,289,33001,2,0,L|469:285,1,75,8|2,0:0|0:0,0:0:0:0:
503,283,33438,2,0,P|509:226|498:185,1,75,8|2,0:0|0:3,0:0:0:0:
487,105,34021,6,0,P|412:123|342:108,1,150,4|8,0:0|0:0,0:0:0:0:
251,54,34895,1,2,0:0:0:0:
200,145,35186,1,2,0:3:0:0:
200,145,35332,2,0,L|196:239,1,75,8|2,0:0|0:0,0:0:0:0:
194,272,35768,2,0,B|155:268|155:268|102:279,1,75,8|2,0:0|0:3,0:0:0:0:
16,294,36351,6,0,L|23:201,1,75,4|2,0:0|0:0,0:0:0:0:
32,114,36933,2,0,B|75:123|75:123|122:113,1,75,8|2,0:0|0:0,0:0:0:0:
188,52,37516,1,2,0:0:0:0:
188,52,37662,2,0,L|299:44,1,75,10|2,0:0|0:0,0:0:0:0:
315,44,38099,2,0,L|322:-12,2,37.5,8|2|2,0:0|0:0|0:3,0:0:0:0:
416,71,38681,6,0,L|427:249,1,150,4|8,0:0|0:0,0:0:0:0:
509,283,39555,1,2,0:0:0:0:
434,356,39846,1,2,0:3:0:0:
434,356,39992,2,0,L|333:351,1,75,8|2,0:0|0:0,0:0:0:0:
307,364,40429,2,0,B|261:372|261:372|217:361,1,75,8|2,0:0|0:3,0:0:0:0:
195,267,41011,6,0,L|30:278,1,150,4|8,0:0|0:0,0:0:0:0:
0,182,41885,1,2,0:0:0:0:
66,101,42176,1,2,0:3:0:0:
66,101,42322,2,0,P|127:105|157:97,1,75,8|2,0:0|0:0,0:0:0:0:
191,92,42758,2,0,L|187:190,1,75,8|2,0:0|0:3,0:0:0:0:
285,207,43341,6,0,L|290:49,1,150,4|8,0:0|0:0,0:0:0:0:
383,9,44215,1,2,0:0:0:0:
465,74,44506,1,2,0:3:0:0:
465,74,44652,2,0,P|470:134|460:159,1,75,8|2,0:0|0:0,0:0:0:0:
432,187,45088,2,0,L|436:281,1,75,8|2,0:0|0:3,0:0:0:0:
442,367,45671,6,0,P|400:361|357:330,1,75,4|2,0:0|0:0,0:0:0:0:
307,262,46253,2,0,P|265:265|228:285,1,75,8|2,0:0|0:0,0:0:0:0:
138,320,46836,1,2,0:0:0:0:
138,320,46982,2,0,L|132:232,1,75,10|2,0:0|0:0,0:0:0:0:
98,205,47419,2,0,L|102:155,2,37.5,10|2|2,0:0|0:3|0:3,0:0:0:0:
30,285,48001,5,4,0:0:0:0:
256,192,48293,12,0,49749,0:0:0:0:
253,266,50332,6,0,L|256:192,1,75,4|0,0:0|0:0,0:0:0:0:
156,225,50914,2,0,L|152:345,2,112.5,2|2|2,0:0|3:2|0:0,0:0:0:0:
53,203,52079,1,2,0:3:0:0:
54,98,52370,1,0,3:0:0:0:
156,120,52662,6,0,L|252:114,1,75,4|0,0:0|0:0,0:0:0:0:
324,67,53244,2,0,L|459:60,2,112.5,2|2|2,0:0|3:2|0:0,0:0:0:0:
318,172,54409,1,2,0:3:0:0:
251,258,54700,1,0,3:0:0:0:
145,260,54992,6,0,L|151:178,1,75,4|0,0:0|0:0,0:0:0:0:
63,126,55574,2,0,L|56:7,2,112.5,2|2|2,0:0|3:2|0:0,0:0:0:0:
6,214,56739,2,0,L|15:297,1,75,2|0,0:3|3:0,0:0:0:0:
97,352,57322,5,4,0:0:0:0:
97,352,57467,2,0,L|185:337,1,75,2|0,0:0|0:0,0:0:0:0:
205,299,57904,2,0,P|261:290|339:317,1,112.5,2|2,0:0|0:0,0:0:0:0:
363,324,58487,2,0,L|359:242,1,75,4|2,0:3|0:3,0:0:0:0:
429,170,59069,2,0,L|481:173,2,37.5,2|2|2,0:3|0:3|0:3,0:0:0:0:
373,81,59652,6,0,L|270:86,1,75,4|2,0:0|0:3,0:0:0:0:
193,91,60234,1,8,0:0:0:0:
199,196,60526,1,2,0:0:0:0:
199,196,60671,2,0,L|320:189,1,112.5,2|2,0:0|0:0,0:0:0:0:
304,295,61399,2,0,L|300:385,1,75,10|2,0:0|0:3,0:0:0:0:
405,364,61982,6,0,L|411:270,1,75,4|2,0:0|0:3,0:0:0:0:
417,184,62565,1,8,0:0:0:0:
311,190,62856,1,2,0:0:0:0:
311,190,63001,2,0,L|199:196,1,112.5,2|2,0:0|0:0,0:0:0:0:
206,301,63730,1,10,0:0:0:0:
117,356,64021,1,2,0:3:0:0:
29,298,64312,6,0,L|33:202,1,75,4|2,0:0|0:3,0:0:0:0:
38,117,64895,1,8,0:0:0:0:
122,54,65186,1,2,0:0:0:0:
122,54,65332,2,0,P|182:42|233:60,1,112.5,2|2,0:0|0:0,0:0:0:0:
317,115,66060,2,0,L|410:109,1,75,8|2,0:0|0:3,0:0:0:0:
433,206,66642,5,4,0:0:0:0:
433,206,66788,2,0,L|337:213,1,75,2|0,0:0|0:0,0:0:0:0:
327,254,67225,2,0,P|266:265|208:233,1,112.5,10|2,0:0|0:0,0:0:0:0:
193,201,67807,2,0,P|155:195|107:208,1,75,4|10,0:3|0:0,0:0:0:0:
46,127,68390,2,0,L|-22:135,2,37.5,8|8|8,0:0|0:0|0:0,0:0:0:0:
116,50,68972,6,0,B|169:27|169:27|280:52,1,150,4|10,0:0|0:0,0:0:0:0:
315,136,69846,1,0,0:0:0:0:
388,62,70137,2,0,P|437:51|478:56,1,75,2|2,0:0|0:0,0:0:0:0:
511,145,70720,1,10,0:0:0:0:
492,248,71011,1,2,0:3:0:0:
470,350,71302,6,0,P|396:322|329:336,1,150,4|10,0:0|0:0,0:0:0:0:
229,372,72176,1,2,0:0:0:0:
134,328,72467,2,0,L|138:248,1,75,2|2,0:0|0:0,0:0:0:0:
207,175,73050,1,10,0:0:0:0:
302,218,73341,1,2,0:3:0:0:
375,142,73633,6,0,L|369:47,1,75,4|4,0:0|0:3,0:0:0:0:
278,15,74215,2,0,L|220:27,1,37.5,10|2,0:0|0:3,0:0:0:0:
188,24,74506,1,2,0:3:0:0:
85,47,74798,2,0,B|78:86|78:86|86:140,1,75,4|4,0:0|0:3,0:0:0:0:
98,224,75380,2,0,L|144:221,1,37.5,10|2,0:0|0:3,0:0:0:0:
180,195,75671,2,0,L|242:191,1,37.5,2|2,0:3|0:3,0:0:0:0:
267,175,75963,6,0,L|278:277,1,75,6|2,0:0|0:0,0:0:0:0:
373,286,76545,2,0,L|384:184,1,75,10|2,0:0|0:3,0:0:0:0:
441,125,77128,2,0,L|502:121,2,37.5,6|8|2,0:3|0:0|0:0,0:0:0:0:
355,63,77710,2,0,L|360:1,2,37.5,10|0|6,0:0|0:0|0:3,0:0:0:0:
268,122,78293,6,0,L|109:112,1,150,4|10,0:0|0:0,0:0:0:0:
39,181,79166,1,0,0:0:0:0:
118,251,79458,2,0,P|119:299|103:336,1,75,2|2,0:0|0:0,0:0:0:0:
201,376,80041,1,10,0:0:0:0:
299,340,80332,1,2,0:3:0:0:
395,297,80623,6,0,L|381:148,1,150,4|10,0:0|0:0,0:0:0:0:
404,44,81497,1,2,0:0:0:0:
508,64,81788,2,0,L|506:163,1,75,2|2,0:0|0:0,0:0:0:0:
453,229,82371,1,10,0:0:0:0:
506,319,82662,1,2,0:3:0:0:
414,370,82954,6,0,L|334:367,1,75,4|4,0:0|0:3,0:0:0:0:
280,280,83535,2,0,L|329:276,1,37.5,10|2,0:0|0:3,0:0:0:0:
370,271,83827,1,2,0:3:0:0:
404,172,84118,2,0,L|324:169,1,75,4|4,0:0|0:3,0:0:0:0:
268,83,84701,2,0,L|213:86,1,37.5,10|2,0:0|0:3,0:0:0:0:
186,55,84992,2,0,L|131:58,1,37.5,2|2,0:3|0:3,0:0:0:0:
96,49,85284,6,0,L|105:144,1,75,6|2,0:0|0:0,0:0:0:0:
183,190,85866,2,0,L|177:284,1,75,10|2,0:0|0:3,0:0:0:0:
101,336,86448,2,0,L|61:333,2,37.5,4|8|2,0:3|0:0|0:0,0:0:0:0:
201,367,87031,1,10,0:0:0:0:
278,295,87322,1,2,0:3:0:0:
365,352,87613,6,0,P|441:359|492:306,1,150,4|10,0:0|0:0,0:0:0:0:
511,208,88487,1,0,0:0:0:0:
467,112,88778,2,0,P|424:110|384:121,1,75,2|0,0:0|0:0,0:0:0:0:
296,158,89361,1,10,0:0:0:0:
285,53,89652,2,0,L|280:-1,2,37.5,2|2|4,0:0|0:0|0:0,0:0:0:0:
200,114,90234,6,0,P|163:110|103:114,1,75,2|10,0:3|0:0,0:0:0:0:
51,42,90817,1,2,0:0:0:0:
5,136,91108,1,6,0:0:0:0:
5,136,91254,2,0,L|13:228,1,75,10|2,0:0|0:3,0:0:0:0:
53,242,91691,2,0,L|48:347,1,75,10|4,0:0|0:3,0:0:0:0:
141,367,92273,6,0,P|182:353|238:358,1,75,4|4,0:0|0:3,0:0:0:0:
317,369,92856,1,10,0:0:0:0:
382,287,93147,1,2,0:3:0:0:
320,202,93438,2,0,L|322:108,1,75,4|4,0:0|0:3,0:0:0:0:
396,52,94021,1,10,0:0:0:0:
489,102,94312,1,2,0:3:0:0:
483,206,94603,6,0,L|477:308,1,75,6|2,0:0|0:0,0:0:0:0:
382,323,95185,2,0,L|371:221,1,75,10|2,0:0|0:3,0:0:0:0:
360,144,95768,1,4,0:0:0:0:
360,144,95914,2,0,B|319:154|319:154|277:152,1,75,8|2,0:0|0:0,0:0:0:0:
233,149,96351,1,10,0:0:0:0:
82,25,96933,5,4,0:0:0:0:
4,96,97225,1,0,0:0:0:0:
58,186,97516,2,0,L|50:240,2,37.5,10|2|2,0:0|0:0|0:0,0:0:0:0:
161,167,98099,1,4,0:0:0:0:
255,212,98390,1,0,0:0:0:0:
325,134,98681,2,0,L|389:120,2,37.5,10|2|2,0:0|0:0|0:0,0:0:0:0:
271,43,99264,6,0,P|242:38|182:45,1,75,4|0,0:0|0:0,0:0:0:0:
96,71,99846,2,0,L|82:20,2,37.5,10|2|2,0:0|0:0|0:0,0:0:0:0:
125,114,100283,1,2,0:0:0:0:
125,114,100429,2,0,L|117:204,1,75,4|2,0:0|0:0,0:0:0:0:
27,240,101011,1,10,0:0:0:0:
48,343,101302,1,2,0:0:0:0:
151,363,101594,5,4,0:0:0:0:
210,277,101885,1,0,0:0:0:0:
156,187,102176,2,0,L|97:189,2,37.5,10|2|2,0:0|0:0|0:0,0:0:0:0:
178,84,102759,1,4,0:0:0:0:
280,60,103051,1,0,0:0:0:0:
348,139,103342,2,0,L|410:144,2,37.5,10|2|2,0:0|0:0|0:0,0:0:0:0:
269,209,103925,6,0,L|264:301,1,75,4|0,0:0|0:0,0:0:0:0:
357,333,104507,2,0,L|360:374,2,37.5,10|2|2,0:0|0:0|0:0,0:0:0:0:
448,281,105089,2,0,L|489:284,2,37.5,4|8|0,0:0|0:0|0:0,0:0:0:0:
425,233,105526,1,0,0:0:0:0:
425,233,105671,2,0,L|328:241,1,75,10|2,0:0|0:0,0:0:0:0:
256,192,106254,5,4,0:0:0:0:
256,192,106545,12,0,110914,0:0:0:0:
