osu file format v14

[General]
AudioFilename: audio.mp3
AudioLeadIn: 0
PreviewTime: 50295
Countdown: 0
SampleSet: Soft
StackLeniency: 0.5
Mode: 0
LetterboxInBreaks: 0
WidescreenStoryboard: 0

[Editor]
DistanceSpacing: 1.8
BeatDivisor: 4
GridSize: 4
TimelineZoom: 1.899999

[Metadata]
Title:intro
TitleUnicode:intro
Artist:Neople
ArtistUnicode:Neople
Creator:SuperDalouBot
Version:Kuse's Hard
Source:던전앤파이터
Tags:Dungeon and Fighter Online DNF DFO MMORPG opening comic bgm Nexon Video Game Instrumental kanor Muziyami Kuse KuBsNia_ZhoYL_ SnowMagicK
BeatmapID:2346068
BeatmapSetID:903515

[Difficulty]
HPDrainRate:4.5
CircleSize:3.5
OverallDifficulty:7
ApproachRate:8
SliderMultiplier:1.6
SliderTickRate:1

[Events]
//Background and Video events
0,0,"background.jpg",0,0
//Break Periods
//Storyboard Layer 0 (Background)
//Storyboard Layer 1 (Fail)
//Storyboard Layer 2 (Pass)
//Storyboard Layer 3 (Foreground)
//Storyboard Layer 4 (Overlay)
//Storyboard Sound Samples

[TimingPoints]
1400,582.52427184466,4,2,1,50,1,0
10720,-100,4,2,1,50,0,0
12613,-100,4,2,1,30,0,0
13050,-100,4,2,1,50,0,0
13924,-100,4,2,1,40,0,0
15089,-100,4,2,1,30,0,0
15380,-100,4,2,1,50,0,0
16545,-100,4,2,1,40,0,0
17710,-100,4,2,1,60,0,0
19895,-100,4,2,3,40,0,0
20040,-83.3333333333333,4,2,1,75,0,0
29069,-83.3333333333333,4,2,1,65,0,0
29361,-83.3333333333333,4,2,1,75,0,0
33584,-83.3333333333333,4,2,1,85,0,0
33730,-83.3333333333333,4,2,1,65,0,0
34021,-83.3333333333333,4,2,1,75,0,0
38244,-83.3333333333333,4,2,1,85,0,0
38681,-83.3333333333333,4,2,1,75,0,0
40574,-83.3333333333333,4,2,1,85,0,0
41011,-83.3333333333333,4,2,1,75,0,0
42904,-83.3333333333333,4,2,1,85,0,0
43050,-83.3333333333333,4,2,1,65,0,0
43341,-83.3333333333333,4,2,1,75,0,0
45234,-83.3333333333333,4,2,1,85,0,0
45671,-83.3333333333333,4,2,1,75,0,0
47565,-83.3333333333333,4,2,1,90,0,0
48147,-83.3333333333333,4,2,1,40,0,0
50332,-100,4,2,1,70,0,0
52079,-100,4,2,1,75,0,0
52662,-100,4,2,2,70,0,0
54409,-100,4,2,2,75,0,0
54992,-100,4,2,1,70,0,0
56739,-100,4,2,1,75,0,0
57322,-100,4,2,2,70,0,0
59361,-100,4,2,2,75,0,0
59652,-100,4,2,1,75,0,0
61545,-100,4,2,1,80,0,0
61982,-100,4,2,2,75,0,0
63875,-100,4,2,2,80,0,0
64312,-100,4,2,1,75,0,0
66205,-100,4,2,1,80,0,0
66642,-100,4,2,2,75,0,0
67807,-100,4,2,2,70,0,0
68390,-100,4,2,2,75,0,0
68681,-100,4,2,2,80,0,0
68972,-90.9090909090909,4,2,1,85,0,0
78001,-90.9090909090909,4,2,1,75,0,0
78147,-90.9090909090909,4,2,1,65,0,0
78293,-90.9090909090909,4,2,1,85,0,0
87322,-90.9090909090909,4,2,3,75,0,0
87613,-90.9090909090909,4,2,1,90,0,1
91108,-90.9090909090909,4,2,2,90,0,1
91836,-90.9090909090909,4,2,1,70,0,1
92273,-90.9090909090909,4,2,1,90,0,1
95768,-90.9090909090909,4,2,2,90,0,1
96642,-90.9090909090909,4,2,2,80,0,1
96933,-83.3333333333333,4,2,1,95,0,1
97225,-83.3333333333333,4,2,3,95,0,1
97516,-83.3333333333333,4,2,1,95,0,1
98099,-83.3333333333333,4,2,2,95,0,1
98390,-83.3333333333333,4,2,3,95,0,1
98681,-83.3333333333333,4,2,2,95,0,1
99264,-83.3333333333333,4,2,1,95,0,1
99555,-83.3333333333333,4,2,3,95,0,1
99846,-83.3333333333333,4,2,1,95,0,1
100429,-83.3333333333333,4,2,3,95,0,1
100866,-83.3333333333333,4,2,2,95,0,1
101594,-83.3333333333333,4,2,1,95,0,1
101885,-83.3333333333333,4,2,3,95,0,1
102176,-83.3333333333333,4,2,1,95,0,1
102759,-83.3333333333333,4,2,2,95,0,1
103050,-83.3333333333333,4,2,3,95,0,1
103341,-83.3333333333333,4,2,2,95,0,1
103924,-83.3333333333333,4,2,1,95,0,1
104215,-83.3333333333333,4,2,3,95,0,1
104506,-83.3333333333333,4,2,1,95,0,1
105089,-83.3333333333333,4,2,3,95,0,1
105526,-83.3333333333333,4,2,2,95,0,1
105817,-83.3333333333333,4,2,2,85,0,1
106254,-83.3333333333333,4,2,1,75,0,0
106399,-83.3333333333333,4,2,1,30,0,0
108001,-83.3333333333333,4,2,1,25,0,0
108584,-83.3333333333333,4,2,1,23,0,0
109166,-83.3333333333333,4,2,1,21,0,0
109749,-83.3333333333333,4,2,1,19,0,0
110332,-83.3333333333333,4,2,1,17,0,0
110914,-83.3333333333333,4,2,1,15,0,0

[Colours]
Combo1 : 158,62,255
Combo2 : 255,57,63
Combo3 : 57,156,255

[HitObjects]
430,330,10720,5,4,0:3:0:0:
430,330,11011,2,0,L|436:247,2,80,0|0|0,0:0|0:0|0:0,0:0:0:0:
353,368,11885,1,0,3:0:0:0:
353,368,12176,2,0,P|307:352|274:357,2,80,0|0|0,0:0|0:0|3:0,0:0:0:0:
430,330,13050,6,0,L|436:247,1,80,4|0,0:3|0:0,0:0:0:0:
408,169,13633,1,0,0:0:0:0:
408,169,13924,2,0,L|403:83,2,80,0|0|0,3:0|0:0|0:0,0:0:0:0:
327,198,14798,2,0,P|281:205|240:197,1,80,0|0,3:0|3:0,0:0:0:0:
185,144,15380,6,0,L|190:53,1,80,4|0,0:3|0:0,0:0:0:0:
104,35,15817,1,0,0:0:0:0:
104,35,15963,2,0,L|99:114,1,80
18,277,16545,6,0,P|77:264|116:269,1,80,0|0,3:0|0:0,0:0:0:0:
177,307,16982,1,0,0:0:0:0:
177,307,17128,2,0,P|226:316|270:299,1,80,0|0,3:0|0:0,0:0:0:0:
441,272,17710,6,0,P|430:228|432:178,1,80,4|2,0:3|0:3,0:0:0:0:
465,116,18147,1,0,0:0:0:0:
416,46,18293,1,2,0:3:0:0:
416,46,18584,6,0,L|361:33,2,40,2|0|2,0:0|0:0|0:3,0:0:0:0:
381,124,19166,2,0,P|326:155|289:158,1,80,2|2,0:3|0:0,0:0:0:0:
310,157,19749,1,2,0:3:0:0:
310,157,19895,1,2,0:3:0:0:
250,97,20040,6,0,P|209:79|152:78,1,95.9999970703126,4|0,0:0|0:0,0:0:0:0:
76,97,20478,1,0,0:0:0:0:
76,97,20623,2,0,L|73:162,1,47.9999985351563,8|0,0:0|0:0,0:0:0:0:
75,231,20914,1,0,0:0:0:0:
150,188,21060,1,0,0:0:0:0:
172,271,21205,2,0,P|220:280|274:270,1,95.9999970703126,2|0,0:0|0:0,0:0:0:0:
350,290,21642,1,0,0:0:0:0:
322,207,21788,2,0,L|313:143,1,47.9999985351563,8|0,0:0|0:0,0:0:0:0:
253,99,22079,1,0,0:0:0:0:
410,177,22370,6,0,P|428:138|422:70,1,95.9999970703126,4|0,0:0|0:0,0:0:0:0:
366,32,22807,1,0,0:0:0:0:
366,32,22953,2,0,L|300:20,1,47.9999985351563,8|0,0:0|0:0,0:0:0:0:
256,84,23244,1,0,0:0:0:0:
177,48,23390,1,0,0:0:0:0:
123,115,23535,2,0,P|129:170|125:235,1,95.9999970703126,2|0,0:0|0:0,0:0:0:0:
92,289,23972,1,0,0:0:0:0:
136,363,24118,2,0,L|190:368,1,47.9999985351563,8|0,0:0|0:0,0:0:0:0:
238,300,24409,1,0,0:0:0:0:
406,338,24700,6,0,P|430:286|418:229,1,95.9999970703126,4|0,0:0|0:0,0:0:0:0:
398,172,25137,1,0,0:0:0:0:
398,172,25283,2,0,P|367:189|317:190,1,47.9999985351563,8|0,0:0|0:0,0:0:0:0:
284,141,25574,1,0,0:0:0:0:
214,192,25720,1,0,0:0:0:0:
132,162,25866,2,0,L|141:273,1,95.9999970703126,2|0,0:0|0:0,0:0:0:0:
189,327,26302,1,0,0:0:0:0:
256,272,26448,2,0,L|315:283,1,47.9999985351563,8|0,0:0|0:0,0:0:0:0:
371,334,26739,1,0,0:0:0:0:
462,186,27031,6,0,P|407:156|336:156,1,95.9999970703126,4|0,0:0|0:0,0:0:0:0:
302,196,27467,1,0,0:0:0:0:
302,196,27613,2,0,P|260:188|231:171,1,47.9999985351563,8|0,0:0|0:0,0:0:0:0:
193,121,27904,1,0,0:0:0:0:
121,169,28050,1,0,0:0:0:0:
57,109,28196,2,0,P|78:73|153:75,1,95.9999970703126,2|2,0:0|0:0,0:0:0:0:
193,121,28633,1,2,0:0:0:0:
253,59,28778,2,0,L|304:81,1,47.9999985351563,8|2,0:0|0:0,0:0:0:0:
383,80,29069,2,0,L|426:61,1,47.9999985351563,2|2,0:3|0:3,0:0:0:0:
473,134,29361,6,0,P|483:200|479:255,1,95.9999970703126,4|2,0:0|0:0,0:0:0:0:
425,294,29798,1,0,0:0:0:0:
354,254,29943,1,8,0:0:0:0:
354,254,30089,2,0,L|359:195,1,47.9999985351563,0|2,0:0|0:0,0:0:0:0:
182,177,30526,2,0,P|134:195|78:179,1,95.9999970703126,2|2,0:3|0:0,0:0:0:0:
128,108,30963,1,2,0:0:0:0:
163,29,31108,2,0,P|206:42|237:73,1,47.9999985351563,8|2,0:0|0:3,0:0:0:0:
293,58,31399,2,0,P|326:44|370:37,1,47.9999985351563,2|2,0:3|0:3,0:0:0:0:
424,28,31691,6,0,P|406:80|407:141,1,95.9999970703126,4|2,0:0|0:0,0:0:0:0:
450,194,32128,1,0,0:0:0:0:
436,282,32273,1,8,0:0:0:0:
436,282,32419,2,0,L|446:341,1,47.9999985351563,0|2,0:0|0:0,0:0:0:0:
264,299,32856,2,0,P|217:287|162:303,1,95.9999970703126,2|2,0:3|0:0,0:0:0:0:
88,322,33293,1,2,0:0:0:0:
111,239,33438,2,0,P|120:201|120:172,1,47.9999985351563,8|2,0:0|0:0,0:0:0:0:
85,112,33730,2,0,P|74:80|71:44,1,47.9999985351563,2|2,0:3|0:3,0:0:0:0:
139,12,34021,6,0,P|191:6|245:17,1,95.9999970703126,4|2,0:0|0:0,0:0:0:0:
291,84,34458,1,0,0:0:0:0:
361,33,34603,1,8,0:0:0:0:
361,33,34749,2,0,L|412:23,1,47.9999985351563,0|2,0:0|0:0,0:0:0:0:
504,167,35186,2,0,P|511:230|497:279,1,95.9999970703126,2|2,0:3|0:0,0:0:0:0:
465,337,35623,1,2,0:0:0:0:
386,304,35768,2,0,L|325:314,1,47.9999985351563,8|2,0:0|0:3,0:0:0:0:
266,359,36060,2,0,L|205:369,1,47.9999985351563,2|2,0:3|0:3,0:0:0:0:
140,332,36351,6,0,L|155:222,1,95.9999970703126,4|2,0:0|0:0,0:0:0:0:
223,187,36788,1,2,0:0:0:0:
173,123,36933,1,8,0:0:0:0:
173,123,37079,2,0,L|158:55,1,47.9999985351563,0|2,0:0|0:0,0:0:0:0:
204,6,37370,1,0,0:0:0:0:
248,77,37516,6,0,L|303:82,2,47.9999985351563,2|10|2,0:0|0:0|0:0,0:0:0:0:
173,123,37953,1,2,0:0:0:0:
89,99,38099,2,0,L|12:117,1,47.9999985351563,8|2,0:0|0:3,0:0:0:0:
39,196,38390,2,0,L|93:185,1,47.9999985351563,2|2,0:3|0:3,0:0:0:0:
89,300,38681,6,0,P|146:273|207:273,1,95.9999970703126,4|2,0:0|0:0,0:0:0:0:
255,311,39118,1,0,0:0:0:0:
320,253,39264,1,8,0:0:0:0:
320,253,39409,2,0,L|325:192,1,47.9999985351563,0|2,0:0|0:0,0:0:0:0:
360,127,39700,1,0,0:0:0:0:
408,199,39846,1,2,0:3:0:0:
488,60,40137,2,0,L|475:0,1,47.9999985351563,2|2,0:0|0:0,0:0:0:0:
390,12,40429,2,0,L|400:61,1,47.9999985351563,8|2,0:0|0:3,0:0:0:0:
313,63,40720,2,0,L|303:15,1,47.9999985351563,2|2,0:3|0:3,0:0:0:0:
218,2,41011,6,0,P|204:58|216:110,1,95.9999970703126,4|2,0:0|0:0,0:0:0:0:
282,151,41448,1,0,0:0:0:0:
222,213,41594,1,8,0:0:0:0:
222,213,41739,2,0,P|176:204|147:185,1,47.9999985351563,0|2,0:0|0:0,0:0:0:0:
123,135,42031,1,0,0:0:0:0:
48,178,42176,1,2,0:3:0:0:
177,292,42467,2,0,L|165:355,1,47.9999985351563,2|2,0:0|0:0,0:0:0:0:
255,342,42759,2,0,L|263:294,1,47.9999985351563,8|2,0:0|0:3,0:0:0:0:
349,301,43050,2,0,L|340:372,1,47.9999985351563,2|2,0:3|0:3,0:0:0:0:
429,352,43341,6,0,P|442:293|431:252,1,95.9999970703126,4|2,0:0|0:0,0:0:0:0:
393,188,43778,1,0,0:0:0:0:
323,238,43924,1,8,0:0:0:0:
323,238,44069,2,0,L|252:225,1,47.9999985351563,0|2,0:0|0:0,0:0:0:0:
217,164,44361,1,0,0:0:0:0:
269,95,44506,1,2,0:3:0:0:
404,203,44798,2,0,L|468:190,1,47.9999985351563,2|2,0:0|0:0,0:0:0:0:
447,106,45089,2,0,L|382:120,1,47.9999985351563,8|2,0:0|0:3,0:0:0:0:
394,29,45380,2,0,L|448:17,1,47.9999985351563,2|2,0:3|0:3,0:0:0:0:
321,78,45671,6,0,L|250:68,2,47.9999985351563,4|0|2,0:0|0:0|0:0,0:0:0:0:
334,163,46108,1,0,0:0:0:0:
334,163,46254,2,0,L|286:157,1,47.9999985351563,8|0,0:0|0:0,0:0:0:0:
200,144,46545,1,2,0:0:0:0:
115,294,46836,6,0,P|178:324|231:308,1,95.9999970703126,2|2,0:0|0:0,0:0:0:0:
271,269,47273,1,0,0:0:0:0:
271,269,47419,2,0,P|301:272|327:284,1,47.9999985351563,10|2,0:0|0:3,0:0:0:0:
381,336,47710,1,2,0:3:0:0:
450,283,47856,1,2,0:3:0:0:
385,226,48001,5,4,0:0:0:0:
256,192,48147,12,0,50040,0:0:0:0:
271,225,50332,6,0,P|245:269|193:294,1,80,4|0,0:0|0:0,0:0:0:0:
142,288,50768,1,0,0:0:0:0:
142,288,50914,2,0,P|110:263|92:227,1,80,2|0,0:0|3:0,0:0:0:0:
132,158,51351,2,0,P|152:108|158:69,1,80,2|0,0:0|0:0,0:0:0:0:
184,7,51788,1,2,0:0:0:0:
339,45,52079,2,0,L|392:37,2,40,2|2|2,0:3|0:3|0:3,0:0:0:0:
302,116,52516,1,2,0:3:0:0:
302,116,52662,6,0,L|310:217,1,80,4|0,0:0|0:0,0:0:0:0:
387,217,53099,1,0,0:0:0:0:
387,217,53244,2,0,L|399:122,1,80,2|0,0:0|3:0,0:0:0:0:
449,77,53681,2,0,P|476:120|473:162,1,80,2|0,0:0|0:0,0:0:0:0:
470,228,54118,1,2,0:0:0:0:
322,288,54409,2,0,L|257:295,2,40,2|2|2,0:3|0:3|0:3,0:0:0:0:
361,363,54846,1,2,0:3:0:0:
361,363,54992,6,0,L|256:374,1,80,4|0,0:0|0:0,0:0:0:0:
213,331,55429,1,0,0:0:0:0:
213,331,55574,2,0,P|160:333|112:361,1,80,2|0,0:0|3:0,0:0:0:0:
68,294,56011,2,0,L|85:179,1,80,2|0,0:0|0:0,0:0:0:0:
93,131,56448,1,2,0:0:0:0:
234,39,56739,2,0,L|231:0,2,40,2|2|2,0:3|0:3|0:3,0:0:0:0:
236,119,57176,1,2,0:3:0:0:
311,86,57322,5,4,0:0:0:0:
311,86,57467,2,0,L|318:154,1,40,2|0,0:0|0:0,0:0:0:0:
393,90,57759,1,0,0:0:0:0:
393,90,57904,2,0,L|400:158,1,40,2|0,0:0|0:0,0:0:0:0:
475,94,58196,1,0,0:0:0:0:
475,94,58341,2,0,L|482:162,1,40,2|4,0:0|0:3,0:0:0:0:
447,208,58633,6,0,L|504:218,2,40,4|2|2,0:3|0:3|0:3,0:0:0:0:
363,208,59069,2,0,L|306:218,2,40,2|2|2,0:3|0:3|0:3,0:0:0:0:
430,260,59506,1,2,0:3:0:0:
422,340,59652,6,0,P|429:277|431:228,1,80,4|2,0:0|0:3,0:0:0:0:
441,177,60089,1,0,0:0:0:0:
363,208,60234,2,0,P|303:215|253:212,1,80,8|2,0:0|0:0,0:0:0:0:
220,159,60671,1,2,0:0:0:0:
220,159,60817,2,0,L|226:102,1,40,6|8,0:3|0:0,0:0:0:0:
150,72,61108,2,0,L|142:135,1,40,2|0,0:0|0:0,0:0:0:0:
68,147,61399,1,10,0:0:0:0:
68,147,61545,2,0,L|72:201,1,40,2|2,0:3|0:3,0:0:0:0:
78,270,61836,1,2,0:3:0:0:
136,330,61982,6,0,P|205:343|239:335,1,80,4|2,0:0|0:3,0:0:0:0:
272,281,62419,1,0,0:0:0:0:
318,350,62565,2,0,P|387:363|421:355,1,80,8|2,0:0|0:0,0:0:0:0:
453,301,63001,1,2,0:0:0:0:
453,301,63147,2,0,L|446:240,1,40,6|8,0:3|0:0,0:0:0:0:
386,204,63438,2,0,L|391:155,1,40,2|0,0:0|0:0,0:0:0:0:
312,130,63730,2,0,L|305:188,1,40,10|2,0:0|0:3,0:0:0:0:
230,205,64021,1,2,0:3:0:0:
230,205,64166,1,2,0:3:0:0:
161,82,64312,6,0,P|150:119|162:160,1,80,4|2,0:0|0:3,0:0:0:0:
230,205,64749,1,0,0:0:0:0:
156,245,64895,2,0,L|69:235,1,80,8|2,0:0|0:0,0:0:0:0:
7,282,65332,1,2,0:0:0:0:
7,282,65477,2,0,L|12:336,1,40,6|8,0:3|0:0,0:0:0:0:
94,316,65768,2,0,L|98:356,1,40,2|0,0:0|0:0,0:0:0:0:
184,380,66060,1,10,0:0:0:0:
184,380,66205,2,0,L|191:336,1,40,2|2,0:3|0:3,0:0:0:0:
204,256,66497,1,2,0:3:0:0:
308,323,66642,5,4,0:0:0:0:
308,323,66788,2,0,L|314:271,1,40,2|0,0:0|0:0,0:0:0:0:
390,345,67079,1,0,0:0:0:0:
390,345,67225,2,0,L|396:293,1,40,10|0,0:0|0:0,0:0:0:0:
472,367,67516,1,0,0:0:0:0:
472,367,67662,2,0,L|478:315,1,40,2|4,0:0|0:3,0:0:0:0:
455,245,67953,6,0,L|452:215,2,20,8|2|2,0:0|0:3|0:3,0:0:0:0:
394,305,68244,1,2,0:0:0:0:
340,239,68390,2,0,L|288:216,1,40,8|8,0:0|0:0,0:0:0:0:
213,200,68681,2,0,L|199:274,1,40,8|8,0:0|0:0,0:0:0:0:
77,337,68972,6,0,P|124:315|188:319,1,88.000002685547,4|0,0:0|0:0,0:0:0:0:
232,360,69409,1,0,0:0:0:0:
297,304,69555,2,0,P|293:251|298:207,1,88.000002685547,10|0,0:0|0:0,0:0:0:0:
341,143,69992,1,0,0:0:0:0:
382,218,70137,2,0,P|429:214|477:172,1,88.000002685547,2|2,0:0|0:0,0:0:0:0:
493,112,70574,1,2,0:0:0:0:
418,70,70720,2,0,L|421:22,1,44.0000013427735,10|2,0:0|0:3,0:0:0:0:
338,2,71011,2,0,L|334:70,1,44.0000013427735,2|2,0:3|0:3,0:0:0:0:
264,93,71302,6,0,P|204:83|163:53,1,88.000002685547,4|0,0:0|0:0,0:0:0:0:
122,8,71739,1,0,0:0:0:0:
40,33,71885,2,0,P|19:66|19:123,1,88.000002685547,10|2,0:0|0:0,0:0:0:0:
78,174,72322,1,0,0:0:0:0:
154,214,72467,2,0,L|140:320,1,88.000002685547,2|2,0:0|0:0,0:0:0:0:
173,381,72904,1,0,0:0:0:0:
228,315,73050,2,0,L|301:325,1,44.0000013427735,10|2,0:0|0:3,0:0:0:0:
310,242,73341,2,0,L|253:233,1,44.0000013427735,2|2,0:3|0:3,0:0:0:0:
363,310,73633,6,0,P|389:273|394:227,1,88.000002685547,4|4,0:0|0:3,0:0:0:0:
423,85,74215,2,0,L|370:74,1,44.0000013427735,10|2,0:0|0:3,0:0:0:0:
297,98,74506,1,2,0:3:0:0:
297,98,74652,1,2,0:3:0:0:
245,166,74798,6,0,P|198:167|153:155,1,88.000002685547,4|4,0:0|0:3,0:0:0:0:
152,12,75380,2,0,P|186:7|213:11,1,44.0000013427735,10|2,0:0|0:3,0:0:0:0:
281,21,75671,1,2,0:3:0:0:
281,21,75817,1,2,0:3:0:0:
367,17,75963,6,0,L|428:14,1,44.0000013427735,6|2,0:0|0:0,0:0:0:0:
482,63,76254,2,0,L|478:125,1,44.0000013427735,2|2,0:0|0:0,0:0:0:0:
402,145,76545,2,0,L|344:148,1,44.0000013427735,10|2,0:0|0:3,0:0:0:0:
298,209,76836,2,0,L|302:267,1,44.0000013427735,2|2,0:3|0:3,0:0:0:0:
368,307,77128,6,0,L|423:309,2,44.0000013427735,6|8|2,0:3|0:0|0:0,0:0:0:0:
284,341,77565,1,0,0:0:0:0:
284,341,77710,2,0,L|221:337,1,44.0000013427735,10|0,0:0|0:0,0:0:0:0:
171,299,78001,1,6,0:3:0:0:
171,299,78147,1,6,0:3:0:0:
278,221,78293,6,0,P|288:170|279:121,1,88.000002685547,4|0,0:0|0:0,0:0:0:0:
199,155,78730,1,0,0:0:0:0:
128,107,78875,2,0,P|128:61|135:13,1,88.000002685547,10|0,0:0|0:0,0:0:0:0:
219,5,79312,1,0,0:0:0:0:
303,23,79458,2,0,P|353:59|385:64,1,88.000002685547,2|2,0:0|0:0,0:0:0:0:
453,22,79895,1,2,0:0:0:0:
489,100,80040,2,0,L|487:145,1,44.0000013427735,10|2,0:0|0:3,0:0:0:0:
403,165,80332,2,0,L|337:161,1,44.0000013427735,2|2,0:3|0:3,0:0:0:0:
279,194,80623,6,0,P|233:205|191:207,1,88.000002685547,4|0,0:0|0:0,0:0:0:0:
107,203,81060,1,0,0:0:0:0:
47,142,81205,2,0,P|43:84|49:31,1,88.000002685547,10|2,0:0|0:0,0:0:0:0:
119,10,81642,1,0,0:0:0:0:
181,70,81788,2,0,P|230:74|291:68,1,88.000002685547,2|2,0:0|0:0,0:0:0:0:
346,33,82225,1,0,0:0:0:0:
401,99,82370,2,0,L|465:108,1,44.0000013427735,10|2,0:0|0:3,0:0:0:0:
455,192,82662,2,0,L|401:184,1,44.0000013427735,2|2,0:3|0:3,0:0:0:0:
333,151,82953,6,0,P|325:221|332:262,1,88.000002685547,4|4,0:0|0:3,0:0:0:0:
458,333,83535,2,0,P|461:305|452:269,1,44.0000013427735,10|2,0:0|0:3,0:0:0:0:
375,309,83827,1,2,0:3:0:0:
375,309,83972,1,2,0:3:0:0:
297,346,84118,6,0,P|239:351|201:345,1,88.000002685547,4|4,0:0|0:3,0:0:0:0:
125,215,84700,2,0,P|160:207|185:210,1,44.0000013427735,10|2,0:0|0:3,0:0:0:0:
254,216,84992,1,2,0:3:0:0:
254,216,85137,1,2,0:3:0:0:
217,138,85283,6,0,L|214:91,1,44.0000013427735,6|2,0:0|0:0,0:0:0:0:
273,31,85574,2,0,L|330:30,1,44.0000013427735,2|2,0:0|0:0,0:0:0:0:
389,79,85866,2,0,L|391:129,1,44.0000013427735,10|2,0:0|0:3,0:0:0:0:
331,185,86157,2,0,L|282:189,1,44.0000013427735,2|2,0:3|0:3,0:0:0:0:
214,235,86448,6,0,L|161:238,2,44.0000013427735,4|8|2,0:3|0:0|0:0,0:0:0:0:
297,272,86885,1,0,0:0:0:0:
297,272,87031,2,0,L|358:266,1,44.0000013427735,10|0,0:0|0:0,0:0:0:0:
404,210,87321,1,2,3:0:0:0:
480,310,87613,6,0,P|421:312|387:337,1,88.000002685547,4|0,0:0|0:0,0:0:0:0:
331,381,88050,1,0,0:0:0:0:
245,375,88196,2,0,P|200:377|151:367,1,88.000002685547,10|0,0:0|0:0,0:0:0:0:
95,310,88633,1,0,0:0:0:0:
178,286,88778,2,0,P|182:239|175:186,1,88.000002685547,2|0,0:0|0:0,0:0:0:0:
139,123,89215,1,0,0:0:0:0:
214,81,89361,2,0,P|248:86|284:79,2,44.0000013427735,10|0|2,0:0|0:0|0:0,0:0:0:0:
160,14,89798,1,2,0:0:0:0:
86,56,89943,6,0,P|56:102|58:148,1,88.000002685547,4|2,0:0|0:3,0:0:0:0:
75,218,90380,1,0,0:0:0:0:
128,286,90526,2,0,P|182:280|219:287,1,88.000002685547,10|2,0:0|0:0,0:0:0:0:
276,346,90963,1,2,0:0:0:0:
344,293,91108,2,0,P|383:289|434:297,1,88.000002685547,6|2,0:0|0:3,0:0:0:0:
506,253,91545,1,2,0:3:0:0:
452,186,91691,2,0,L|460:129,2,44.0000013427735,10|4|4,0:0|0:3|0:3,0:0:0:0:
368,205,92128,1,4,0:3:0:0:
285,186,92273,6,0,P|257:157|248:100,1,88.000002685547,4|4,0:0|0:3,0:0:0:0:
111,38,92856,2,0,L|118:99,1,44.0000013427735,10|2,0:0|3:0,0:0:0:0:
129,167,93147,1,2,3:0:0:0:
129,167,93293,1,2,3:0:0:0:
88,242,93438,6,0,P|55:211|45:151,1,88.000002685547,4|4,0:0|0:3,0:0:0:0:
174,242,94021,2,0,L|166:306,1,44.0000013427735,10|2,0:0|0:3,0:0:0:0:
157,371,94312,1,2,0:3:0:0:
157,371,94458,1,2,0:3:0:0:
237,339,94603,6,0,L|296:337,1,44.0000013427735,6|2,0:0|0:0,0:0:0:0:
346,281,94895,2,0,L|401:280,1,44.0000013427735,2|2,0:0|0:0,0:0:0:0:
427,201,95186,2,0,L|352:203,1,44.0000013427735,10|2,0:0|0:3,0:0:0:0:
327,137,95477,2,0,L|258:139,1,44.0000013427735,2|2,0:3|0:3,0:0:0:0:
223,76,95768,6,0,L|216:23,2,44.0000013427735,4|8|0,0:0|0:0|0:0,0:0:0:0:
168,143,96205,1,2,0:0:0:0:
168,143,96351,2,0,L|111:141,1,44.0000013427735,10|0,0:0|0:0,0:0:0:0:
81,69,96642,1,2,0:2:0:0:
22,199,96933,6,0,L|18:264,1,47.9999985351563,4|2,0:0|0:0,0:0:0:0:
87,302,97225,2,0,L|85:344,3,23.9999992675781
114,277,97516,2,0,L|176:282,1,47.9999985351563,10|2,0:0|0:0,0:0:0:0:
234,330,97807,2,0,L|296:335,1,47.9999985351563,2|2,0:0|0:0,0:0:0:0:
367,316,98099,6,0,P|385:284|388:248,1,47.9999985351563,4|0,0:0|0:0,0:0:0:0:
337,203,98390,2,0,L|307:209,3,23.9999992675781
368,173,98681,2,0,L|353:116,1,47.9999985351563,10|2,0:0|0:0,0:0:0:0:
279,88,98972,2,0,L|263:151,1,47.9999985351563,2|2,0:0|0:0,0:0:0:0:
225,211,99264,6,0,L|155:215,1,47.9999985351563,4|0,0:0|0:0,0:0:0:0:
96,184,99555,2,0,L|85:142,3,23.9999992675781
97,219,99846,2,0,L|91:284,1,47.9999985351563,10|2,0:0|0:0,0:0:0:0:
146,335,100137,2,0,L|205:342,1,47.9999985351563,2|2,0:0|0:0,0:0:0:0:
254,277,100429,2,0,L|256:243,4,23.9999992675781,4|0|8|0|0,0:0|0:0|0:0|0:0|0:0,0:0:0:0:
299,351,100866,1,0,0:0:0:0:
357,288,101011,2,0,P|407:294|457:317,1,95.9999970703126,10|2,0:0|0:0,0:0:0:0:
503,244,101448,1,2,0:0:0:0:
489,158,101594,6,0,L|401:145,1,47.9999985351563,4|0,0:0|0:0,0:0:0:0:
362,116,101885,2,0,L|357:82,3,23.9999992675781
343,150,102176,2,0,L|274:163,1,47.9999985351563,10|2,0:0|0:0,0:0:0:0:
249,85,102467,2,0,L|188:94,1,47.9999985351563,2|2,0:0|0:0,0:0:0:0:
115,105,102759,6,0,L|123:156,1,47.9999985351563,4|0,0:0|0:0,0:0:0:0:
143,236,103050,2,0,L|172:231,3,23.9999992675781
106,244,103341,2,0,L|42:256,1,47.9999985351563,10|2,0:0|0:0,0:0:0:0:
2,183,103633,2,0,L|60:171,1,47.9999985351563,2|2,0:0|0:0,0:0:0:0:
131,151,103924,6,0,L|134:95,1,47.9999985351563,4|0,0:0|0:0,0:0:0:0:
198,46,104215,2,0,L|198:7,3,23.9999992675781
223,77,104506,2,0,L|230:141,1,47.9999985351563,10|2,0:0|0:0,0:0:0:0:
284,192,104798,2,0,L|277:256,1,47.9999985351563,2|2,0:0|0:0,0:0:0:0:
219,302,105089,2,0,L|221:325,4,23.9999992675781,4|0|8|0|0,0:0|0:0|0:0|0:0|0:0,0:0:0:0:
153,253,105526,1,0,0:0:0:0:
153,253,105671,2,0,L|148:187,1,47.9999985351563,10|2,0:0|0:0,0:0:0:0:
212,144,105963,1,2,0:0:0:0:
284,192,106108,1,2,0:0:0:0:
336,123,106254,5,4,0:0:0:0:
256,192,106399,12,0,110914,0:0:0:0:
