osu file format v14

[General]
AudioFilename: audio.mp3
AudioLeadIn: 0
PreviewTime: 50295
Countdown: 0
SampleSet: Soft
StackLeniency: 0.3
Mode: 0
LetterboxInBreaks: 0
WidescreenStoryboard: 0

[Editor]
DistanceSpacing: 0.9
BeatDivisor: 4
GridSize: 4
TimelineZoom: 1.9

[Metadata]
Title:intro
TitleUnicode:intro
Artist:Neople
ArtistUnicode:Neople
Creator:SuperDalouBot
Version:Expert
Source:던전앤파이터
Tags:Dungeon and Fighter Online DNF DFO MMORPG opening comic bgm Nexon Video Game Instrumental kanor Muziyami Kuse KuBsNia_ZhoYL_ SnowMagicK
BeatmapID:1886159
BeatmapSetID:903515

[Difficulty]
HPDrainRate:6
CircleSize:4
OverallDifficulty:8.5
ApproachRate:9.3
SliderMultiplier:1.6
SliderTickRate:1

[Events]
//Background and Video events
0,0,"background.jpg",0,0
//Break Periods
//Storyboard Layer 0 (Background)
//Storyboard Layer 1 (Fail)
//Storyboard Layer 2 (Pass)
//Storyboard Layer 3 (Foreground)
//Storyboard Layer 4 (Overlay)
//Storyboard Sound Samples

[TimingPoints]
1400,582.52427184466,4,2,1,50,1,0
1400,-100,4,2,1,50,0,0
1545,-100,4,2,1,40,0,0
6060,-100,4,2,1,50,0,0
6205,-100,4,2,1,40,0,0
10720,-100,4,2,1,50,0,0
12613,-100,4,2,1,30,0,0
13050,-100,4,2,1,50,0,0
13924,-100,4,2,1,40,0,0
15089,-100,4,2,1,30,0,0
15380,-100,4,2,1,50,0,0
16545,-100,4,2,1,40,0,0
17710,-90.9090909090909,4,2,1,60,0,0
18584,-83.3333333333333,4,2,1,60,0,0
19458,-76.9230769230769,4,2,1,60,0,0
19895,-76.9230769230769,4,2,3,40,0,0
20040,-76.9230769230769,4,2,1,75,0,0
29069,-76.9230769230769,4,2,1,65,0,0
29361,-71.4285714285714,4,2,1,75,0,0
33584,-71.4285714285714,4,2,1,85,0,0
33730,-71.4285714285714,4,2,3,65,0,0
34021,-71.4285714285714,4,2,1,75,0,0
38244,-71.4285714285714,4,2,1,85,0,0
38681,-71.4285714285714,4,2,1,75,0,0
40574,-71.4285714285714,4,2,1,85,0,0
41011,-71.4285714285714,4,2,1,75,0,0
42904,-71.4285714285714,4,2,1,85,0,0
43050,-71.4285714285714,4,2,3,65,0,0
43341,-71.4285714285714,4,2,1,75,0,0
45234,-71.4285714285714,4,2,1,85,0,0
45671,-71.4285714285714,4,2,1,75,0,0
47565,-71.4285714285714,4,2,1,90,0,0
48147,-71.4285714285714,4,2,1,40,0,0
50332,-100,4,2,1,70,0,0
52079,-100,4,2,1,75,0,0
52662,-100,4,2,2,70,0,0
54409,-100,4,2,2,75,0,0
54992,-100,4,2,1,70,0,0
56739,-100,4,2,1,75,0,0
57322,-100,4,2,2,70,0,0
59361,-100,4,2,2,75,0,0
59652,-83.3333333333333,4,2,1,75,0,0
61545,-83.3333333333333,4,2,1,80,0,0
61982,-83.3333333333333,4,2,2,75,0,0
63875,-83.3333333333333,4,2,2,80,0,0
64312,-83.3333333333333,4,2,1,75,0,0
66205,-83.3333333333333,4,2,1,80,0,0
66642,-83.3333333333333,4,2,2,75,0,0
67807,-71.4285714285714,4,2,2,70,0,0
68390,-71.4285714285714,4,2,2,75,0,0
68681,-71.4285714285714,4,2,2,80,0,0
68972,-62.5,4,2,1,85,0,0
78001,-62.5,4,2,1,75,0,0
78147,-62.5,4,2,1,65,0,0
78293,-62.5,4,2,1,85,0,0
87322,-62.5,4,2,3,75,0,0
87613,-62.5,4,2,1,90,0,1
91108,-62.5,4,2,2,90,0,1
91836,-62.5,4,2,1,70,0,1
92273,-62.5,4,2,1,90,0,1
94603,-62.5,4,2,1,90,0,1
95768,-62.5,4,2,2,90,0,1
96351,-71.4285714285714,4,2,2,90,0,1
96933,-55.5555555555556,4,2,1,95,0,1
97225,-55.5555555555556,4,2,3,95,0,1
97516,-55.5555555555556,4,2,1,95,0,1
98099,-55.5555555555556,4,2,2,95,0,1
98390,-55.5555555555556,4,2,3,95,0,1
98681,-55.5555555555556,4,2,2,95,0,1
99264,-55.5555555555556,4,2,1,95,0,1
99555,-55.5555555555556,4,2,3,95,0,1
99846,-55.5555555555556,4,2,1,95,0,1
100429,-55.5555555555556,4,2,3,95,0,1
100866,-55.5555555555556,4,2,2,95,0,1
101594,-55.5555555555556,4,2,1,95,0,1
101885,-55.5555555555556,4,2,3,95,0,1
102176,-55.5555555555556,4,2,1,95,0,1
102759,-55.5555555555556,4,2,2,95,0,1
103050,-55.5555555555556,4,2,3,95,0,1
103341,-55.5555555555556,4,2,2,95,0,1
103924,-55.5555555555556,4,2,1,95,0,1
104215,-55.5555555555556,4,2,3,95,0,1
104506,-55.5555555555556,4,2,1,95,0,1
105089,-55.5555555555556,4,2,3,95,0,1
105526,-55.5555555555556,4,2,2,95,0,1
105817,-55.5555555555556,4,2,2,85,0,1
106254,-100,4,2,1,75,0,0
106399,-100,4,2,1,30,0,0
108001,-100,4,2,1,25,0,0
108584,-100,4,2,1,23,0,0
109166,-100,4,2,1,21,0,0
109749,-100,4,2,1,19,0,0
110332,-100,4,2,1,17,0,0
110914,-100,4,2,1,15,0,0

[Colours]
Combo1 : 158,62,255
Combo2 : 255,57,63
Combo3 : 57,156,255

[HitObjects]
255,192,1400,5,4,0:3:0:0:
256,192,1545,12,0,5477,0:0:0:0:
255,192,6060,5,4,0:3:0:0:
256,192,6205,12,0,10137,0:0:0:0:
255,192,10720,5,4,0:3:0:0:
255,303,11885,1,0,0:3:0:0:
255,192,12467,1,0,0:0:0:0:
255,112,12613,2,0,L|255:52,2,40,0|0|0,3:0|3:0|3:0,0:0:0:0:
255,192,13050,5,4,0:3:0:0:
255,112,13924,1,0,3:0:0:0:
255,32,14798,1,0,3:0:0:0:
255,256,15089,1,0,3:0:0:0:
255,224,15234,1,0,3:0:0:0:
255,192,15380,5,4,0:3:0:0:
255,192,16545,2,0,L|255:92,1,80,0|0,3:0|0:0,0:0:0:0:
255,320,17128,1,0,3:0:0:0:
255,320,17419,2,0,L|255:261,1,40
255,192,17710,5,4,0:3:0:0:
255,192,17856,1,0,0:0:0:0:
166,192,18001,2,0,L|104:192,1,44.0000013427735,2|0,0:3|0:0,0:0:0:0:
91,108,18293,2,0,L|36:108,1,44.0000013427735,2|0,0:3|0:0,0:0:0:0:
137,29,18584,5,2,0:0:0:0:
137,29,18730,1,0,0:0:0:0:
217,76,18875,2,0,L|268:76,1,47.9999985351563,2|0,0:3|0:0,0:0:0:0:
337,23,19166,2,0,L|399:23,1,47.9999985351563,2|0,0:3|0:0,0:0:0:0:
460,144,19458,6,0,P|436:145|384:143,1,51.999997619629,2|0,0:0|0:0,0:0:0:0:
322,131,19749,1,2,0:3:0:0:
309,218,19895,1,2,0:3:0:0:
232,351,20040,6,0,P|223:300|225:248,1,103.999995239258,4|0,0:0|0:0,0:0:0:0:
239,160,20477,1,0,0:0:0:0:
395,227,20623,2,0,L|392:307,1,51.999997619629,8|0,0:0|0:0,0:0:0:0:
239,160,20914,2,0,L|242:85,1,51.999997619629
85,185,21205,2,0,L|90:265,1,51.999997619629,2|0,0:0|0:0,0:0:0:0:
241,108,21497,2,0,L|236:30,1,51.999997619629
394,123,21788,2,0,L|391:192,1,51.999997619629,8|0,0:0|0:0,0:0:0:0:
238,56,22079,2,0,L|240:-14,1,51.999997619629
85,185,22370,6,0,P|143:192|207:185,1,103.999995239258,4|0,0:0|0:0,0:0:0:0:
276,177,22807,1,0,0:0:0:0:
171,40,22953,2,0,L|100:44,1,51.999997619629,8|0,0:0|0:0,0:0:0:0:
276,177,23244,2,0,L|350:174,1,51.999997619629
392,24,23535,1,2,0:0:0:0:
492,147,23681,2,0,L|493:210,2,51.999997619629,8|0|0,0:0|0:0|0:0,0:0:0:0:
392,24,24118,2,0,L|323:27,1,51.999997619629,8|0,0:0|0:0,0:0:0:0:
276,177,24409,2,0,L|345:174,1,51.999997619629
389,327,24700,6,0,P|337:335|285:334,1,103.999995239258,4|0,0:0|0:0,0:0:0:0:
195,325,25137,1,0,0:0:0:0:
55,237,25283,2,0,L|56:167,1,51.999997619629,8|0,0:0|0:0,0:0:0:0:
195,325,25574,2,0,L|193:394,1,51.999997619629
335,193,25866,2,0,L|333:123,1,51.999997619629,2|8,0:0|0:0,0:0:0:0:
194,273,26157,2,0,L|195:342,1,51.999997619629
55,153,26448,2,0,L|56:83,1,51.999997619629,8|0,0:0|0:0,0:0:0:0:
196,221,26739,2,0,L|194:290,1,51.999997619629
334,141,27031,6,0,P|340:84|324:36,1,103.999995239258,4|0,0:0|0:0,0:0:0:0:
248,2,27467,1,0,0:0:0:0:
133,137,27613,2,0,L|194:135,1,51.999997619629,8|0,0:0|0:0,0:0:0:0:
363,238,27904,2,0,L|312:240,1,51.999997619629
133,306,28196,5,0,0:0:0:0:
311,240,28341,1,10,0:0:0:0:
222,273,28487,1,2,0:0:0:0:
296,333,28633,1,2,0:0:0:0:
400,207,28778,5,8,0:0:0:0:
311,240,28924,1,2,0:0:0:0:
385,300,29069,2,0,L|420:331,2,25.9999988098145,2|2|2,0:3|0:3|0:3,0:0:0:0:
290,103,29361,6,0,P|235:95|180:102,1,111.999996582031,4|2,0:0|0:0,0:0:0:0:
96,123,29798,1,0,0:0:0:0:
156,19,29943,1,8,0:0:0:0:
179,102,30089,1,0,0:0:0:0:
202,185,30234,2,0,L|223:260,1,55.9999982910157,2|0,0:0|0:0,0:0:0:0:
102,315,30526,6,0,L|120:243,1,55.9999982910157,2|8,0:3|0:0,0:0:0:0:
208,361,30817,1,2,0:0:0:0:
208,361,30963,1,2,0:0:0:0:
217,239,31108,1,8,0:0:0:0:
304,254,31254,1,2,0:3:0:0:
379,206,31399,1,2,0:3:0:0:
384,118,31545,1,2,0:3:0:0:
198,45,31691,6,0,P|189:100|195:155,1,111.999996582031,4|2,0:0|0:0,0:0:0:0:
217,239,32128,1,0,0:0:0:0:
112,179,32273,1,8,0:0:0:0:
195,156,32419,1,0,0:0:0:0:
278,133,32565,2,0,L|354:112,1,55.9999982910157,2|0,0:0|0:0,0:0:0:0:
427,219,32856,6,0,L|353:201,1,55.9999982910157,2|8,0:3|0:0,0:0:0:0:
382,337,33147,1,2,0:0:0:0:
382,337,33293,1,2,0:0:0:0:
269,274,33438,1,8,0:0:0:0:
197,321,33584,1,2,0:0:0:0:
119,285,33730,1,2,0:3:0:0:
102,293,33802,1,2,0:3:0:0:
85,301,33875,1,2,0:3:0:0:
68,309,33948,1,2,0:3:0:0:
51,317,34021,6,0,L|47:189,1,111.999996582031,4|2,0:0|0:0,0:0:0:0:
45,119,34458,1,0,0:0:0:0:
131,186,34603,1,8,0:0:0:0:
130,100,34749,1,0,0:0:0:0:
214,25,34895,2,0,L|216:102,1,55.9999982910157,2|0,0:0|0:0,0:0:0:0:
274,201,35186,6,0,L|272:124,1,55.9999982910157,2|8,0:3|0:0,0:0:0:0:
275,288,35477,1,2,0:0:0:0:
275,288,35623,1,2,0:0:0:0:
414,210,35768,1,8,0:0:0:0:
451,287,35914,1,2,0:3:0:0:
406,361,36060,1,2,0:3:0:0:
321,363,36205,1,2,0:3:0:0:
274,201,36351,6,0,P|222:192|143:204,1,111.999996582031,4|2,0:0|0:0,0:0:0:0:
79,217,36788,1,2,0:0:0:0:
179,283,36933,1,8,0:0:0:0:
163,198,37079,1,0,0:0:0:0:
147,113,37225,2,0,L|135:38,1,55.9999982910157,2|0,0:0|0:0,0:0:0:0:
79,217,37516,5,2,0:0:0:0:
79,217,37662,1,10,0:0:0:0:
23,107,37807,1,2,0:0:0:0:
23,107,37953,1,2,0:0:0:0:
147,113,38099,5,8,0:0:0:0:
79,217,38244,1,2,0:3:0:0:
179,283,38390,1,2,0:3:0:0:
247,179,38535,1,2,0:3:0:0:
418,106,38681,6,0,P|428:154|418:230,1,111.999996582031,4|2,0:0|0:0,0:0:0:0:
405,299,39118,1,0,0:0:0:0:
506,236,39264,1,8,0:0:0:0:
422,216,39409,1,0,0:0:0:0:
338,196,39555,2,0,L|268:181,1,55.9999982910157,2|0,0:0|0:0,0:0:0:0:
170,105,39846,6,0,L|184:174,1,55.9999982910157,2|8,0:3|0:0,0:0:0:0:
276,59,40137,1,2,0:0:0:0:
276,59,40283,1,2,0:0:0:0:
283,184,40429,1,8,0:0:0:0:
370,168,40574,1,2,0:3:0:0:
445,215,40720,1,2,0:3:0:0:
450,304,40866,1,2,0:3:0:0:
264,377,41011,6,0,P|256:322|262:267,1,111.999996582031,4|2,0:0|0:0,0:0:0:0:
283,184,41448,1,0,0:0:0:0:
179,243,41594,1,8,0:0:0:0:
262,266,41739,1,0,0:0:0:0:
345,289,41885,2,0,L|414:306,1,55.9999982910157,2|0,0:0|0:0,0:0:0:0:
425,156,42176,6,0,L|349:172,1,55.9999982910157,2|8,0:3|0:0,0:0:0:0:
333,44,42467,1,2,0:0:0:0:
333,44,42613,1,2,0:0:0:0:
249,64,42759,1,8,0:0:0:0:
174,23,42904,1,2,0:3:0:0:
36,33,43050,1,2,0:3:0:0:
53,41,43123,1,2,0:3:0:0:
70,49,43196,1,2,0:3:0:0:
87,57,43268,1,2,0:3:0:0:
101,64,43341,6,0,L|97:194,1,111.999996582031,4|2,0:0|0:0,0:0:0:0:
95,262,43778,1,0,0:0:0:0:
181,195,43923,1,8,0:0:0:0:
180,281,44069,1,0,0:0:0:0:
264,356,44215,2,0,L|266:279,1,55.9999982910157,2|0,0:0|0:0,0:0:0:0:
331,186,44506,6,0,L|329:263,1,55.9999982910157,2|8,0:3|0:0,0:0:0:0:
332,99,44797,1,2,0:0:0:0:
332,99,44943,1,2,0:0:0:0:
471,177,45088,1,8,0:0:0:0:
508,100,45234,1,2,0:3:0:0:
463,26,45380,1,2,0:3:0:0:
378,24,45525,1,2,0:3:0:0:
331,186,45671,6,0,P|272:196|196:177,1,111.999996582031,4|2,0:0|0:0,0:0:0:0:
125,133,46108,1,0,0:0:0:0:
222,79,46254,2,0,P|234:133|221:187,1,111.999996582031,8|0,0:0|0:0,0:0:0:0:
151,267,46691,1,2,0:0:0:0:
316,89,46836,5,2,0:0:0:0:
292,5,46982,1,10,0:0:0:0:
125,133,47128,5,2,0:0:0:0:
149,49,47273,1,2,0:0:0:0:
340,173,47419,5,10,0:0:0:0:
316,253,47565,1,2,0:3:0:0:
125,133,47710,5,2,0:3:0:0:
149,219,47856,1,2,0:3:0:0:
364,93,48001,5,4,0:0:0:0:
256,192,48147,12,0,50040,0:0:0:0:
223,215,50332,5,4,0:0:0:0:
223,215,50623,2,0,L|287:215,1,40
346,214,50914,1,2,0:0:0:0:
144,122,51205,1,0,3:0:0:0:
144,122,51351,1,0,3:0:0:0:
144,122,51497,2,0,L|142:181,1,40,2|0,0:0|0:0,0:0:0:0:
111,237,51788,2,0,L|114:283,1,40,2|0,0:0|0:0,0:0:0:0:
80,351,52079,5,2,0:3:0:0:
161,344,52225,1,2,0:3:0:0:
218,286,52370,1,2,0:3:0:0:
299,296,52516,1,2,0:3:0:0:
342,147,52662,5,4,0:0:0:0:
499,172,52953,2,0,L|500:227,1,40
499,293,53244,1,2,0:0:0:0:
299,296,53535,1,0,3:0:0:0:
299,296,53681,1,0,3:0:0:0:
299,296,53827,2,0,L|300:235,1,40,2|0,0:0|0:0,0:0:0:0:
343,187,54118,2,0,L|341:130,1,40,2|0,0:0|0:0,0:0:0:0:
340,65,54409,5,2,0:3:0:0:
271,108,54555,1,2,0:3:0:0:
342,147,54700,1,2,0:3:0:0:
412,105,54846,1,2,0:3:0:0:
269,26,54992,5,4,0:0:0:0:
269,26,55283,2,0,L|218:28,1,40
148,30,55574,1,2,0:0:0:0:
80,240,55866,1,0,3:0:0:0:
80,240,56011,1,0,3:0:0:0:
80,240,56157,2,0,L|130:241,1,40,2|0,0:0|0:0,0:0:0:0:
195,210,56448,2,0,L|247:211,1,40,2|0,0:0|0:0,0:0:0:0:
272,282,56739,5,2,0:3:0:0:
353,286,56885,1,2,0:3:0:0:
396,216,57031,1,2,0:3:0:0:
357,145,57176,1,2,0:3:0:0:
235,211,57322,5,4,0:0:0:0:
278,142,57467,2,0,L|278:82,1,40,2|0,0:0|0:0,0:0:0:0:
163,155,57759,5,0,0:0:0:0:
207,86,57904,2,0,L|207:29,1,40,2|0,0:0|0:0,0:0:0:0:
92,99,58196,5,0,0:0:0:0:
136,30,58341,1,2,0:0:0:0:
163,155,58487,5,4,0:3:0:0:
120,224,58633,1,4,0:3:0:0:
79,294,58778,2,0,L|79:330,2,20,2|2|2,0:3|0:3|0:3,0:0:0:0:
160,342,59069,5,2,0:3:0:0:
244,335,59215,1,2,0:3:0:0:
323,282,59361,1,2,0:3:0:0:
356,178,59506,1,2,0:3:0:0:
435,354,59652,5,4,0:0:0:0:
244,335,59943,2,0,L|243:269,1,47.9999985351563,2|0,0:3|0:0,0:0:0:0:
243,204,60234,1,8,0:0:0:0:
30,255,60526,1,2,0:0:0:0:
30,255,60671,1,2,0:0:0:0:
30,255,60817,2,0,L|31:316,1,47.9999985351563,6|8,0:3|0:0,0:0:0:0:
74,183,61108,2,0,L|20:153,1,47.9999985351563,2|0,0:0|0:0,0:0:0:0:
114,257,61399,5,10,0:0:0:0:
138,128,61545,1,2,0:3:0:0:
237,214,61691,1,2,0:3:0:0:
114,257,61836,1,2,0:3:0:0:
233,122,61982,5,4,0:0:0:0:
445,134,62273,2,0,L|446:195,1,47.9999985351563,2|0,0:3|0:0,0:0:0:0:
447,266,62565,1,8,0:0:0:0:
237,214,62856,1,2,0:0:0:0:
237,214,63001,1,2,0:0:0:0:
237,214,63147,2,0,L|176:215,1,47.9999985351563,6|8,0:3|0:0,0:0:0:0:
309,258,63438,2,0,L|338:204,1,47.9999985351563,2|0,0:0|0:0,0:0:0:0:
235,298,63730,5,10,0:0:0:0:
340,377,63875,1,2,0:3:0:0:
128,373,64021,1,2,0:3:0:0:
235,298,64166,1,2,0:3:0:0:
45,247,64312,5,4,0:0:0:0:
86,53,64603,2,0,L|147:52,1,47.9999985351563,2|0,0:3|0:0,0:0:0:0:
219,51,64895,1,8,0:0:0:0:
278,225,65186,1,2,0:0:0:0:
278,225,65332,1,2,0:0:0:0:
278,225,65477,2,0,L|237:197,1,47.9999985351563,6|8,0:3|0:0,0:0:0:0:
318,299,65768,2,0,L|359:274,1,47.9999985351563,2|0,0:0|0:0,0:0:0:0:
235,298,66060,5,8,0:0:0:0:
110,363,66205,1,2,0:3:0:0:
116,222,66351,1,2,0:3:0:0:
235,298,66497,1,2,0:3:0:0:
45,290,66642,5,4,0:0:0:0:
116,222,66788,2,0,L|117:158,1,47.9999985351563,2|0,0:0|0:0,0:0:0:0:
301,155,67079,5,0,0:0:0:0:
230,87,67225,2,0,L|229:23,1,47.9999985351563,10|0,0:0|0:0,0:0:0:0:
44,74,67516,5,0,0:0:0:0:
115,6,67662,1,2,0:0:0:0:
116,222,67807,5,4,0:3:0:0:
301,155,67953,2,0,L|350:156,2,27.9999991455078,8|2|2,0:0|0:3|0:3,0:0:0:0:
136,101,68244,1,2,0:0:0:0:
212,308,68390,5,8,0:0:0:0:
253,235,68535,1,8,0:0:0:0:
301,155,68681,1,8,0:0:0:0:
351,64,68827,1,8,0:0:0:0:
466,258,68972,6,0,P|404:273|341:268,1,128,4|0,0:0|0:0,0:0:0:0:
253,235,69409,1,0,0:0:0:0:
53,352,69555,2,0,P|114:367|178:361,1,128,10|0,0:0|0:0,0:0:0:0:
267,329,69992,1,0,0:0:0:0:
240,118,70137,5,2,0:0:0:0:
240,118,70283,1,2,0:0:0:0:
170,266,70429,1,2,0:0:0:0:
170,266,70574,1,2,0:0:0:0:
89,90,70720,1,10,0:0:0:0:
82,181,70866,1,2,0:3:0:0:
240,118,71011,1,2,0:3:0:0:
233,27,71157,1,2,0:3:0:0:
420,33,71302,6,0,P|429:97|421:160,1,128,4|0,0:0|0:0,0:0:0:0:
398,252,71739,1,0,0:0:0:0:
244,182,71885,1,10,0:0:0:0:
250,282,72031,1,0,0:0:0:0:
244,182,72176,2,0,L|240:112,1,64,2|0,0:0|0:0,0:0:0:0:
104,208,72467,2,0,L|166:240,1,64,2|8,0:0|0:0,0:0:0:0:
149,74,72759,2,0,L|89:112,1,64,2|0,0:0|0:0,0:0:0:0:
236,19,73050,5,10,0:0:0:0:
240,118,73196,1,2,0:3:0:0:
412,115,73341,1,2,0:3:0:0:
324,67,73487,1,2,0:3:0:0:
244,219,73633,5,4,0:0:0:0:
496,63,73924,1,4,0:3:0:0:
244,219,74215,5,10,0:0:0:0:
160,271,74361,1,2,0:3:0:0:
68,123,74506,1,2,0:3:0:0:
156,171,74652,1,2,0:3:0:0:
76,323,74798,5,4,0:0:0:0:
64,25,75089,1,4,0:3:0:0:
76,323,75380,5,10,0:0:0:0:
160,271,75526,1,2,0:3:0:0:
332,267,75671,1,2,0:3:0:0:
244,219,75817,1,2,0:3:0:0:
420,315,75963,5,6,0:0:0:0:
420,315,76108,1,2,0:0:0:0:
412,115,76254,1,2,0:0:0:0:
412,115,76399,1,2,0:0:0:0:
244,219,76545,1,10,0:0:0:0:
332,267,76691,1,2,0:3:0:0:
328,167,76836,1,2,0:3:0:0:
240,119,76982,1,2,0:3:0:0:
88,171,77128,6,0,P|119:172|151:170,1,64,6|8,0:3|0:0,0:0:0:0:
272,64,77419,2,0,P|257:87|239:122,1,64,2|0,0:0|0:0,0:0:0:0:
276,275,77710,2,0,P|262:250|240:212,1,64,10|0,0:0|0:0,0:0:0:0:
88,171,78001,1,6,0:3:0:0:
41,307,78147,1,6,0:3:0:0:
25,90,78293,6,0,P|90:74|161:95,1,128,4|0,0:0|0:0,0:0:0:0:
240,119,78730,1,0,0:0:0:0:
433,190,78875,2,0,P|371:174|309:186,1,128,10|0,0:0|0:0,0:0:0:0:
216,217,79312,1,0,0:0:0:0:
347,55,79458,5,2,0:0:0:0:
347,55,79603,1,2,0:0:0:0:
433,190,79749,1,2,0:0:0:0:
433,190,79895,1,2,0:0:0:0:
216,217,80040,1,10,0:0:0:0:
236,120,80186,1,2,0:3:0:0:
78,65,80332,1,2,0:3:0:0:
98,162,80477,1,2,0:3:0:0:
234,321,80623,6,0,P|173:303|109:308,1,128,4|0,0:0|0:0,0:0:0:0:
15,333,81060,1,0,0:0:0:0:
98,162,81205,1,10,0:0:0:0:
3,187,81351,1,0,0:0:0:0:
98,162,81497,2,0,L|176:143,1,64,2|0,0:0|0:0,0:0:0:0:
253,71,81788,2,0,L|175:52,1,64,2|8,0:0|0:0,0:0:0:0:
271,178,82079,2,0,L|349:159,1,64,2|0,0:0|0:0,0:0:0:0:
497,215,82370,5,10,0:0:0:0:
467,309,82516,1,2,0:3:0:0:
333,163,82662,1,2,0:3:0:0:
430,142,82807,1,2,0:3:0:0:
370,330,82953,5,4,0:0:0:0:
169,111,83244,1,4,0:3:0:0:
430,142,83535,5,10,0:0:0:0:
400,236,83681,1,2,0:3:0:0:
266,90,83827,1,2,0:3:0:0:
363,69,83972,1,2,0:3:0:0:
303,257,84118,5,4,0:0:0:0:
102,38,84409,1,4,0:3:0:0:
363,69,84700,5,10,0:0:0:0:
333,163,84846,1,2,0:3:0:0:
206,278,84992,1,2,0:3:0:0:
303,257,85137,1,2,0:3:0:0:
467,309,85283,5,6,0:0:0:0:
467,309,85429,1,2,0:0:0:0:
333,163,85574,1,2,0:0:0:0:
333,163,85720,1,2,0:0:0:0:
206,278,85866,1,10,0:0:0:0:
273,351,86011,1,2,0:3:0:0:
303,257,86157,1,2,0:3:0:0:
236,184,86302,1,2,0:3:0:0:
430,142,86448,6,0,L|426:221,1,64,4|8,0:3|0:0,0:0:0:0:
332,61,86739,2,0,L|371:-2,1,64,2|0,0:0|0:0,0:0:0:0:
207,48,87031,2,0,L|127:43,1,64,10|0,0:0|0:0,0:0:0:0:
19,180,87322,1,2,0:3:0:0:
38,184,87395,1,2,0:3:0:0:
57,186,87467,1,2,0:3:0:0:
76,186,87540,1,2,0:3:0:0:
95,184,87613,6,0,L|241:177,1,128,4|0,0:0|0:0,0:0:0:0:
332,173,88050,1,0,0:0:0:0:
510,275,88196,2,8,L|364:268,1,128,10|0,0:0|0:0,0:0:0:0:
273,264,88633,1,0,0:0:0:0:
92,369,88778,6,0,L|238:362,1,128,2|0,0:0|0:0,0:0:0:0:
329,358,89215,1,0,0:0:0:0:
164,268,89361,2,0,L|74:272,1,64,10|0,0:0|0:0,0:0:0:0:
215,172,89652,1,2,0:0:0:0:
215,172,89798,1,2,0:0:0:0:
2,97,89943,5,4,0:0:0:0:
2,97,90234,2,0,L|129:97,1,128,2|10,0:3|0:0,0:0:0:0:
237,61,90671,1,2,0:0:0:0:
130,97,90817,1,2,0:0:0:0:
215,172,90963,1,2,0:0:0:0:
336,165,91108,5,6,0:0:0:0:
215,172,91254,1,10,0:0:0:0:
221,294,91399,1,2,0:3:0:0:
343,287,91545,1,2,0:3:0:0:
446,219,91691,5,10,0:0:0:0:
343,287,91836,1,4,0:3:0:0:
454,341,91982,1,4,0:3:0:0:
336,165,92128,1,4,0:3:0:0:
500,46,92273,6,0,L|497:132,1,64,4|0,0:0|0:0,0:0:0:0:
336,101,92565,2,0,L|336:175,1,64,4|0,0:3|0:0,0:0:0:0:
193,66,92856,5,10,0:0:0:0:
41,153,93001,1,2,3:0:0:0:
215,172,93147,1,2,3:0:0:0:
85,54,93293,1,2,3:0:0:0:
121,226,93438,6,0,L|118:299,1,64,4|0,0:0|0:0,0:0:0:0:
280,290,93730,2,0,L|277:366,1,64,4|0,0:3|0:0,0:0:0:0:
215,172,94021,5,10,0:0:0:0:
364,230,94166,1,2,0:3:0:0:
470,85,94312,1,2,0:3:0:0:
318,139,94458,1,2,0:3:0:0:
410,321,94603,5,6,0:0:0:0:
410,321,94749,1,2,0:0:0:0:
227,253,94895,1,2,0:0:0:0:
227,253,95040,1,2,0:0:0:0:
267,36,95186,1,10,0:0:0:0:
183,117,95332,1,2,0:3:0:0:
318,139,95477,2,0,L|405:136,1,64,2|2,0:3|0:3,0:0:0:0:
227,253,95768,5,4,0:0:0:0:
91,231,95914,2,0,L|4:234,1,64,8|0,0:0|0:0,0:0:0:0:
142,334,96205,1,2,0:0:0:0:
338,259,96351,2,0,P|288:250|199:259,1,111.999996582031,10|0,0:0|0:0,0:0:0:0:
38,99,96933,6,0,L|42:14,1,71.9999978027344,4|2,0:0|0:0,0:0:0:0:
153,80,97225,1,0,0:0:0:0:
178,81,97298,1,0,0:0:0:0:
202,82,97370,1,0,0:0:0:0:
227,80,97443,1,0,0:0:0:0:
252,79,97516,1,10,0:0:0:0:
350,13,97662,1,2,0:0:0:0:
358,131,97807,1,2,0:0:0:0:
366,249,97953,1,2,0:0:0:0:
478,127,98099,5,4,0:0:0:0:
358,131,98244,1,0,0:0:0:0:
260,197,98390,1,0,0:0:0:0:
235,198,98463,1,0,0:0:0:0:
210,200,98535,1,0,0:0:0:0:
186,199,98608,1,0,0:0:0:0:
161,198,98681,1,10,0:0:0:0:
45,144,98827,1,2,0:0:0:0:
53,262,98972,1,2,0:0:0:0:
61,380,99118,1,2,0:0:0:0:
285,311,99264,6,0,L|281:391,1,71.9999978027344,4|0,0:0|0:0,0:0:0:0:
165,302,99555,1,0,0:0:0:0:
164,276,99628,1,0,0:0:0:0:
163,250,99700,1,0,0:0:0:0:
162,224,99773,1,0,0:0:0:0:
161,198,99846,1,10,0:0:0:0:
158,65,99992,1,2,0:0:0:0:
47,134,100137,1,2,0:0:0:0:
161,198,100283,1,2,0:0:0:0:
272,127,100429,5,4,0:0:0:0:
271,101,100501,1,0,0:0:0:0:
270,75,100574,1,8,0:0:0:0:
269,49,100647,1,0,0:0:0:0:
268,23,100720,1,0,0:0:0:0:
390,66,100866,1,0,0:0:0:0:
272,127,101011,5,10,0:0:0:0:
161,198,101157,1,2,0:0:0:0:
272,271,101302,1,2,0:0:0:0:
383,200,101448,1,2,0:0:0:0:
454,332,101594,6,0,L|367:329,1,71.9999978027344,4|0,0:0|0:0,0:0:0:0:
272,271,101885,1,0,0:0:0:0:
247,270,101958,1,0,0:0:0:0:
223,269,102031,1,0,0:0:0:0:
198,271,102103,1,0,0:0:0:0:
173,272,102176,1,10,0:0:0:0:
60,345,102322,1,2,0:0:0:0:
52,227,102467,1,2,0:0:0:0:
44,109,102613,1,2,0:0:0:0:
173,272,102759,5,4,0:0:0:0:
177,149,102904,1,0,0:0:0:0:
309,110,103050,1,0,0:0:0:0:
310,135,103123,1,0,0:0:0:0:
311,160,103196,1,0,0:0:0:0:
312,184,103268,1,0,0:0:0:0:
312,209,103341,1,10,0:0:0:0:
447,260,103487,1,2,0:0:0:0:
435,139,103633,1,2,0:0:0:0:
425,17,103778,1,2,0:0:0:0:
183,93,103924,6,0,L|187:7,1,71.9999978027344,4|0,0:0|0:0,0:0:0:0:
308,85,104215,1,0,0:0:0:0:
309,110,104288,1,0,0:0:0:0:
310,135,104361,1,0,0:0:0:0:
311,160,104433,1,0,0:0:0:0:
312,184,104506,1,10,0:0:0:0:
317,339,104652,1,2,0:0:0:0:
447,260,104798,1,2,0:0:0:0:
312,184,104943,1,2,0:0:0:0:
183,264,105089,5,4,0:0:0:0:
184,290,105162,1,0,0:0:0:0:
185,316,105234,1,8,0:0:0:0:
186,342,105307,1,0,0:0:0:0:
187,368,105380,1,0,0:0:0:0:
39,325,105526,1,0,0:0:0:0:
183,264,105671,5,10,0:0:0:0:
103,134,105817,1,2,0:0:0:0:
312,184,105963,1,2,0:0:0:0:
232,54,106108,1,2,0:0:0:0:
430,81,106254,5,4,0:0:0:0:
256,192,106399,12,0,110914,0:0:0:0:
