osu file format v14

[General]
AudioFilename: audio.mp3
AudioLeadIn: 0
PreviewTime: 50295
Countdown: 0
SampleSet: Soft
StackLeniency: 0.3
Mode: 0
LetterboxInBreaks: 0
WidescreenStoryboard: 1

[Editor]
DistanceSpacing: 1
BeatDivisor: 4
GridSize: 4
TimelineZoom: 1.9

[Metadata]
Title:intro
TitleUnicode:intro
Artist:Neople
ArtistUnicode:Neople
Creator:SuperDalouBot
Version:Collab Easy
Source:던전앤파이터
Tags:Dungeon and Fighter Online DNF DFO MMORPG opening comic bgm Nexon Video Game Instrumental kanor Muziyami Kuse KuBsNia_ZhoYL_ SnowMagicK
BeatmapID:2404129
BeatmapSetID:903515

[Difficulty]
HPDrainRate:3
CircleSize:3
OverallDifficulty:3
ApproachRate:4
SliderMultiplier:1
SliderTickRate:1

[Events]
//Background and Video events
0,0,"background.jpg",0,0
//Break Periods
//Storyboard Layer 0 (Background)
//Storyboard Layer 1 (Fail)
//Storyboard Layer 2 (Pass)
//Storyboard Layer 3 (Foreground)
//Storyboard Layer 4 (Overlay)
//Storyboard Sound Samples

[TimingPoints]
1400,582.52427184466,4,2,1,50,1,0
10720,-100,4,2,1,50,0,0
12613,-100,4,2,1,30,0,0
13050,-100,4,2,1,50,0,0
13924,-100,4,2,1,40,0,0
15089,-100,4,2,1,30,0,0
15380,-100,4,2,1,50,0,0
16545,-100,4,2,1,40,0,0
17710,-100,4,2,1,60,0,0
19895,-100,4,2,3,40,0,0
20040,-100,4,2,1,75,0,0
29069,-100,4,2,1,65,0,0
29361,-100,4,2,1,75,0,0
33584,-100,4,2,1,85,0,0
33730,-100,4,2,3,65,0,0
34021,-100,4,2,1,75,0,0
38244,-100,4,2,1,85,0,0
38681,-100,4,2,1,75,0,0
40574,-100,4,2,1,85,0,0
41011,-100,4,2,1,75,0,0
42904,-100,4,2,1,85,0,0
43050,-100,4,2,3,65,0,0
43341,-100,4,2,1,75,0,0
45234,-100,4,2,1,85,0,0
45671,-100,4,2,1,75,0,0
47565,-100,4,2,1,90,0,0
48147,-100,4,2,1,40,0,0
50332,-100,4,2,1,70,0,0
52079,-100,4,2,1,75,0,0
52662,-100,4,2,2,70,0,0
54409,-100,4,2,2,75,0,0
54992,-100,4,2,1,70,0,0
56739,-100,4,2,1,75,0,0
57322,-100,4,2,2,70,0,0
59361,-100,4,2,2,75,0,0
59652,-100,4,2,1,75,0,0
61545,-100,4,2,1,80,0,0
61982,-100,4,2,2,75,0,0
63875,-100,4,2,2,80,0,0
64312,-100,4,2,1,75,0,0
66205,-100,4,2,1,80,0,0
66642,-100,4,2,2,75,0,0
67807,-100,4,2,2,70,0,0
68390,-100,4,2,2,75,0,0
68681,-100,4,2,2,60,0,0
68972,-100,4,2,1,85,0,0
78001,-100,4,2,1,75,0,0
78147,-100,4,2,1,65,0,0
78293,-100,4,2,1,85,0,0
87322,-100,4,2,3,75,0,0
87613,-100,4,2,1,90,0,1
91108,-100,4,2,2,90,0,1
91836,-100,4,2,1,70,0,1
92273,-100,4,2,1,90,0,1
95768,-100,4,2,2,90,0,1
96933,-100,4,2,1,95,0,1
97225,-100,4,2,3,95,0,1
97516,-100,4,2,1,95,0,1
98099,-100,4,2,2,95,0,1
98390,-100,4,2,3,95,0,1
98681,-100,4,2,2,95,0,1
99264,-100,4,2,1,95,0,1
99555,-100,4,2,3,95,0,1
99846,-100,4,2,1,95,0,1
100429,-100,4,2,3,95,0,1
100866,-100,4,2,2,95,0,1
101594,-100,4,2,1,95,0,1
101885,-100,4,2,3,95,0,1
102176,-100,4,2,1,95,0,1
102759,-100,4,2,2,95,0,1
103050,-100,4,2,3,95,0,1
103341,-100,4,2,2,95,0,1
103924,-100,4,2,1,95,0,1
104215,-100,4,2,3,95,0,1
104506,-100,4,2,1,95,0,1
105089,-100,4,2,3,95,0,1
105526,-100,4,2,2,95,0,1
105817,-100,4,2,2,85,0,1
106254,-100,4,2,1,75,0,0
106545,-100,4,2,1,30,0,0
108001,-100,4,2,1,25,0,0
108584,-100,4,2,1,23,0,0
109166,-100,4,2,1,21,0,0
109749,-100,4,2,1,19,0,0
110332,-100,4,2,1,17,0,0
110914,-100,4,2,1,15,0,0

[Colours]
Combo1 : 158,62,255
Combo2 : 255,57,63
Combo3 : 57,156,255

[HitObjects]
109,126,10720,6,0,P|201:81|299:120,1,200,4|0,0:3|3:0,0:0:0:0:
325,203,12467,1,0,0:0:0:0:
362,295,13050,2,0,L|520:281,2,150,4|0|0,0:3|3:0|3:0,0:0:0:0:
278,350,15380,6,0,P|192:371|109:299,1,200,4|0,0:3|3:0,0:0:0:0:
142,210,17127,1,0,3:0:0:0:
55,160,17710,2,0,L|71:1,2,150,4|2|2,0:3|0:0|0:0,0:0:0:0:
142,210,20040,6,0,P|191:196|264:206,1,100,4|8,0:0|0:0,0:0:0:0:
300,277,21205,2,0,P|360:293|421:278,1,100,2|8,0:0|0:0,0:0:0:0:
462,212,22370,2,0,L|453:95,1,100,4|8,0:0|0:0,0:0:0:0:
386,38,23535,1,2,0:0:0:0:
314,107,24118,1,8,0:0:0:0:
238,41,24700,6,0,P|174:41|122:61,1,100,4|8,0:0|0:0,0:0:0:0:
105,145,25866,2,0,P|41:145|-11:125,1,100,2|8,0:0|0:0,0:0:0:0:
12,235,27031,2,0,L|21:353,2,100,4|8|2,0:0|0:0|0:0,0:0:0:0:
7,134,28778,1,8,0:0:0:0:
76,62,29361,5,4,0:0:0:0:
159,116,29943,2,0,L|283:99,2,100,8|2|8,0:0|0:3|0:0,0:0:0:0:
137,213,31691,1,4,0:0:0:0:
116,310,32273,2,0,L|-8:293,2,100,8|2|8,0:0|0:3|0:0,0:0:0:0:
212,283,34021,5,4,0:0:0:0:
308,256,34603,2,0,L|315:356,2,100,8|2|8,0:0|0:3|0:0,0:0:0:0:
239,182,36351,2,0,P|234:122|251:82,1,100,4|8,0:0|0:0,0:0:0:0:
328,25,37516,2,0,P|377:21|424:36,1,100,2|8,0:0|0:0,0:0:0:0:
368,120,38681,5,4,0:0:0:0:
285,174,39263,2,0,L|161:157,2,100,8|2|8,0:0|0:3|0:0,0:0:0:0:
325,265,41011,1,4,0:0:0:0:
363,357,41593,2,0,L|487:340,2,100,8|2|8,0:0|0:3|0:0,0:0:0:0:
264,342,43341,5,4,0:0:0:0:
166,319,43923,2,0,L|173:219,2,100,8|2|8,0:0|0:3|0:0,0:0:0:0:
74,358,45671,5,4,0:0:0:0:
10,281,46254,1,8,0:0:0:0:
60,195,46836,2,0,L|52:77,1,100,2|8,0:0|0:0,0:0:0:0:
127,27,48001,5,4,0:0:0:0:
7,242,50332,6,0,P|90:306|160:250,1,200,4|2,0:0|0:0,0:0:0:0:
150,161,52079,1,2,0:3:0:0:
142,61,52662,2,0,P|223:15|291:79,1,200,4|2,0:0|0:0,0:0:0:0:
296,179,54409,1,2,0:3:0:0:
219,243,54992,6,0,P|242:343|336:348,1,200,4|2,0:0|0:0,0:0:0:0:
392,277,56739,1,2,0:3:0:0:
404,178,57322,2,0,P|355:182|315:212,1,100,4|0,0:0|0:0,0:0:0:0:
219,243,58487,1,4,0:3:0:0:
194,146,59069,1,2,0:3:0:0:
286,106,59652,6,0,P|259:69|208:46,2,100,4|8|2,0:0|0:0|0:0,0:0:0:0:
194,146,61399,1,10,0:0:0:0:
102,186,61982,2,0,P|65:220|49:272,2,100,4|8|2,0:0|0:0|0:0,0:0:0:0:
150,274,63729,1,10,0:0:0:0:
247,295,64312,6,0,P|279:340|336:358,2,100,4|8|2,0:0|0:0|0:0,0:0:0:0:
340,259,66059,1,8,0:0:0:0:
432,221,66642,2,0,L|438:107,1,100,4|8,0:0|0:0,0:0:0:0:
381,37,67807,1,6,0:3:0:0:
280,31,68390,1,8,0:0:0:0:
192,80,68972,6,0,P|138:92|78:83,1,100,4|10,0:0|0:0,0:0:0:0:
24,160,70137,2,0,L|32:281,1,100,2|10,0:0|0:0,0:0:0:0:
68,352,71302,2,0,P|113:315|127:269,1,100,4|10,0:0|0:0,0:0:0:0:
172,188,72467,1,2,0:0:0:0:
265,223,73050,1,10,0:0:0:0:
346,165,73633,6,0,L|354:61,1,100,4|10,0:0|0:0,0:0:0:0:
451,45,74798,2,0,L|459:149,1,100,4|10,0:0|0:0,0:0:0:0:
418,236,75963,2,0,L|410:340,2,100,4|10|4,0:0|0:0|0:3,0:0:0:0:
346,165,77710,1,10,0:0:0:0:
265,106,78293,6,0,P|212:102|161:114,1,100,4|10,0:0|0:0,0:0:0:0:
89,175,79458,2,0,L|94:297,1,100,2|10,0:0|0:0,0:0:0:0:
171,337,80623,2,0,P|219:310|285:303,1,100,4|10,0:0|0:0,0:0:0:0:
352,346,81788,1,2,0:0:0:0:
432,287,82370,1,10,0:0:0:0:
402,191,82953,6,0,L|298:183,1,100,4|10,0:0|0:0,0:0:0:0:
281,85,84118,2,0,L|385:77,1,100,4|10,0:0|0:0,0:0:0:0:
472,119,85283,2,0,P|482:70|460:13,2,100,4|10|4,0:0|0:0|0:3,0:0:0:0:
402,191,87030,1,10,0:0:0:0:
354,279,87613,6,0,P|303:265|245:277,1,100,4|10,0:0|0:0,0:0:0:0:
171,323,88778,2,0,P|158:269|172:223,1,100,2|10,0:0|0:0,0:0:0:0:
226,144,89943,1,4,0:0:0:0:
154,73,90526,1,8,0:0:0:0:
233,12,91108,2,0,L|346:13,1,100,4|8,0:0|0:0,0:0:0:0:
420,61,92273,6,0,P|400:129|411:174,1,100,4|10,0:0|0:0,0:0:0:0:
462,237,93438,2,0,P|482:305|471:348,1,100,4|10,0:0|0:0,0:0:0:0:
386,374,94603,1,4,0:0:0:0:
306,313,95186,1,10,0:0:0:0:
223,369,95768,2,0,L|114:366,1,100,4|10,0:0|0:0,0:0:0:0:
72,280,96933,5,4,0:0:0:0:
82,180,97516,1,8,0:0:0:0:
92,80,98099,2,0,L|33:42,2,50,4|0|8,0:0|0:0|0:0,0:0:0:0:
176,133,99264,5,4,0:0:0:0:
275,120,99847,1,8,0:0:0:0:
375,107,100430,2,0,L|399:46,2,50,4|0|8,0:0|0:0|0:0,0:0:0:0:
337,199,101594,5,4,0:0:0:0:
237,212,102177,1,8,0:0:0:0:
138,225,102760,2,0,L|107:165,2,50,4|0|8,0:0|0:0|0:0,0:0:0:0:
181,315,103924,6,0,P|237:304|294:327,1,100,4|8,0:0|0:0,0:0:0:0:
376,329,105089,2,0,L|367:402,2,50,4|0|8,0:0|0:0|0:0,0:0:0:0:
389,229,106254,1,4,0:0:0:0:
256,192,106545,12,0,110914,0:0:0:0:
