osu file format v14

[General]
AudioFilename: audio.mp3
AudioLeadIn: 0
PreviewTime: -1
Countdown: 0
SampleSet: None
StackLeniency: 0.7
Mode: 0
LetterboxInBreaks: 0
WidescreenStoryboard: 0

[Editor]
DistanceSpacing: 2
BeatDivisor: 4
GridSize: 4
TimelineZoom: 1

[Metadata]
Title:Entertain Me
TitleUnicode:Entertain Me
Artist:Neon
ArtistUnicode:Neon
Creator:Mark416IX
Version:Easy
Source:
Tags:
BeatmapID:3613453
BeatmapSetID:1765278

[Difficulty]
HPDrainRate:5
CircleSize:5
OverallDifficulty:5
ApproachRate:5
SliderMultiplier:1.4
SliderTickRate:1

[Events]
//Background and Video events
Video,0,"Spark - Neon Agent Trailer __ VALORANT.mp4"
//Break Periods
2,44309,47717
2,89598,104255
//Storyboard Layer 0 (Background)
//Storyboard Layer 1 (Fail)
//Storyboard Layer 2 (Pass)
//Storyboard Layer 3 (Foreground)
//Storyboard Layer 4 (Overlay)
//Storyboard Sound Samples

[TimingPoints]
71.3746721139322,384.615384615385,4,1,0,100,1,0

[HitObjects]
256,192,42282,12,0,44109,2:2:0:0:
256,192,48917,12,0,50071,2:2:0:0:
414,122,52475,5,0,2:2:0:0:
65,117,52859,1,0,2:2:0:0:
402,100,53436,2,0,L|412:332,1,210,0|0,2:2|2:2,2:2:0:0:
107,124,54782,5,0,2:2:0:0:
410,104,55263,1,0,2:2:0:0:
119,64,55648,2,0,L|127:338,1,245,0|0,2:2|2:2,2:2:0:0:
355,89,57186,5,0,2:2:0:0:
101,91,57571,1,0,2:2:0:0:
388,82,57955,2,0,L|394:307,1,210,0|0,2:2|2:2,2:2:0:0:
122,107,59494,5,0,2:2:0:0:
370,96,59879,1,0,2:2:0:0:
122,73,60359,2,0,L|117:366,1,280,0|0,2:2|2:2,2:2:0:0:
419,277,61898,5,0,2:2:0:0:
161,291,62282,1,0,2:2:0:0:
411,72,62859,2,0,L|407:314,1,210,0|0,2:2|2:2,2:2:0:0:
115,291,64205,5,0,2:2:0:0:
368,278,64590,1,0,2:2:0:0:
97,73,64975,2,0,L|93:300,1,210,0|0,2:2|2:2,2:2:0:0:
346,250,66513,5,0,2:2:0:0:
132,272,66898,1,0,2:2:0:0:
362,67,67282,2,0,L|371:303,1,210,0|0,2:2|2:2,2:2:0:0:
127,277,68917,5,0,2:2:0:0:
414,285,69302,1,0,2:2:0:0:
151,99,69686,2,0,L|144:299,1,175,0|0,2:2|2:2,2:2:0:0:
398,106,71129,5,0,2:2:0:0:
126,107,71609,1,0,2:2:0:0:
428,57,72090,2,0,L|401:316,1,245,0|0,2:2|2:2,2:2:0:0:
138,250,73532,5,0,2:2:0:0:
369,284,73821,1,0,2:2:0:0:
165,65,74205,2,0,L|82:333,1,280,0|0,2:2|2:2,2:2:0:0:
403,311,75744,5,0,2:2:0:0:
116,312,76129,1,0,2:2:0:0:
380,69,76513,2,0,L|432:301,1,210,0|0,2:2|2:2,2:2:0:0:
107,265,78148,5,0,2:2:0:0:
405,279,78532,1,0,2:2:0:0:
94,60,79013,2,0,L|341:283,1,315,0|0,2:2|2:2,2:2:0:0:
396,94,80552,5,0,2:2:0:0:
249,99,80840,1,0,2:2:0:0:
75,96,81225,1,0,2:2:0:0:
159,215,81994,1,0,2:2:0:0:
294,232,82186,1,0,2:2:0:0:
234,309,82379,1,0,2:2:0:0:
363,87,82859,1,0,2:2:0:0:
240,98,83148,1,0,2:2:0:0:
85,95,83532,2,0,L|274:303,1,280,0|0,2:2|2:2,2:2:0:0:
397,91,85071,1,0,2:2:0:0:
231,103,85455,1,0,2:2:0:0:
104,68,85936,2,0,L|191:344,1,280,0|0,2:2|2:2,2:2:0:0:
119,112,87475,1,0,2:2:0:0:
286,110,87955,1,0,2:2:0:0:
410,103,88244,2,0,L|396:326,1,210,0|0,2:2|2:2,2:2:0:0:
141,127,89398,5,0,2:2:0:0:
256,192,105455,12,0,107090,2:2:0:0:
374,105,108148,5,0,2:2:0:0:
191,100,108532,1,0,2:2:0:0:
73,86,109013,2,0,L|124:303,1,210,0|0,2:2|2:2,2:2:0:0:
416,74,110455,1,0,2:2:0:0:
193,75,110936,1,0,2:2:0:0:
94,77,111321,2,0,L|111:325,1,245,0|0,2:2|2:2,2:2:0:0:
352,89,112763,5,0,2:2:0:0:
206,92,113148,1,0,2:2:0:0:
73,93,113725,2,0,L|226:291,1,245,0|0,2:2|2:2,2:2:0:0:
86,100,115263,1,0,2:2:0:0:
285,110,115552,1,0,2:2:0:0:
456,51,116032,2,0,L|436:298,1,245,0|0,2:2|2:2,2:2:0:0:
384,288,117571,5,0,2:2:0:0:
129,287,117955,1,0,2:2:0:0:
423,58,118629,2,0,L|409:303,1,245,0|0,2:2|2:2,2:2:0:0:
150,278,119975,5,0,2:2:0:0:
452,298,120263,1,0,2:2:0:0:
127,91,120648,2,0,L|107:308,1,210,0|0,2:2|2:2,2:2:0:0:
408,289,121898,1,0,2:2:0:0:
88,293,122379,1,0,2:2:0:0:
384,46,123052,2,0,L|350:272,1,210,0|0,2:2|2:2,2:2:0:0:
256,192,124109,12,0,125936,2:2:0:0:
