osu file format v14

[General]
AudioFilename: audio.mp3
AudioLeadIn: 0
PreviewTime: 8075
Countdown: 0
SampleSet: Normal
StackLeniency: 0.7
Mode: 1
LetterboxInBreaks: 0
WidescreenStoryboard: 1

[Editor]
DistanceSpacing: 1.4
BeatDivisor: 9
GridSize: 16
TimelineZoom: 1.800001

[Metadata]
Title:Bailan Rochas y Chetas (Cut Ver.)
TitleUnicode:Bailan Rochas y Chetas (Cut Ver.)
Artist:Nene Malo
ArtistUnicode:Nene Malo
Creator:trollocat
Version:Dificil
Source:
Tags:spanish cumbia turra turro electronic me declaro culpable argentina argentinian Tina More Touch Me cachengue
BeatmapID:3174435
BeatmapSetID:1552446

[Difficulty]
HPDrainRate:7
CircleSize:2
OverallDifficulty:3
ApproachRate:2
SliderMultiplier:1.9
SliderTickRate:3

[Events]
//Background and Video events
0,0,"__yuuri_and_chito_shoujo_shuumatsu_ryokou_drawn_by_sakaki_imasato__4a41983f5121ce206ff10749a345ae99.jpg",0,115
//Break Periods
//Storyboard Layer 0 (Background)
//Storyboard Layer 1 (Fail)
//Storyboard Layer 2 (Pass)
//Storyboard Layer 3 (Foreground)
//Storyboard Layer 4 (Overlay)
//Storyboard Sound Samples

[TimingPoints]
8075,670.391061452514,4,1,0,90,1,0
8075,-88.65248227,4,1,0,90,0,0
9415,604.381767816671,4,1,0,90,1,8
9415,-98.32841691,4,1,0,90,0,0
11832,594.059405940594,4,1,0,90,1,8
12426,594.059405940594,4,1,0,90,1,1
21930,-100,4,1,0,90,0,0
29047,594.059405940594,4,1,0,90,1,0
30229,560.747663551403,4,1,0,90,1,8
30229,-106.382978723404,4,1,0,90,0,0
30789,600.000000000001,4,1,0,90,1,8
30789,-99.009900990099,4,1,0,90,0,0
31436,594.059405940594,4,1,0,90,1,1
31436,-100,4,1,0,90,0,1
57574,-90.9090909090909,4,1,0,90,0,0
57871,-83.3333333333333,4,1,0,90,0,0
59950,594.059405940594,4,1,0,90,1,8
61138,594.059405940594,4,1,0,90,1,1
68266,571.428571428571,4,1,0,90,1,1
68266,-104.166666666667,4,1,0,90,0,1
68837,600,4,1,0,90,1,9
68837,-99.009900990099,4,1,0,90,0,1
69454,594.059405940594,4,1,0,90,1,9
70642,594.059405940594,4,1,0,90,1,1
74206,-100,4,1,0,90,0,0
75394,-100,4,1,0,70,0,0
79213,-100,4,1,0,86,0,0
79383,-100,4,1,0,86,0,0
79552,-100,4,1,0,87,0,0
79685,-100,4,1,0,88,0,0
79816,-100,4,1,0,88,0,0
80146,-100,4,1,0,90,0,1
86087,-90.9090909090909,4,1,0,90,0,0
87275,594.059405940594,4,1,0,90,1,8
87730,468.75,4,1,0,90,1,8
87730,-117.647058823529,4,1,0,90,0,8
88198,468.75,4,1,0,90,1,1
88198,-117.647058823529,4,1,0,90,0,1
101323,594.059405940594,4,1,0,90,1,0
101323,-92.85051068,4,1,0,90,0,0
102511,-100,4,1,0,90,0,0
102659,-100,4,1,0,87,0,0
102808,-100,4,1,0,85,0,0
102956,-100,4,1,0,83,0,0
103105,-100,4,1,0,81,0,0
103253,-100,4,1,0,79,0,0
103402,-100,4,1,0,77,0,0
103550,-100,4,1,0,75,0,0
103699,-100,4,1,0,73,0,0
103847,-100,4,1,0,70,0,0
103996,-100,4,1,0,68,0,0
104144,-100,4,1,0,66,0,0
104293,-100,4,1,0,64,0,0
104441,-100,4,1,0,62,0,0
104590,-100,4,1,0,60,0,0
104738,-100,4,1,0,58,0,0
104887,-100,4,1,0,56,0,0
105035,-100,4,1,0,53,0,0
105184,-100,4,1,0,51,0,0
105332,-100,4,1,0,49,0,0
105481,-100,4,1,0,47,0,0
105629,-100,4,1,0,45,0,0
105778,-100,4,1,0,43,0,0
105926,-100,4,1,0,41,0,0
106075,-100,4,1,0,39,0,0
106223,-100,4,1,0,36,0,0
106372,-100,4,1,0,34,0,0
106521,-100,4,1,0,32,0,0
106669,-100,4,1,0,30,0,0
106818,-100,4,1,0,28,0,0
106966,-100,4,1,0,26,0,0
107115,-100,4,1,0,24,0,0
107263,-100,4,1,0,22,0,0
107412,-100,4,1,0,19,0,0
107560,-100,4,1,0,17,0,0
107709,-100,4,1,0,15,0,0
107857,-100,4,1,0,13,0,0
108006,-100,4,1,0,11,0,0
108154,-100,4,1,0,9,0,0
108303,-100,4,1,0,7,0,0
108451,-100,4,1,0,5,0,0

[HitObjects]
353,315,8075,5,4,0:0:0:0:
297,274,9415,2,4,B|436:211|436:211|-17:136|287:113|287:113|497:46,1,772.920015685785
349,358,12086,1,8,0:0:0:0:
349,358,12256,1,0,0:0:0:0:
349,358,12426,1,12,0:0:0:0:
349,358,12850,1,0,0:0:0:0:
349,358,13020,1,8,0:0:0:0:
346,354,13274,1,0,0:0:0:0:
350,358,13614,1,8,0:0:0:0:
343,353,14038,1,8,0:0:0:0:
349,358,14208,1,0,0:0:0:0:
349,358,14462,1,8,0:0:0:0:
348,358,14802,1,8,0:0:0:0:
343,353,15226,1,0,0:0:0:0:
343,353,15396,1,8,0:0:0:0:
343,353,15650,1,0,0:0:0:0:
343,353,15990,1,8,0:0:0:0:
343,353,16414,1,8,0:0:0:0:
343,353,16584,1,0,0:0:0:0:
343,353,16839,1,8,0:0:0:0:
343,353,17008,1,0,0:0:0:0:
343,353,17178,1,12,0:0:0:0:
343,353,17433,1,12,0:0:0:0:
330,340,17772,1,12,0:0:0:0:
330,340,18027,1,4,0:0:0:0:
330,340,18366,1,8,0:0:0:0:
330,340,18790,1,8,0:0:0:0:
330,340,18960,1,0,0:0:0:0:
330,340,19215,1,8,0:0:0:0:
330,340,19554,1,12,0:0:0:0:
332,267,19809,1,12,0:0:0:0:
332,267,20148,1,12,0:0:0:0:
261,211,20403,1,4,0:0:0:0:
250,227,20742,1,8,0:0:0:0:
281,156,21167,1,0,0:0:0:0:
336,217,21336,1,8,0:0:0:0:
362,236,21591,1,8,0:0:0:0:
301,269,21761,1,0,0:0:0:0:
301,269,21930,1,12,0:0:0:0:
260,203,22525,1,8,0:0:0:0:
260,203,22822,1,0,0:0:0:0:
260,203,23373,1,0,0:0:0:0:
260,203,23713,1,8,0:0:0:0:
301,269,24307,1,8,0:0:0:0:
260,203,24901,1,8,0:0:0:0:
260,203,25198,1,0,0:0:0:0:
260,203,25749,1,0,0:0:0:0:
260,203,26089,1,8,0:0:0:0:
281,241,26683,1,8,0:0:0:0:
275,154,27277,1,0,0:0:0:0:
272,145,27532,1,8,0:0:0:0:
251,189,27871,1,8,0:0:0:0:
272,145,27990,1,8,0:0:0:0:
272,145,28109,1,8,0:0:0:0:
252,189,28465,1,0,0:0:0:0:
411,154,28720,1,8,0:0:0:0:
324,280,29047,1,8,0:0:0:0:
271,287,29195,1,0,0:0:0:0:
271,287,29301,1,8,0:0:0:0:
423,168,29641,1,8,0:0:0:0:
324,202,29895,1,0,0:0:0:0:
295,214,30229,1,8,0:0:0:0:
295,214,30509,1,8,0:0:0:0:
295,214,30789,1,0,0:0:0:0:
295,214,31089,1,0,0:0:0:0:
296,205,31436,1,4,0:0:0:0:
381,176,31860,1,8,0:0:0:0:
269,258,32030,1,4,0:0:0:0:
266,184,32284,1,8,0:0:0:0:
268,256,32624,1,0,0:0:0:0:
391,213,33048,1,8,0:0:0:0:
268,256,33218,1,0,0:0:0:0:
391,213,33472,1,8,0:0:0:0:
268,255,33812,1,4,0:0:0:0:
367,132,34066,1,8,0:0:0:0:
380,196,34236,1,8,0:0:0:0:
268,253,34406,1,4,0:0:0:0:
286,289,34660,1,8,0:0:0:0:
268,253,35000,1,0,0:0:0:0:
391,213,35424,1,8,0:0:0:0:
268,253,35594,1,0,0:0:0:0:
391,213,35849,1,8,0:0:0:0:
296,205,36188,1,4,0:0:0:0:
381,176,36612,1,8,0:0:0:0:
269,258,36782,1,4,0:0:0:0:
266,184,37037,1,8,0:0:0:0:
268,256,37376,1,0,0:0:0:0:
391,213,37800,1,8,0:0:0:0:
268,256,37970,1,0,0:0:0:0:
391,213,38225,1,8,0:0:0:0:
268,255,38564,1,4,0:0:0:0:
367,132,38819,1,8,0:0:0:0:
380,196,38989,1,8,0:0:0:0:
268,253,39158,1,4,0:0:0:0:
286,289,39413,1,8,0:0:0:0:
268,253,39752,1,0,0:0:0:0:
391,213,39884,1,8,0:0:0:0:
391,213,40177,1,8,0:0:0:0:
391,213,40478,1,8,0:0:0:0:
391,213,40610,1,8,0:0:0:0:
313,272,40742,1,8,0:0:0:0:
296,205,40940,1,4,0:0:0:0:
381,176,41365,1,8,0:0:0:0:
266,184,41789,1,0,0:0:0:0:
311,203,41959,1,0,0:0:0:0:
268,256,42129,1,8,0:0:0:0:
391,213,42553,1,0,0:0:0:0:
268,256,42723,1,8,0:0:0:0:
391,213,42977,1,0,0:0:0:0:
296,205,43317,1,0,0:0:0:0:
381,176,43741,1,8,0:0:0:0:
266,184,44165,1,0,0:0:0:0:
266,184,44335,1,0,0:0:0:0:
268,256,44505,1,8,0:0:0:0:
391,213,44929,1,0,0:0:0:0:
268,256,45099,1,8,0:0:0:0:
410,108,45231,1,8,0:0:0:0:
391,213,45363,1,8,0:0:0:0:
296,205,45693,1,0,0:0:0:0:
381,176,46117,1,8,0:0:0:0:
266,184,46542,1,0,0:0:0:0:
311,203,46711,1,0,0:0:0:0:
268,256,46881,1,8,0:0:0:0:
391,213,47305,1,0,0:0:0:0:
268,256,47475,1,8,0:0:0:0:
391,213,47730,1,0,0:0:0:0:
296,205,48069,1,0,0:0:0:0:
381,176,48493,1,8,0:0:0:0:
266,184,48918,1,0,0:0:0:0:
311,203,49088,1,0,0:0:0:0:
268,256,49257,1,8,0:0:0:0:
384,309,49682,1,0,0:0:0:0:
268,256,49851,1,8,0:0:0:0:
391,213,50106,1,0,0:0:0:0:
296,205,50445,1,8,0:0:0:0:
373,93,50577,1,0,0:0:0:0:
337,245,50709,1,0,0:0:0:0:
269,258,51039,1,8,0:0:0:0:
266,184,51303,1,8,0:0:0:0:
391,213,51766,1,8,0:0:0:0:
301,173,51898,1,0,0:0:0:0:
391,213,52030,1,8,0:0:0:0:
268,256,52228,1,0,0:0:0:0:
391,213,52482,1,8,0:0:0:0:
274,189,52822,1,0,0:0:0:0:
274,189,52954,1,0,0:0:0:0:
274,189,53086,1,8,0:0:0:0:
250,190,53416,1,8,0:0:0:0:
249,212,53680,1,8,0:0:0:0:
391,213,54142,1,0,0:0:0:0:
301,173,54274,1,8,0:0:0:0:
391,213,54406,1,8,0:0:0:0:
268,256,54604,1,0,0:0:0:0:
391,213,54858,1,8,0:0:0:0:
296,205,55198,1,0,0:0:0:0:
373,93,55330,1,0,0:0:0:0:
337,245,55462,1,8,0:0:0:0:
269,258,55792,1,8,0:0:0:0:
266,184,56056,1,0,0:0:0:0:
391,213,56518,1,8,0:0:0:0:
297,263,56650,1,0,0:0:0:0:
391,213,56782,1,8,0:0:0:0:
391,213,57112,1,8,0:0:0:0:
391,213,57244,1,8,0:0:0:0:
391,213,57376,1,8,0:0:0:0:
391,213,57574,1,12,0:0:0:0:
256,192,57871,12,0,59356,0:0:0:0:
244,222,60374,5,0,0:0:0:0:
244,222,60544,1,8,0:0:0:0:
244,222,60643,1,0,0:0:0:0:
244,222,60798,1,8,0:0:0:0:
244,222,60968,1,0,0:0:0:0:
349,358,61138,1,12,0:0:0:0:
349,358,61562,1,0,0:0:0:0:
349,358,61732,1,8,0:0:0:0:
346,354,61986,1,0,0:0:0:0:
350,358,62326,1,0,0:0:0:0:
349,358,62458,1,8,0:0:0:0:
343,353,62750,1,8,0:0:0:0:
349,358,62920,1,0,0:0:0:0:
349,358,63174,1,8,0:0:0:0:
349,358,63514,1,8,0:0:0:0:
349,358,63938,1,0,0:0:0:0:
349,358,64108,1,8,0:0:0:0:
346,354,64362,1,8,0:0:0:0:
350,358,64702,1,0,0:0:0:0:
349,358,64834,1,8,0:0:0:0:
244,222,65126,1,0,0:0:0:0:
244,222,65296,1,8,0:0:0:0:
244,222,65395,1,0,0:0:0:0:
244,222,65551,1,8,0:0:0:0:
244,222,65720,1,0,0:0:0:0:
349,358,65890,1,8,0:0:0:0:
349,358,66314,1,0,0:0:0:0:
349,358,66484,1,8,0:0:0:0:
346,354,66739,1,0,0:0:0:0:
350,358,67078,1,0,0:0:0:0:
349,358,67210,1,8,0:0:0:0:
343,353,67502,1,8,0:0:0:0:
349,358,67672,1,0,0:0:0:0:
349,358,67927,1,8,0:0:0:0:
300,195,68266,1,12,0:0:0:0:
270,181,68551,1,8,0:0:0:0:
218,100,68837,1,8,0:0:0:0:
218,100,69137,1,8,0:0:0:0:
215,211,69454,1,4,0:0:0:0:
214,211,69751,1,4,0:0:0:0:
214,210,70048,1,4,0:0:0:0:
226,122,70642,1,12,0:0:0:0:
298,209,71066,1,0,0:0:0:0:
298,209,71236,1,0,0:0:0:0:
398,161,71490,1,8,0:0:0:0:
384,188,71830,1,0,0:0:0:0:
328,227,71962,1,8,0:0:0:0:
118,82,72254,1,8,0:0:0:0:
322,218,72424,1,0,0:0:0:0:
322,218,72678,1,8,0:0:0:0:
250,160,73018,1,8,0:0:0:0:
241,148,73282,1,8,0:0:0:0:
397,243,73442,1,0,0:0:0:0:
229,149,73612,1,0,0:0:0:0:
236,184,73866,1,8,0:0:0:0:
286,292,74206,1,4,0:0:0:0:
274,273,75394,5,0,0:0:0:0:
327,207,75818,1,0,0:0:0:0:
299,218,75988,1,0,0:0:0:0:
342,187,76243,1,8,0:0:0:0:
263,207,76714,1,8,0:0:0:0:
389,166,77006,1,0,0:0:0:0:
280,261,77176,1,0,0:0:0:0:
280,261,77431,1,8,0:0:0:0:
274,278,77770,1,8,0:0:0:0:
345,262,78025,1,8,0:0:0:0:
384,184,78195,1,0,0:0:0:0:
307,215,78364,1,0,0:0:0:0:
266,242,78619,1,8,0:0:0:0:
220,248,79213,1,8,0:0:0:0:
287,277,79383,1,0,0:0:0:0:
250,250,79552,1,0,0:0:0:0:
256,276,79816,1,8,0:0:0:0:
256,276,80146,1,4,0:0:0:0:
312,187,80571,1,8,0:0:0:0:
234,298,80741,1,0,0:0:0:0:
306,193,80995,1,8,0:0:0:0:
234,297,81335,1,0,0:0:0:0:
274,219,81467,1,8,0:0:0:0:
323,227,81759,1,8,0:0:0:0:
234,297,81929,1,0,0:0:0:0:
234,297,82523,1,0,0:0:0:0:
299,235,82787,1,8,0:0:0:0:
301,228,82947,1,8,0:0:0:0:
234,297,83117,1,0,0:0:0:0:
303,227,83371,1,8,0:0:0:0:
234,297,83711,1,0,0:0:0:0:
306,220,83843,1,8,0:0:0:0:
302,209,84135,1,8,0:0:0:0:
234,297,84305,1,0,0:0:0:0:
297,224,84437,1,8,0:0:0:0:
297,224,84569,1,8,0:0:0:0:
215,292,84899,1,0,0:0:0:0:
327,228,85323,1,8,0:0:0:0:
209,292,85493,1,0,0:0:0:0:
245,185,85748,1,8,0:0:0:0:
256,192,86087,8,0,87730,0:0:0:0:
403,136,87964,5,0,0:0:0:0:
398,152,88081,1,0,0:0:0:0:
237,268,88198,1,8,0:0:0:0:
254,227,88432,1,0,0:0:0:0:
227,248,88666,1,8,0:0:0:0:
289,232,88901,1,8,0:0:0:0:
234,267,89369,1,0,0:0:0:0:
300,302,89604,1,8,0:0:0:0:
322,319,89838,1,0,0:0:0:0:
234,267,90073,1,8,0:0:0:0:
246,283,90307,1,0,0:0:0:0:
235,283,90541,1,8,0:0:0:0:
302,214,90776,1,8,0:0:0:0:
256,289,91244,1,0,0:0:0:0:
298,303,91479,1,8,0:0:0:0:
327,290,91713,1,0,0:0:0:0:
250,292,91948,1,8,0:0:0:0:
332,290,92182,1,0,0:0:0:0:
326,290,92416,1,8,0:0:0:0:
300,218,92651,1,8,0:0:0:0:
273,310,93119,1,0,0:0:0:0:
298,303,93354,1,8,0:0:0:0:
273,310,93588,1,0,0:0:0:0:
286,305,93823,1,8,0:0:0:0:
286,305,93940,1,0,0:0:0:0:
286,305,94057,1,8,0:0:0:0:
292,302,94291,1,8,0:0:0:0:
292,302,94526,1,0,0:0:0:0:
292,302,94760,1,8,0:0:0:0:
292,302,94994,1,8,0:0:0:0:
292,302,95229,1,8,0:0:0:0:
292,302,95463,1,0,0:0:0:0:
394,184,95580,1,0,0:0:0:0:
290,316,95698,1,8,0:0:0:0:
301,298,95932,1,0,0:0:0:0:
301,298,96166,1,8,0:0:0:0:
305,207,96401,1,8,0:0:0:0:
301,298,96869,1,0,0:0:0:0:
312,236,97104,1,8,0:0:0:0:
301,298,97338,1,0,0:0:0:0:
301,298,97573,1,8,0:0:0:0:
307,299,97807,1,0,0:0:0:0:
307,299,98041,1,8,0:0:0:0:
314,221,98276,1,8,0:0:0:0:
307,299,98744,1,0,0:0:0:0:
315,252,98979,1,8,0:0:0:0:
307,299,99213,1,0,0:0:0:0:
307,299,99448,1,8,0:0:0:0:
315,285,99682,1,0,0:0:0:0:
311,285,99916,1,8,0:0:0:0:
316,220,100151,1,8,0:0:0:0:
310,285,100619,1,0,0:0:0:0:
331,281,100854,1,8,0:0:0:0:
310,285,101088,1,0,0:0:0:0:
318,284,101323,1,8,0:0:0:0:
271,250,101492,1,0,0:0:0:0:
271,250,101587,1,8,0:0:0:0:
271,250,101917,1,8,0:0:0:0:
320,208,102171,1,0,0:0:0:0:
256,192,102511,8,0,108451,0:0:0:0:
