osu file format v14

[General]
AudioFilename: zenithalize.mp3
AudioLeadIn: 0
PreviewTime: 51600
Countdown: 0
SampleSet: Soft
StackLeniency: 0.7
Mode: 3
LetterboxInBreaks: 0
SpecialStyle: 0
WidescreenStoryboard: 0

[Editor]
DistanceSpacing: 1
BeatDivisor: 4
GridSize: 8
TimelineZoom: 2.1

[Metadata]
Title:ZENITHALIZE (bms edit)
TitleUnicode:ZENITHALIZE (bms edit)
Artist:Nene Agenasaki
ArtistUnicode:姉ヶ崎 寧々
Creator:Identikit
Version:Normal
Source:BOF2009
Tags:THE BMS OF FIGHTERS 2009 revolutionary battles void photonskyto コツキミヤ えば Rilene Full On Electronic Instrumental Lanota
BeatmapID:750828
BeatmapSetID:323191

[Difficulty]
HPDrainRate:7
CircleSize:7
OverallDifficulty:7
ApproachRate:5
SliderMultiplier:1.4
SliderTickRate:1

[Events]
//Background and Video events
0,0,"00l.jpg",0,0
Video,-1264,"bga.flv"
//Break Periods
//Storyboard Layer 0 (Background)
//Storyboard Layer 1 (Fail)
//Storyboard Layer 2 (Pass)
//Storyboard Layer 3 (Foreground)
//Storyboard Layer 4 (Overlay)
//Storyboard Sound Samples

[TimingPoints]
400,400,4,2,0,32,1,0
128400,-100,4,2,0,32,0,1
141200,-100,4,2,0,32,0,0

[HitObjects]
256,192,400,5,0,0:0:0:0:
256,192,1200,1,0,0:0:0:0:
256,192,2566,132,0,5200:0:0:0:0:
475,192,6800,5,0,0:0:0:0:
109,192,7400,128,0,7600:0:0:0:0:
402,192,9000,128,0,9200:0:0:0:0:
109,192,10600,128,0,10800:0:0:0:0:
256,192,12200,128,2,12400:0:0:0:0:
475,192,12400,1,2,0:0:0:0:
329,192,12700,1,2,0:0:0:0:
182,192,13000,1,2,0:0:0:0:
36,192,13200,1,2,0:0:0:0:
402,192,13600,1,0,0:0:0:0:
36,192,14000,1,0,0:0:0:0:
402,192,14400,1,0,0:0:0:0:
109,192,14800,1,0,0:0:0:0:
475,192,15200,1,0,0:0:0:0:
109,192,15600,1,0,0:0:0:0:
475,192,16000,1,0,0:0:0:0:
329,192,16400,1,0,0:0:0:0:
36,192,16800,1,0,0:0:0:0:
402,192,17200,1,0,0:0:0:0:
36,192,17600,1,0,0:0:0:0:
475,192,18000,1,0,0:0:0:0:
109,192,18400,1,0,0:0:0:0:
475,192,18800,1,0,0:0:0:0:
109,192,19200,1,0,0:0:0:0:
256,192,19400,1,0,0:0:0:0:
402,192,19600,1,0,0:0:0:0:
182,192,19800,1,0,0:0:0:0:
402,192,20000,1,0,0:0:0:0:
182,192,20200,1,0,0:0:0:0:
475,192,20400,1,0,0:0:0:0:
109,192,20600,1,0,0:0:0:0:
475,192,20800,1,0,0:0:0:0:
109,192,21000,1,0,0:0:0:0:
329,192,21200,1,0,0:0:0:0:
36,192,21400,1,0,0:0:0:0:
329,192,21600,1,0,0:0:0:0:
36,192,21800,1,0,0:0:0:0:
475,192,22000,1,0,0:0:0:0:
182,192,22200,1,0,0:0:0:0:
475,192,22400,1,0,0:0:0:0:
182,192,22600,1,0,0:0:0:0:
109,192,22800,1,0,0:0:0:0:
402,192,23000,1,0,0:0:0:0:
109,192,23200,1,0,0:0:0:0:
402,192,23400,1,0,0:0:0:0:
256,192,23600,128,0,24400:0:0:0:0:
475,192,24400,128,8,24700:0:0:0:0:
36,192,24700,1,8,0:0:0:0:
182,192,24800,1,8,0:0:0:0:
402,192,25000,1,8,0:0:0:0:
256,192,25100,1,8,0:0:0:0:
109,192,25200,1,8,0:0:0:0:
475,192,25400,1,8,0:0:0:0:
36,192,25600,1,8,0:0:0:0:
182,192,25700,1,8,0:0:0:0:
329,192,25800,1,8,0:0:0:0:
475,192,25900,1,8,0:0:0:0:
36,192,26000,1,4,0:0:0:0:
36,192,26400,1,0,0:0:0:0:
256,192,26600,1,0,0:0:0:0:
36,192,26800,1,0,0:0:0:0:
36,192,27200,1,0,0:0:0:0:
182,192,27600,1,0,0:0:0:0:
182,192,28000,1,0,0:0:0:0:
256,192,28200,1,0,0:0:0:0:
182,192,28400,1,0,0:0:0:0:
182,192,28800,1,0,0:0:0:0:
329,192,29200,1,0,0:0:0:0:
329,192,29600,1,0,0:0:0:0:
256,192,29800,1,0,0:0:0:0:
329,192,30000,1,0,0:0:0:0:
329,192,30400,1,0,0:0:0:0:
475,192,30800,1,0,0:0:0:0:
475,192,31200,1,0,0:0:0:0:
256,192,31400,1,0,0:0:0:0:
475,192,31600,1,0,0:0:0:0:
475,192,32000,1,0,0:0:0:0:
182,192,32200,1,0,0:0:0:0:
109,192,32400,1,0,0:0:0:0:
329,192,32600,1,0,0:0:0:0:
109,192,32800,1,0,0:0:0:0:
329,192,33000,1,0,0:0:0:0:
182,192,33200,1,0,0:0:0:0:
402,192,33400,1,0,0:0:0:0:
182,192,33600,1,0,0:0:0:0:
402,192,33800,1,0,0:0:0:0:
475,192,34000,1,0,0:0:0:0:
36,192,34200,1,0,0:0:0:0:
475,192,34400,1,0,0:0:0:0:
36,192,34600,1,0,0:0:0:0:
402,192,34800,1,0,0:0:0:0:
256,192,35000,1,0,0:0:0:0:
402,192,35200,1,0,0:0:0:0:
256,192,35400,1,0,0:0:0:0:
109,192,35600,1,0,0:0:0:0:
475,192,35800,1,0,0:0:0:0:
109,192,36000,1,0,0:0:0:0:
475,192,36200,1,0,0:0:0:0:
329,192,36400,1,0,0:0:0:0:
36,192,36600,1,0,0:0:0:0:
329,192,36800,1,0,0:0:0:0:
36,192,37000,1,0,0:0:0:0:
402,192,37200,128,0,38000:0:0:0:0:
109,192,38000,128,0,38800:0:0:0:0:
36,192,38800,1,0,0:0:0:0:
402,192,39000,1,0,0:0:0:0:
36,192,39200,1,0,0:0:0:0:
402,192,39400,1,0,0:0:0:0:
36,192,39600,1,0,0:0:0:0:
402,192,39800,1,0,0:0:0:0:
36,192,40000,1,0,0:0:0:0:
402,192,40200,1,0,0:0:0:0:
109,192,40400,1,0,0:0:0:0:
475,192,40600,1,0,0:0:0:0:
109,192,40800,1,0,0:0:0:0:
475,192,41000,1,0,0:0:0:0:
109,192,41200,1,0,0:0:0:0:
475,192,41400,1,0,0:0:0:0:
109,192,41600,1,0,0:0:0:0:
329,192,41800,1,0,0:0:0:0:
475,192,42000,1,0,0:0:0:0:
109,192,42200,1,0,0:0:0:0:
475,192,42400,1,0,0:0:0:0:
109,192,42600,1,0,0:0:0:0:
475,192,42800,1,0,0:0:0:0:
109,192,43000,1,0,0:0:0:0:
475,192,43200,1,0,0:0:0:0:
109,192,43400,1,0,0:0:0:0:
402,192,43600,1,0,0:0:0:0:
36,192,43800,1,0,0:0:0:0:
402,192,44000,1,0,0:0:0:0:
36,192,44200,1,0,0:0:0:0:
402,192,44400,1,0,0:0:0:0:
36,192,44600,1,0,0:0:0:0:
402,192,44800,1,0,0:0:0:0:
182,192,45000,1,0,0:0:0:0:
109,192,45200,1,0,0:0:0:0:
329,192,45400,1,0,0:0:0:0:
109,192,45600,1,0,0:0:0:0:
329,192,45800,1,0,0:0:0:0:
109,192,46000,1,0,0:0:0:0:
329,192,46200,1,0,0:0:0:0:
109,192,46400,1,0,0:0:0:0:
329,192,46600,1,0,0:0:0:0:
182,192,46800,1,0,0:0:0:0:
402,192,47000,1,0,0:0:0:0:
182,192,47200,1,0,0:0:0:0:
402,192,47400,1,0,0:0:0:0:
182,192,47600,1,0,0:0:0:0:
402,192,47800,1,0,0:0:0:0:
182,192,48000,1,0,0:0:0:0:
329,192,48200,1,0,0:0:0:0:
475,192,48400,1,0,0:0:0:0:
256,192,48600,1,0,0:0:0:0:
36,192,48800,1,0,0:0:0:0:
256,192,49000,1,0,0:0:0:0:
475,192,49200,1,0,0:0:0:0:
256,192,49400,1,0,0:0:0:0:
36,192,49600,1,0,0:0:0:0:
256,192,49800,1,0,0:0:0:0:
475,192,50000,128,8,50300:0:0:0:0:
329,192,50300,1,8,0:0:0:0:
182,192,50400,1,8,0:0:0:0:
402,192,50600,1,8,0:0:0:0:
256,192,50700,1,8,0:0:0:0:
109,192,50800,1,8,0:0:0:0:
256,192,51000,1,8,0:0:0:0:
475,192,51200,1,8,0:0:0:0:
329,192,51300,1,8,0:0:0:0:
182,192,51400,1,8,0:0:0:0:
36,192,51500,1,8,0:0:0:0:
329,192,51600,1,4,0:0:0:0:
475,192,51800,1,0,0:0:0:0:
402,192,51900,1,0,0:0:0:0:
36,192,52100,1,0,0:0:0:0:
109,192,52200,1,0,0:0:0:0:
329,192,52400,1,0,0:0:0:0:
256,192,52500,1,0,0:0:0:0:
182,192,52700,1,0,0:0:0:0:
36,192,52900,1,0,0:0:0:0:
109,192,53000,1,0,0:0:0:0:
256,192,53300,1,0,0:0:0:0:
329,192,53400,1,0,0:0:0:0:
475,192,53600,1,0,0:0:0:0:
402,192,53800,1,0,0:0:0:0:
329,192,53900,1,0,0:0:0:0:
109,192,54100,1,0,0:0:0:0:
182,192,54300,1,0,0:0:0:0:
402,192,54400,1,0,0:0:0:0:
36,192,54600,1,0,0:0:0:0:
256,192,54800,1,0,0:0:0:0:
402,192,55000,1,0,0:0:0:0:
329,192,55100,1,0,0:0:0:0:
109,192,55300,1,0,0:0:0:0:
182,192,55400,1,0,0:0:0:0:
475,192,55600,1,0,0:0:0:0:
329,192,55700,1,0,0:0:0:0:
256,192,55900,1,0,0:0:0:0:
36,192,56100,1,0,0:0:0:0:
182,192,56200,1,0,0:0:0:0:
256,192,56500,1,0,0:0:0:0:
329,192,56600,1,0,0:0:0:0:
475,192,56800,1,0,0:0:0:0:
182,192,57000,1,0,0:0:0:0:
329,192,57100,1,0,0:0:0:0:
36,192,57300,1,0,0:0:0:0:
256,192,57500,1,0,0:0:0:0:
109,192,57600,1,0,0:0:0:0:
402,192,57800,1,0,0:0:0:0:
182,192,58000,1,0,0:0:0:0:
475,192,58200,1,0,0:0:0:0:
402,192,58300,1,0,0:0:0:0:
36,192,58500,1,0,0:0:0:0:
109,192,58600,1,0,0:0:0:0:
402,192,58800,1,0,0:0:0:0:
329,192,58900,1,0,0:0:0:0:
256,192,59100,1,0,0:0:0:0:
109,192,59300,1,0,0:0:0:0:
182,192,59400,1,0,0:0:0:0:
109,192,59700,1,0,0:0:0:0:
36,192,59800,1,0,0:0:0:0:
402,192,60000,1,0,0:0:0:0:
329,192,60200,1,0,0:0:0:0:
182,192,60300,1,0,0:0:0:0:
256,192,60500,1,0,0:0:0:0:
402,192,60700,1,0,0:0:0:0:
475,192,60800,1,0,0:0:0:0:
36,192,61000,1,0,0:0:0:0:
109,192,61200,1,0,0:0:0:0:
402,192,61400,1,0,0:0:0:0:
256,192,61500,1,0,0:0:0:0:
36,192,61700,1,0,0:0:0:0:
109,192,61800,1,0,0:0:0:0:
475,192,62000,1,0,0:0:0:0:
402,192,62100,1,0,0:0:0:0:
256,192,62300,1,0,0:0:0:0:
109,192,62500,1,0,0:0:0:0:
182,192,62600,1,0,0:0:0:0:
402,192,62900,1,0,0:0:0:0:
475,192,63000,1,0,0:0:0:0:
329,192,63200,1,0,0:0:0:0:
109,192,63400,1,0,0:0:0:0:
36,192,63500,1,0,0:0:0:0:
256,192,63700,1,0,0:0:0:0:
182,192,63900,1,0,0:0:0:0:
329,192,64000,1,0,0:0:0:0:
475,192,64200,1,0,0:0:0:0:
402,192,64400,1,4,0:0:0:0:
109,192,64400,1,0,0:0:0:0:
36,192,64800,1,0,0:0:0:0:
182,192,65200,1,0,0:0:0:0:
36,192,65600,1,0,0:0:0:0:
475,192,66000,1,0,0:0:0:0:
329,192,66400,1,0,0:0:0:0:
475,192,66800,1,0,0:0:0:0:
256,192,67200,1,0,0:0:0:0:
109,192,67600,1,4,0:0:0:0:
402,192,67600,1,0,0:0:0:0:
256,192,68000,1,0,0:0:0:0:
36,192,68400,1,0,0:0:0:0:
182,192,68800,1,0,0:0:0:0:
109,192,69200,1,0,0:0:0:0:
256,192,69600,1,0,0:0:0:0:
475,192,70000,1,0,0:0:0:0:
329,192,70400,1,0,0:0:0:0:
402,192,70800,1,0,0:0:0:0:
109,192,70800,1,4,0:0:0:0:
109,192,72400,1,4,0:0:0:0:
402,192,72400,1,0,0:0:0:0:
109,192,73600,1,0,0:0:0:0:
256,192,73700,1,0,0:0:0:0:
402,192,73800,1,0,0:0:0:0:
182,192,73900,1,0,0:0:0:0:
475,192,74000,1,0,0:0:0:0:
36,192,74000,1,4,0:0:0:0:
109,192,74800,1,4,0:0:0:0:
402,192,74800,1,0,0:0:0:0:
182,192,75600,1,4,0:0:0:0:
329,192,75600,1,0,0:0:0:0:
256,192,76000,1,4,0:0:0:0:
256,192,76400,1,4,0:0:0:0:
475,192,76700,1,0,0:0:0:0:
36,192,77000,1,0,0:0:0:0:
402,192,77200,1,0,0:0:0:0:
256,192,77600,1,0,0:0:0:0:
329,192,77800,1,0,0:0:0:0:
402,192,78800,1,0,0:0:0:0:
329,192,79400,1,0,0:0:0:0:
182,192,80000,1,0,0:0:0:0:
36,192,80400,1,0,0:0:0:0:
109,192,81600,1,0,0:0:0:0:
256,192,81800,1,0,0:0:0:0:
329,192,84000,1,0,0:0:0:0:
402,192,84200,1,0,0:0:0:0:
475,192,85200,1,0,0:0:0:0:
256,192,85800,1,0,0:0:0:0:
109,192,86400,1,0,0:0:0:0:
36,192,86800,1,0,0:0:0:0:
182,192,88000,1,0,0:0:0:0:
475,192,88200,128,0,90000:0:0:0:0:
36,192,90000,1,0,0:0:0:0:
182,192,90400,1,0,0:0:0:0:
402,192,90600,1,0,0:0:0:0:
329,192,91600,1,0,0:0:0:0:
256,192,92200,1,0,0:0:0:0:
182,192,92800,1,0,0:0:0:0:
36,192,93200,1,0,0:0:0:0:
109,192,94400,1,0,0:0:0:0:
182,192,94600,1,0,0:0:0:0:
256,192,96800,1,0,0:0:0:0:
402,192,97000,1,0,0:0:0:0:
475,192,98000,1,0,0:0:0:0:
329,192,98600,1,0,0:0:0:0:
182,192,99200,1,0,0:0:0:0:
36,192,99600,1,0,0:0:0:0:
109,192,100800,1,0,0:0:0:0:
402,192,101000,1,0,0:0:0:0:
475,192,102200,128,0,102800:0:0:0:0:
36,192,102800,1,4,0:0:0:0:
256,192,102900,1,0,0:0:0:0:
475,192,103200,1,0,0:0:0:0:
109,192,103600,1,0,0:0:0:0:
402,192,103800,1,0,0:0:0:0:
182,192,104000,1,0,0:0:0:0:
329,192,104200,1,0,0:0:0:0:
36,192,104400,1,0,0:0:0:0:
256,192,104500,1,0,0:0:0:0:
402,192,104800,1,0,0:0:0:0:
36,192,105200,1,0,0:0:0:0:
475,192,105400,1,0,0:0:0:0:
329,192,105600,1,0,0:0:0:0:
109,192,105800,1,0,0:0:0:0:
475,192,106000,1,0,0:0:0:0:
256,192,106100,1,0,0:0:0:0:
36,192,106400,1,0,0:0:0:0:
329,192,106800,1,0,0:0:0:0:
182,192,107000,1,0,0:0:0:0:
402,192,107200,1,0,0:0:0:0:
109,192,107400,1,0,0:0:0:0:
475,192,107600,1,0,0:0:0:0:
256,192,107700,1,0,0:0:0:0:
36,192,108000,1,0,0:0:0:0:
109,192,108400,1,0,0:0:0:0:
402,192,108600,1,0,0:0:0:0:
475,192,108800,1,0,0:0:0:0:
182,192,109000,1,0,0:0:0:0:
36,192,109200,1,4,0:0:0:0:
329,192,109200,128,0,109600:0:0:0:0:
475,192,109600,128,0,110000:0:0:0:0:
36,192,109600,1,0,0:0:0:0:
36,192,110000,1,0,0:0:0:0:
402,192,110200,1,0,0:0:0:0:
109,192,110400,1,0,0:0:0:0:
475,192,110600,1,0,0:0:0:0:
36,192,110800,128,0,111200:0:0:0:0:
256,192,110800,1,0,0:0:0:0:
182,192,111200,128,0,111600:0:0:0:0:
475,192,111200,1,0,0:0:0:0:
475,192,111600,1,0,0:0:0:0:
109,192,111800,1,0,0:0:0:0:
402,192,112000,1,0,0:0:0:0:
36,192,112200,1,0,0:0:0:0:
109,192,112400,128,0,112800:0:0:0:0:
475,192,112400,1,0,0:0:0:0:
402,192,112800,128,0,113200:0:0:0:0:
256,192,112800,1,0,0:0:0:0:
36,192,113200,1,0,0:0:0:0:
182,192,113400,1,0,0:0:0:0:
475,192,113600,1,0,0:0:0:0:
329,192,113800,1,0,0:0:0:0:
109,192,114000,1,0,0:0:0:0:
402,192,114200,1,0,0:0:0:0:
109,192,114400,1,0,0:0:0:0:
402,192,114600,1,0,0:0:0:0:
256,192,114800,128,0,115600:0:0:0:0:
36,192,115600,1,4,0:0:0:0:
475,192,115700,1,0,0:0:0:0:
109,192,115800,1,0,0:0:0:0:
402,192,115900,1,0,0:0:0:0:
182,192,116000,1,0,0:0:0:0:
329,192,116100,1,0,0:0:0:0:
109,192,116200,1,0,0:0:0:0:
402,192,116300,1,0,0:0:0:0:
36,192,116400,1,0,0:0:0:0:
475,192,116600,1,0,0:0:0:0:
109,192,116800,1,0,0:0:0:0:
402,192,117000,1,0,0:0:0:0:
36,192,117200,1,0,0:0:0:0:
182,192,117300,1,0,0:0:0:0:
329,192,117400,1,0,0:0:0:0:
475,192,117500,1,0,0:0:0:0:
109,192,117600,1,0,0:0:0:0:
256,192,117700,1,0,0:0:0:0:
402,192,117800,1,0,0:0:0:0:
36,192,117900,1,0,0:0:0:0:
182,192,118000,1,0,0:0:0:0:
329,192,118200,1,0,0:0:0:0:
475,192,118400,1,0,0:0:0:0:
256,192,118600,1,0,0:0:0:0:
402,192,118800,1,0,0:0:0:0:
329,192,118900,1,0,0:0:0:0:
182,192,119000,1,0,0:0:0:0:
109,192,119100,1,0,0:0:0:0:
475,192,119200,1,0,0:0:0:0:
402,192,119300,1,0,0:0:0:0:
109,192,119400,1,0,0:0:0:0:
36,192,119500,1,0,0:0:0:0:
256,192,119600,1,0,0:0:0:0:
402,192,119800,1,0,0:0:0:0:
109,192,120000,1,0,0:0:0:0:
256,192,120200,1,0,0:0:0:0:
329,192,120400,1,0,0:0:0:0:
182,192,120500,1,0,0:0:0:0:
402,192,120600,1,0,0:0:0:0:
109,192,120700,1,0,0:0:0:0:
475,192,120800,1,0,0:0:0:0:
36,192,120900,1,0,0:0:0:0:
402,192,121000,1,0,0:0:0:0:
109,192,121100,1,0,0:0:0:0:
329,192,121200,1,0,0:0:0:0:
182,192,121400,1,0,0:0:0:0:
256,192,121600,1,0,0:0:0:0:
329,192,121800,1,0,0:0:0:0:
475,192,122000,1,4,0:0:0:0:
402,192,122200,1,0,0:0:0:0:
329,192,122400,1,0,0:0:0:0:
256,192,122600,1,0,0:0:0:0:
36,192,122800,1,0,0:0:0:0:
109,192,123000,1,0,0:0:0:0:
182,192,123200,1,0,0:0:0:0:
256,192,123400,1,0,0:0:0:0:
329,192,123500,1,0,0:0:0:0:
402,192,123600,1,4,0:0:0:0:
36,192,123800,1,0,0:0:0:0:
475,192,124000,1,0,0:0:0:0:
109,192,124200,1,0,0:0:0:0:
402,192,124400,1,0,0:0:0:0:
36,192,124600,1,0,0:0:0:0:
256,192,124700,1,0,0:0:0:0:
475,192,124800,1,0,0:0:0:0:
109,192,125000,1,0,0:0:0:0:
402,192,125200,1,4,0:0:0:0:
256,192,125300,1,0,0:0:0:0:
109,192,125400,1,0,0:0:0:0:
329,192,125500,1,0,0:0:0:0:
475,192,125600,1,0,0:0:0:0:
182,192,125700,1,0,0:0:0:0:
36,192,125800,1,0,0:0:0:0:
256,192,125900,1,0,0:0:0:0:
402,192,126000,128,4,126800:0:0:0:0:
109,192,126800,128,6,128400:0:0:0:0:
475,192,128400,1,4,0:0:0:0:
182,192,128500,1,0,0:0:0:0:
329,192,128700,1,0,0:0:0:0:
36,192,128900,1,0,0:0:0:0:
402,192,129000,1,0,0:0:0:0:
109,192,129200,1,0,0:0:0:0:
475,192,129300,1,0,0:0:0:0:
329,192,129500,1,0,0:0:0:0:
182,192,129600,1,0,0:0:0:0:
36,192,129700,1,0,0:0:0:0:
256,192,129900,1,0,0:0:0:0:
402,192,130100,1,0,0:0:0:0:
109,192,130200,1,0,0:0:0:0:
329,192,130400,1,0,0:0:0:0:
36,192,130500,1,0,0:0:0:0:
402,192,130700,1,0,0:0:0:0:
256,192,130900,1,0,0:0:0:0:
109,192,131100,1,0,0:0:0:0:
329,192,131200,1,0,0:0:0:0:
182,192,131400,1,0,0:0:0:0:
475,192,131500,1,0,0:0:0:0:
329,192,131600,1,0,0:0:0:0:
36,192,131700,1,0,0:0:0:0:
256,192,131900,1,0,0:0:0:0:
109,192,132100,1,0,0:0:0:0:
402,192,132200,1,0,0:0:0:0:
475,192,132400,1,0,0:0:0:0:
182,192,132500,1,0,0:0:0:0:
402,192,132700,1,0,0:0:0:0:
256,192,132800,1,0,0:0:0:0:
109,192,132900,1,0,0:0:0:0:
36,192,133100,1,0,0:0:0:0:
182,192,133300,1,0,0:0:0:0:
402,192,133400,1,0,0:0:0:0:
475,192,133600,1,0,0:0:0:0:
109,192,133700,1,0,0:0:0:0:
36,192,133900,1,0,0:0:0:0:
329,192,134100,1,0,0:0:0:0:
109,192,134300,1,0,0:0:0:0:
402,192,134400,1,0,0:0:0:0:
182,192,134600,1,0,0:0:0:0:
475,192,134700,1,0,0:0:0:0:
256,192,134800,1,0,0:0:0:0:
109,192,134900,1,0,0:0:0:0:
329,192,135100,1,0,0:0:0:0:
36,192,135300,1,0,0:0:0:0:
182,192,135400,1,0,0:0:0:0:
329,192,135600,1,0,0:0:0:0:
475,192,135700,1,0,0:0:0:0:
402,192,135900,1,0,0:0:0:0:
182,192,136000,1,0,0:0:0:0:
109,192,136100,1,0,0:0:0:0:
36,192,136300,1,0,0:0:0:0:
256,192,136500,1,0,0:0:0:0:
402,192,136600,1,0,0:0:0:0:
182,192,136800,1,0,0:0:0:0:
329,192,136900,1,0,0:0:0:0:
475,192,137100,1,0,0:0:0:0:
402,192,137300,1,0,0:0:0:0:
109,192,137500,1,0,0:0:0:0:
182,192,137600,1,0,0:0:0:0:
329,192,137800,1,0,0:0:0:0:
402,192,137900,1,0,0:0:0:0:
256,192,138000,1,0,0:0:0:0:
36,192,138100,1,0,0:0:0:0:
475,192,138300,1,0,0:0:0:0:
329,192,138500,1,0,0:0:0:0:
109,192,138600,1,0,0:0:0:0:
402,192,138800,1,0,0:0:0:0:
182,192,138900,1,0,0:0:0:0:
36,192,139100,1,0,0:0:0:0:
475,192,139200,1,0,0:0:0:0:
256,192,139300,1,0,0:0:0:0:
109,192,139500,1,0,0:0:0:0:
256,192,139700,1,0,0:0:0:0:
475,192,139800,1,0,0:0:0:0:
329,192,140000,1,0,0:0:0:0:
36,192,140100,1,0,0:0:0:0:
182,192,140300,1,0,0:0:0:0:
329,192,140500,1,0,0:0:0:0:
109,192,140700,1,0,0:0:0:0:
402,192,140800,1,0,0:0:0:0:
36,192,141000,1,0,0:0:0:0:
475,192,141100,1,0,0:0:0:0:
256,192,141200,1,4,0:0:0:0:
182,192,141300,1,0,0:0:0:0:
109,192,141400,1,0,0:0:0:0:
36,192,141500,1,0,0:0:0:0:
475,192,141600,1,0,0:0:0:0:
402,192,141700,1,0,0:0:0:0:
329,192,141800,1,0,0:0:0:0:
256,192,141900,1,0,0:0:0:0:
36,192,142000,1,0,0:0:0:0:
402,192,142200,1,0,0:0:0:0:
109,192,142400,1,0,0:0:0:0:
475,192,142600,1,0,0:0:0:0:
36,192,142800,1,0,0:0:0:0:
109,192,142900,1,0,0:0:0:0:
182,192,143000,1,0,0:0:0:0:
329,192,143100,1,0,0:0:0:0:
475,192,143200,1,0,0:0:0:0:
402,192,143300,1,0,0:0:0:0:
256,192,143400,1,0,0:0:0:0:
109,192,143500,1,0,0:0:0:0:
329,192,143600,1,0,0:0:0:0:
475,192,143800,1,0,0:0:0:0:
182,192,144000,1,0,0:0:0:0:
36,192,144200,1,0,0:0:0:0:
475,192,144400,1,0,0:0:0:0:
329,192,144500,1,0,0:0:0:0:
182,192,144600,1,0,0:0:0:0:
36,192,144700,1,0,0:0:0:0:
402,192,144800,1,0,0:0:0:0:
256,192,144900,1,0,0:0:0:0:
109,192,145000,1,0,0:0:0:0:
475,192,145100,1,0,0:0:0:0:
36,192,145200,1,0,0:0:0:0:
402,192,145400,1,0,0:0:0:0:
109,192,145600,1,0,0:0:0:0:
329,192,145800,1,0,0:0:0:0:
36,192,146000,1,0,0:0:0:0:
182,192,146100,1,0,0:0:0:0:
475,192,146200,1,0,0:0:0:0:
329,192,146300,1,0,0:0:0:0:
109,192,146400,1,0,0:0:0:0:
256,192,146500,1,0,0:0:0:0:
402,192,146600,1,0,0:0:0:0:
182,192,146700,1,0,0:0:0:0:
475,192,146800,128,0,147000:0:0:0:0:
36,192,147000,128,0,147200:0:0:0:0:
475,192,147200,128,0,147400:0:0:0:0:
36,192,147400,128,0,147600:0:0:0:0:
182,192,147600,1,4,0:0:0:0:
329,192,147600,1,0,0:0:0:0:
256,192,147800,1,0,0:0:0:0:
402,192,148000,1,0,0:0:0:0:
109,192,148200,1,0,0:0:0:0:
256,192,148400,1,0,0:0:0:0:
36,192,148600,1,0,0:0:0:0:
475,192,148800,1,0,0:0:0:0:
402,192,149000,1,0,0:0:0:0:
256,192,149100,1,0,0:0:0:0:
109,192,149200,1,0,0:0:0:0:
329,192,149400,1,0,0:0:0:0:
182,192,149600,1,0,0:0:0:0:
256,192,149800,1,0,0:0:0:0:
109,192,150000,1,0,0:0:0:0:
475,192,150200,1,0,0:0:0:0:
256,192,150300,1,0,0:0:0:0:
36,192,150400,1,0,0:0:0:0:
402,192,150600,1,0,0:0:0:0:
109,192,150800,1,4,0:0:0:0:
109,192,151000,1,0,0:0:0:0:
182,192,151200,1,0,0:0:0:0:
182,192,151400,1,0,0:0:0:0:
402,192,151600,1,0,0:0:0:0:
402,192,151800,1,0,0:0:0:0:
329,192,152000,1,0,0:0:0:0:
329,192,152200,1,0,0:0:0:0:
36,192,152400,1,4,0:0:0:0:
182,192,152500,1,0,0:0:0:0:
36,192,152600,1,0,0:0:0:0:
182,192,152700,1,0,0:0:0:0:
475,192,152800,1,0,0:0:0:0:
329,192,152900,1,0,0:0:0:0:
475,192,153000,1,0,0:0:0:0:
329,192,153100,1,0,0:0:0:0:
109,192,153200,1,0,0:0:0:0:
182,192,153300,1,0,0:0:0:0:
109,192,153400,1,0,0:0:0:0:
182,192,153500,1,0,0:0:0:0:
402,192,153600,1,0,0:0:0:0:
329,192,153700,1,0,0:0:0:0:
402,192,153800,1,0,0:0:0:0:
329,192,153900,1,0,0:0:0:0:
256,192,154000,1,0,0:0:0:0:
182,192,154100,1,0,0:0:0:0:
