osu file format v14

[General]
AudioFilename: zenithalize.mp3
AudioLeadIn: 0
PreviewTime: 51600
Countdown: 0
SampleSet: Soft
StackLeniency: 0.7
Mode: 3
LetterboxInBreaks: 0
SpecialStyle: 0
WidescreenStoryboard: 0

[Editor]
DistanceSpacing: 1
BeatDivisor: 6
GridSize: 8
TimelineZoom: 2.4

[Metadata]
Title:ZENITHALIZE (bms edit)
TitleUnicode:ZENITHALIZE (bms edit)
Artist:Nene Agenasaki
ArtistUnicode:姉ヶ崎 寧々
Creator:Identikit
Version:Another
Source:BOF2009
Tags:THE BMS OF FIGHTERS 2009 revolutionary battles void photonskyto コツキミヤ えば Rilene Full On Electronic Instrumental Lanota
BeatmapID:750827
BeatmapSetID:323191

[Difficulty]
HPDrainRate:8.5
CircleSize:7
OverallDifficulty:8.5
ApproachRate:5
SliderMultiplier:1.4
SliderTickRate:1

[Events]
//Background and Video events
0,0,"00l.jpg",0,0
Video,-1264,"bga.flv"
//Break Periods
//Storyboard Layer 0 (Background)
//Storyboard Layer 1 (Fail)
//Storyboard Layer 2 (Pass)
//Storyboard Layer 3 (Foreground)
//Storyboard Layer 4 (Overlay)
//Storyboard Sound Samples

[TimingPoints]
400,400,4,2,0,32,1,0
128400,-100,4,2,0,32,0,1
141200,-100,4,2,0,32,0,0

[HitObjects]
256,192,400,5,0,0:0:0:0:
256,192,1200,1,0,0:0:0:0:
256,192,2566,128,0,5200:0:0:0:0:
256,192,6400,128,0,6800:0:0:0:0:
36,192,6800,1,0,0:0:0:0:
329,192,6900,1,0,0:0:0:0:
475,192,7000,1,0,0:0:0:0:
256,192,7200,1,0,0:0:0:0:
182,192,7400,1,0,0:0:0:0:
402,192,7400,1,0,0:0:0:0:
36,192,7500,1,0,0:0:0:0:
329,192,7700,1,0,0:0:0:0:
182,192,7800,1,0,0:0:0:0:
109,192,8000,1,0,0:0:0:0:
256,192,8100,1,0,0:0:0:0:
402,192,8200,1,0,0:0:0:0:
109,192,8500,1,0,0:0:0:0:
475,192,8600,1,0,0:0:0:0:
256,192,8800,1,0,0:0:0:0:
402,192,9000,1,0,0:0:0:0:
182,192,9000,1,0,0:0:0:0:
36,192,9100,1,0,0:0:0:0:
329,192,9300,1,0,0:0:0:0:
109,192,9400,1,0,0:0:0:0:
182,192,9600,1,0,0:0:0:0:
402,192,9700,1,0,0:0:0:0:
256,192,9800,1,0,0:0:0:0:
109,192,10100,1,0,0:0:0:0:
182,192,10200,1,0,0:0:0:0:
256,192,10400,1,0,0:0:0:0:
402,192,10600,1,0,0:0:0:0:
36,192,10600,1,0,0:0:0:0:
329,192,10700,1,0,0:0:0:0:
182,192,10900,1,0,0:0:0:0:
256,192,11000,1,0,0:0:0:0:
475,192,11200,1,0,0:0:0:0:
256,192,11300,1,0,0:0:0:0:
36,192,11400,1,0,0:0:0:0:
109,192,11700,1,0,0:0:0:0:
402,192,11800,1,0,0:0:0:0:
256,192,12000,1,0,0:0:0:0:
109,192,12200,1,0,0:0:0:0:
402,192,12200,1,2,0:0:0:0:
475,192,12300,1,2,0:0:0:0:
329,192,12400,1,2,0:0:0:0:
182,192,12700,1,2,0:0:0:0:
36,192,13000,1,2,0:0:0:0:
109,192,13200,1,2,0:0:0:0:
402,192,13200,1,4,0:0:0:0:
256,192,13200,1,0,0:0:0:0:
329,192,13300,1,0,0:0:0:0:
182,192,13400,1,0,0:0:0:0:
36,192,13600,1,0,0:0:0:0:
329,192,13600,1,0,0:0:0:0:
182,192,13800,1,0,0:0:0:0:
475,192,13800,1,0,0:0:0:0:
329,192,13900,1,0,0:0:0:0:
36,192,14000,1,0,0:0:0:0:
329,192,14100,1,0,0:0:0:0:
182,192,14200,1,0,0:0:0:0:
36,192,14400,1,0,0:0:0:0:
402,192,14400,1,0,0:0:0:0:
256,192,14500,1,0,0:0:0:0:
109,192,14600,1,0,0:0:0:0:
475,192,14800,1,0,0:0:0:0:
36,192,14900,1,0,0:0:0:0:
256,192,15000,1,0,0:0:0:0:
475,192,15200,1,0,0:0:0:0:
109,192,15200,1,0,0:0:0:0:
182,192,15400,1,0,0:0:0:0:
402,192,15400,1,0,0:0:0:0:
36,192,15500,1,0,0:0:0:0:
475,192,15600,1,0,0:0:0:0:
109,192,15700,1,0,0:0:0:0:
256,192,15800,1,0,0:0:0:0:
475,192,16000,1,0,0:0:0:0:
36,192,16000,1,0,0:0:0:0:
182,192,16100,1,0,0:0:0:0:
329,192,16200,1,0,0:0:0:0:
256,192,16400,1,0,0:0:0:0:
36,192,16500,1,0,0:0:0:0:
475,192,16600,1,0,0:0:0:0:
256,192,16800,1,0,0:0:0:0:
36,192,16800,1,0,0:0:0:0:
475,192,17000,1,0,0:0:0:0:
329,192,17000,1,0,0:0:0:0:
36,192,17100,1,0,0:0:0:0:
256,192,17200,1,0,0:0:0:0:
36,192,17300,1,0,0:0:0:0:
475,192,17400,1,0,0:0:0:0:
256,192,17600,1,0,0:0:0:0:
36,192,17600,1,0,0:0:0:0:
475,192,17700,1,0,0:0:0:0:
182,192,17800,1,0,0:0:0:0:
36,192,18000,1,0,0:0:0:0:
256,192,18100,1,0,0:0:0:0:
402,192,18200,1,0,0:0:0:0:
36,192,18400,1,0,0:0:0:0:
256,192,18400,1,0,0:0:0:0:
402,192,18600,1,0,0:0:0:0:
109,192,18600,1,0,0:0:0:0:
256,192,18700,1,0,0:0:0:0:
36,192,18800,1,0,0:0:0:0:
329,192,18900,1,0,0:0:0:0:
475,192,19000,1,0,0:0:0:0:
182,192,19200,1,0,0:0:0:0:
36,192,19300,1,0,0:0:0:0:
256,192,19400,1,0,0:0:0:0:
475,192,19500,1,0,0:0:0:0:
329,192,19600,1,0,0:0:0:0:
182,192,19700,1,0,0:0:0:0:
36,192,19800,1,0,0:0:0:0:
402,192,19800,1,0,0:0:0:0:
475,192,20000,1,0,0:0:0:0:
182,192,20000,1,0,0:0:0:0:
329,192,20200,1,0,0:0:0:0:
109,192,20200,1,0,0:0:0:0:
475,192,20300,1,0,0:0:0:0:
329,192,20400,1,0,0:0:0:0:
182,192,20500,1,0,0:0:0:0:
36,192,20600,1,0,0:0:0:0:
402,192,20600,1,0,0:0:0:0:
182,192,20800,1,0,0:0:0:0:
475,192,20800,1,0,0:0:0:0:
329,192,20900,1,0,0:0:0:0:
109,192,21000,1,0,0:0:0:0:
402,192,21000,1,0,0:0:0:0:
36,192,21200,1,0,0:0:0:0:
182,192,21300,1,0,0:0:0:0:
329,192,21400,1,0,0:0:0:0:
475,192,21400,1,0,0:0:0:0:
256,192,21600,1,0,0:0:0:0:
36,192,21600,1,0,0:0:0:0:
329,192,21800,1,0,0:0:0:0:
109,192,21800,1,0,0:0:0:0:
182,192,21900,1,0,0:0:0:0:
475,192,22000,1,0,0:0:0:0:
109,192,22100,1,0,0:0:0:0:
402,192,22200,1,0,0:0:0:0:
256,192,22200,1,0,0:0:0:0:
109,192,22400,1,0,0:0:0:0:
475,192,22400,1,0,0:0:0:0:
402,192,22500,1,0,0:0:0:0:
256,192,22600,1,0,0:0:0:0:
36,192,22600,1,0,0:0:0:0:
109,192,22800,1,0,0:0:0:0:
109,192,23000,1,0,0:0:0:0:
329,192,23000,1,0,0:0:0:0:
402,192,23200,1,0,0:0:0:0:
402,192,23400,1,0,0:0:0:0:
182,192,23400,1,0,0:0:0:0:
36,192,23600,1,0,0:0:0:0:
182,192,23700,1,0,0:0:0:0:
36,192,23800,1,0,0:0:0:0:
329,192,23800,1,0,0:0:0:0:
182,192,23900,1,0,0:0:0:0:
475,192,24000,1,0,0:0:0:0:
329,192,24100,1,0,0:0:0:0:
182,192,24200,1,0,0:0:0:0:
475,192,24200,1,0,0:0:0:0:
329,192,24300,1,0,0:0:0:0:
36,192,24400,1,2,0:0:0:0:
256,192,24500,1,2,0:0:0:0:
475,192,24600,1,2,0:0:0:0:
329,192,24700,1,2,0:0:0:0:
109,192,24800,1,2,0:0:0:0:
256,192,24900,1,2,0:0:0:0:
402,192,25000,1,2,0:0:0:0:
329,192,25100,1,2,0:0:0:0:
36,192,25200,1,2,0:0:0:0:
182,192,25300,1,2,0:0:0:0:
329,192,25400,1,2,0:0:0:0:
109,192,25500,1,2,0:0:0:0:
475,192,25600,1,10,0:0:0:0:
329,192,25700,1,10,0:0:0:0:
182,192,25800,1,10,0:0:0:0:
402,192,25900,1,10,0:0:0:0:
36,192,26000,1,0,0:0:0:0:
256,192,26000,1,4,0:0:0:0:
475,192,26100,128,0,26200:0:0:0:0:
182,192,26100,1,0,0:0:0:0:
329,192,26200,1,0,0:0:0:0:
36,192,26400,1,0,0:0:0:0:
329,192,26400,1,0,0:0:0:0:
182,192,26400,1,0,0:0:0:0:
256,192,26600,128,0,26800:0:0:0:0:
402,192,26600,1,0,0:0:0:0:
109,192,26700,1,0,0:0:0:0:
475,192,26800,1,0,0:0:0:0:
402,192,26900,1,0,0:0:0:0:
109,192,27000,1,0,0:0:0:0:
475,192,27200,1,0,0:0:0:0:
109,192,27200,1,0,0:0:0:0:
256,192,27300,1,0,0:0:0:0:
402,192,27400,1,0,0:0:0:0:
36,192,27600,1,0,0:0:0:0:
475,192,27700,128,0,27800:0:0:0:0:
329,192,27700,1,0,0:0:0:0:
182,192,27800,1,0,0:0:0:0:
36,192,28000,1,0,0:0:0:0:
329,192,28000,1,0,0:0:0:0:
256,192,28200,128,0,28400:0:0:0:0:
109,192,28200,1,0,0:0:0:0:
402,192,28300,1,0,0:0:0:0:
475,192,28400,1,0,0:0:0:0:
182,192,28500,1,0,0:0:0:0:
329,192,28600,1,0,0:0:0:0:
475,192,28800,1,0,0:0:0:0:
182,192,28800,1,0,0:0:0:0:
329,192,28900,1,0,0:0:0:0:
109,192,29000,1,0,0:0:0:0:
36,192,29200,1,0,0:0:0:0:
475,192,29300,128,0,29400:0:0:0:0:
182,192,29300,1,0,0:0:0:0:
329,192,29400,1,0,0:0:0:0:
36,192,29600,1,0,0:0:0:0:
182,192,29600,1,0,0:0:0:0:
256,192,29800,128,0,30000:0:0:0:0:
329,192,29800,1,0,0:0:0:0:
182,192,29900,1,0,0:0:0:0:
475,192,30000,1,0,0:0:0:0:
329,192,30100,1,0,0:0:0:0:
182,192,30200,1,0,0:0:0:0:
475,192,30400,1,0,0:0:0:0:
109,192,30400,1,0,0:0:0:0:
256,192,30500,1,0,0:0:0:0:
402,192,30600,1,0,0:0:0:0:
36,192,30800,1,0,0:0:0:0:
475,192,30900,128,0,31000:0:0:0:0:
256,192,30900,1,0,0:0:0:0:
329,192,31000,1,0,0:0:0:0:
36,192,31200,1,0,0:0:0:0:
182,192,31200,1,0,0:0:0:0:
256,192,31400,128,0,31600:0:0:0:0:
109,192,31400,1,0,0:0:0:0:
36,192,31500,1,0,0:0:0:0:
475,192,31600,1,0,0:0:0:0:
109,192,31700,1,0,0:0:0:0:
182,192,31800,1,0,0:0:0:0:
36,192,32000,1,0,0:0:0:0:
402,192,32000,1,0,0:0:0:0:
475,192,32100,1,0,0:0:0:0:
256,192,32100,1,0,0:0:0:0:
182,192,32200,1,0,0:0:0:0:
329,192,32200,1,0,0:0:0:0:
36,192,32300,1,0,0:0:0:0:
109,192,32400,1,0,0:0:0:0:
329,192,32500,1,0,0:0:0:0:
182,192,32500,1,0,0:0:0:0:
402,192,32600,1,0,0:0:0:0:
256,192,32700,1,0,0:0:0:0:
109,192,32800,1,0,0:0:0:0:
329,192,32900,1,0,0:0:0:0:
402,192,33000,1,0,0:0:0:0:
36,192,33000,1,0,0:0:0:0:
329,192,33100,1,0,0:0:0:0:
109,192,33200,1,0,0:0:0:0:
182,192,33300,1,0,0:0:0:0:
475,192,33400,1,0,0:0:0:0:
256,192,33500,1,0,0:0:0:0:
109,192,33600,1,0,0:0:0:0:
329,192,33700,1,0,0:0:0:0:
402,192,33800,1,0,0:0:0:0:
329,192,33900,1,0,0:0:0:0:
475,192,34000,1,0,0:0:0:0:
256,192,34100,1,0,0:0:0:0:
36,192,34100,1,0,0:0:0:0:
109,192,34200,1,0,0:0:0:0:
182,192,34300,1,0,0:0:0:0:
475,192,34400,1,0,0:0:0:0:
256,192,34500,1,0,0:0:0:0:
402,192,34600,1,0,0:0:0:0:
109,192,34600,1,0,0:0:0:0:
256,192,34700,1,0,0:0:0:0:
475,192,34800,1,0,0:0:0:0:
256,192,34900,1,0,0:0:0:0:
109,192,35000,1,0,0:0:0:0:
182,192,35100,1,0,0:0:0:0:
475,192,35200,1,0,0:0:0:0:
256,192,35300,1,0,0:0:0:0:
109,192,35400,1,0,0:0:0:0:
256,192,35500,1,0,0:0:0:0:
36,192,35600,1,0,0:0:0:0:
475,192,35700,1,0,0:0:0:0:
109,192,35700,1,0,0:0:0:0:
329,192,35800,1,0,0:0:0:0:
182,192,35900,1,0,0:0:0:0:
36,192,36000,1,0,0:0:0:0:
329,192,36100,1,0,0:0:0:0:
475,192,36200,1,0,0:0:0:0:
182,192,36200,1,0,0:0:0:0:
329,192,36300,1,0,0:0:0:0:
36,192,36400,1,0,0:0:0:0:
475,192,36500,1,0,0:0:0:0:
329,192,36600,1,0,0:0:0:0:
182,192,36700,1,0,0:0:0:0:
36,192,36800,1,0,0:0:0:0:
475,192,36900,1,0,0:0:0:0:
329,192,37000,1,0,0:0:0:0:
475,192,37100,1,0,0:0:0:0:
256,192,37200,1,0,0:0:0:0:
36,192,37300,1,0,0:0:0:0:
329,192,37400,1,0,0:0:0:0:
109,192,37500,1,0,0:0:0:0:
475,192,37600,1,0,0:0:0:0:
256,192,37700,1,0,0:0:0:0:
402,192,37800,1,0,0:0:0:0:
182,192,37900,1,0,0:0:0:0:
36,192,38000,1,0,0:0:0:0:
329,192,38100,1,0,0:0:0:0:
109,192,38200,1,0,0:0:0:0:
402,192,38300,1,0,0:0:0:0:
256,192,38400,1,0,0:0:0:0:
475,192,38500,1,0,0:0:0:0:
109,192,38600,1,0,0:0:0:0:
329,192,38700,1,0,0:0:0:0:
402,192,38800,1,0,0:0:0:0:
36,192,38800,1,0,0:0:0:0:
182,192,38800,1,4,0:0:0:0:
475,192,38866,1,0,0:0:0:0:
256,192,38933,1,0,0:0:0:0:
329,192,39000,1,0,0:0:0:0:
109,192,39066,1,0,0:0:0:0:
182,192,39133,1,0,0:0:0:0:
36,192,39200,1,0,0:0:0:0:
402,192,39200,1,0,0:0:0:0:
475,192,39266,1,0,0:0:0:0:
256,192,39333,1,0,0:0:0:0:
329,192,39400,1,0,0:0:0:0:
109,192,39466,1,0,0:0:0:0:
182,192,39533,1,0,0:0:0:0:
402,192,39600,1,0,0:0:0:0:
36,192,39600,1,0,0:0:0:0:
475,192,39666,1,0,0:0:0:0:
256,192,39733,1,0,0:0:0:0:
329,192,39800,1,0,0:0:0:0:
109,192,39866,1,0,0:0:0:0:
182,192,39933,1,0,0:0:0:0:
402,192,40000,1,0,0:0:0:0:
36,192,40000,1,0,0:0:0:0:
475,192,40066,1,0,0:0:0:0:
256,192,40133,1,0,0:0:0:0:
329,192,40200,1,0,0:0:0:0:
109,192,40266,1,0,0:0:0:0:
182,192,40333,1,0,0:0:0:0:
36,192,40400,1,0,0:0:0:0:
256,192,40400,1,0,0:0:0:0:
402,192,40466,1,0,0:0:0:0:
182,192,40533,1,0,0:0:0:0:
475,192,40600,1,0,0:0:0:0:
109,192,40666,1,0,0:0:0:0:
329,192,40733,1,0,0:0:0:0:
36,192,40800,1,0,0:0:0:0:
256,192,40800,1,0,0:0:0:0:
402,192,40866,1,0,0:0:0:0:
182,192,40933,1,0,0:0:0:0:
475,192,41000,1,0,0:0:0:0:
109,192,41066,1,0,0:0:0:0:
329,192,41133,1,0,0:0:0:0:
36,192,41200,1,0,0:0:0:0:
256,192,41200,1,0,0:0:0:0:
402,192,41266,1,0,0:0:0:0:
182,192,41333,1,0,0:0:0:0:
475,192,41400,1,0,0:0:0:0:
109,192,41466,1,0,0:0:0:0:
329,192,41533,1,0,0:0:0:0:
36,192,41600,1,0,0:0:0:0:
182,192,41600,1,0,0:0:0:0:
256,192,41666,1,0,0:0:0:0:
109,192,41733,1,0,0:0:0:0:
402,192,41800,1,0,0:0:0:0:
182,192,41866,1,0,0:0:0:0:
329,192,41933,1,0,0:0:0:0:
36,192,42000,1,0,0:0:0:0:
475,192,42000,1,0,0:0:0:0:
182,192,42066,1,0,0:0:0:0:
402,192,42133,1,0,0:0:0:0:
256,192,42200,1,0,0:0:0:0:
475,192,42266,1,0,0:0:0:0:
109,192,42333,1,0,0:0:0:0:
36,192,42400,1,0,0:0:0:0:
329,192,42400,1,0,0:0:0:0:
182,192,42466,1,0,0:0:0:0:
475,192,42533,1,0,0:0:0:0:
256,192,42600,1,0,0:0:0:0:
402,192,42666,1,0,0:0:0:0:
182,192,42733,1,0,0:0:0:0:
36,192,42800,1,0,0:0:0:0:
329,192,42800,1,0,0:0:0:0:
475,192,42866,1,0,0:0:0:0:
256,192,42933,1,0,0:0:0:0:
402,192,43000,1,0,0:0:0:0:
109,192,43066,1,0,0:0:0:0:
329,192,43133,1,0,0:0:0:0:
36,192,43200,1,0,0:0:0:0:
182,192,43200,1,0,0:0:0:0:
402,192,43266,1,0,0:0:0:0:
256,192,43333,1,0,0:0:0:0:
109,192,43400,1,0,0:0:0:0:
329,192,43466,1,0,0:0:0:0:
182,192,43533,1,0,0:0:0:0:
475,192,43600,1,0,0:0:0:0:
36,192,43600,1,0,0:0:0:0:
402,192,43666,1,0,0:0:0:0:
182,192,43733,1,0,0:0:0:0:
329,192,43800,1,0,0:0:0:0:
36,192,43866,1,0,0:0:0:0:
402,192,43933,1,0,0:0:0:0:
475,192,44000,1,0,0:0:0:0:
109,192,44000,1,0,0:0:0:0:
256,192,44066,1,0,0:0:0:0:
36,192,44133,1,0,0:0:0:0:
329,192,44200,1,0,0:0:0:0:
109,192,44266,1,0,0:0:0:0:
256,192,44333,1,0,0:0:0:0:
475,192,44400,1,0,0:0:0:0:
36,192,44400,1,0,0:0:0:0:
402,192,44466,1,0,0:0:0:0:
182,192,44533,1,0,0:0:0:0:
329,192,44600,1,0,0:0:0:0:
36,192,44666,1,0,0:0:0:0:
402,192,44733,1,0,0:0:0:0:
475,192,44800,1,0,0:0:0:0:
109,192,44800,1,0,0:0:0:0:
329,192,44866,1,0,0:0:0:0:
36,192,44900,1,0,0:0:0:0:
182,192,44933,1,0,0:0:0:0:
256,192,45000,1,0,0:0:0:0:
109,192,45066,1,0,0:0:0:0:
475,192,45100,1,0,0:0:0:0:
329,192,45133,1,0,0:0:0:0:
36,192,45200,1,0,0:0:0:0:
182,192,45200,1,0,0:0:0:0:
329,192,45266,1,0,0:0:0:0:
475,192,45333,1,0,0:0:0:0:
402,192,45400,1,0,0:0:0:0:
256,192,45466,1,0,0:0:0:0:
109,192,45533,1,0,0:0:0:0:
36,192,45600,1,0,0:0:0:0:
182,192,45600,1,0,0:0:0:0:
329,192,45666,1,0,0:0:0:0:
475,192,45733,1,0,0:0:0:0:
402,192,45800,1,0,0:0:0:0:
256,192,45866,1,0,0:0:0:0:
109,192,45933,1,0,0:0:0:0:
36,192,46000,1,0,0:0:0:0:
182,192,46000,1,0,0:0:0:0:
329,192,46066,1,0,0:0:0:0:
475,192,46133,1,0,0:0:0:0:
402,192,46200,1,0,0:0:0:0:
256,192,46266,1,0,0:0:0:0:
109,192,46333,1,0,0:0:0:0:
36,192,46400,1,0,0:0:0:0:
182,192,46400,1,0,0:0:0:0:
329,192,46466,1,0,0:0:0:0:
475,192,46533,1,0,0:0:0:0:
402,192,46600,1,0,0:0:0:0:
256,192,46666,1,0,0:0:0:0:
109,192,46733,1,0,0:0:0:0:
475,192,46800,1,0,0:0:0:0:
329,192,46800,1,0,0:0:0:0:
36,192,46866,1,0,0:0:0:0:
402,192,46933,1,0,0:0:0:0:
109,192,47000,1,0,0:0:0:0:
329,192,47066,1,0,0:0:0:0:
182,192,47133,1,0,0:0:0:0:
475,192,47200,1,0,0:0:0:0:
256,192,47200,1,0,0:0:0:0:
36,192,47266,1,0,0:0:0:0:
402,192,47333,1,0,0:0:0:0:
109,192,47400,1,0,0:0:0:0:
329,192,47466,1,0,0:0:0:0:
182,192,47533,1,0,0:0:0:0:
256,192,47600,1,0,0:0:0:0:
329,192,47666,1,0,0:0:0:0:
182,192,47733,1,0,0:0:0:0:
402,192,47800,1,0,0:0:0:0:
109,192,47866,1,0,0:0:0:0:
475,192,47933,1,0,0:0:0:0:
256,192,48000,1,0,0:0:0:0:
36,192,48000,1,0,0:0:0:0:
329,192,48066,1,0,0:0:0:0:
182,192,48133,1,0,0:0:0:0:
402,192,48200,1,0,0:0:0:0:
109,192,48266,1,0,0:0:0:0:
475,192,48333,1,0,0:0:0:0:
36,192,48400,1,0,0:0:0:0:
256,192,48400,1,0,0:0:0:0:
329,192,48466,1,0,0:0:0:0:
109,192,48533,1,0,0:0:0:0:
182,192,48600,1,0,0:0:0:0:
475,192,48666,1,0,0:0:0:0:
402,192,48733,1,0,0:0:0:0:
36,192,48800,1,0,0:0:0:0:
256,192,48800,1,0,0:0:0:0:
329,192,48866,1,0,0:0:0:0:
109,192,48933,1,0,0:0:0:0:
182,192,49000,1,0,0:0:0:0:
475,192,49066,1,0,0:0:0:0:
402,192,49133,1,0,0:0:0:0:
256,192,49200,1,0,0:0:0:0:
36,192,49200,1,0,0:0:0:0:
329,192,49266,1,0,0:0:0:0:
109,192,49333,1,0,0:0:0:0:
182,192,49400,1,0,0:0:0:0:
475,192,49466,1,0,0:0:0:0:
402,192,49533,1,0,0:0:0:0:
36,192,49600,1,0,0:0:0:0:
256,192,49600,1,0,0:0:0:0:
329,192,49666,1,0,0:0:0:0:
109,192,49733,1,0,0:0:0:0:
182,192,49800,1,0,0:0:0:0:
475,192,49866,1,0,0:0:0:0:
402,192,49933,1,0,0:0:0:0:
256,192,50000,128,8,50300:0:0:0:0:
402,192,50300,128,8,50600:0:0:0:0:
109,192,50400,128,8,50600:0:0:0:0:
36,192,50600,128,8,51000:0:0:0:0:
256,192,50700,128,8,51000:0:0:0:0:
475,192,50800,128,8,51000:0:0:0:0:
109,192,51000,128,8,51200:0:0:0:0:
475,192,51200,1,0,0:0:0:0:
182,192,51200,1,8,0:0:0:0:
402,192,51300,1,0,0:0:0:0:
256,192,51300,1,8,0:0:0:0:
36,192,51400,1,8,0:0:0:0:
329,192,51400,1,0,0:0:0:0:
256,192,51500,1,0,0:0:0:0:
109,192,51500,1,8,0:0:0:0:
182,192,51600,1,4,0:0:0:0:
475,192,51600,1,0,0:0:0:0:
329,192,51600,1,0,0:0:0:0:
36,192,51700,1,0,0:0:0:0:
402,192,51800,1,0,0:0:0:0:
256,192,51900,1,0,0:0:0:0:
475,192,52000,1,0,0:0:0:0:
36,192,52000,1,0,0:0:0:0:
109,192,52100,1,0,0:0:0:0:
182,192,52200,1,0,0:0:0:0:
36,192,52300,1,0,0:0:0:0:
475,192,52400,1,0,0:0:0:0:
329,192,52400,1,0,0:0:0:0:
256,192,52500,1,0,0:0:0:0:
109,192,52600,1,0,0:0:0:0:
402,192,52700,1,0,0:0:0:0:
475,192,52800,1,0,0:0:0:0:
36,192,52800,1,0,0:0:0:0:
182,192,52900,1,0,0:0:0:0:
329,192,53000,1,0,0:0:0:0:
109,192,53100,1,0,0:0:0:0:
475,192,53200,1,0,0:0:0:0:
36,192,53300,1,0,0:0:0:0:
256,192,53400,1,0,0:0:0:0:
109,192,53500,1,0,0:0:0:0:
475,192,53600,1,0,0:0:0:0:
329,192,53600,1,0,0:0:0:0:
109,192,53700,1,0,0:0:0:0:
256,192,53800,1,0,0:0:0:0:
182,192,53900,1,0,0:0:0:0:
475,192,54000,1,0,0:0:0:0:
36,192,54000,1,0,0:0:0:0:
182,192,54100,1,0,0:0:0:0:
109,192,54200,1,0,0:0:0:0:
329,192,54300,1,0,0:0:0:0:
475,192,54400,1,0,0:0:0:0:
402,192,54400,1,0,0:0:0:0:
109,192,54500,1,0,0:0:0:0:
256,192,54600,1,0,0:0:0:0:
36,192,54700,1,0,0:0:0:0:
475,192,54800,1,0,0:0:0:0:
329,192,54800,1,0,0:0:0:0:
402,192,54900,1,0,0:0:0:0:
109,192,55000,1,0,0:0:0:0:
256,192,55100,1,0,0:0:0:0:
475,192,55200,1,0,0:0:0:0:
402,192,55200,1,0,0:0:0:0:
329,192,55300,1,0,0:0:0:0:
182,192,55400,1,0,0:0:0:0:
329,192,55500,1,0,0:0:0:0:
475,192,55600,1,0,0:0:0:0:
36,192,55600,1,0,0:0:0:0:
109,192,55700,1,0,0:0:0:0:
402,192,55800,1,0,0:0:0:0:
182,192,55900,1,0,0:0:0:0:
475,192,56000,1,0,0:0:0:0:
329,192,56000,1,0,0:0:0:0:
256,192,56100,1,0,0:0:0:0:
109,192,56200,1,0,0:0:0:0:
402,192,56300,1,0,0:0:0:0:
475,192,56400,1,0,0:0:0:0:
182,192,56500,1,0,0:0:0:0:
36,192,56600,1,0,0:0:0:0:
402,192,56700,1,0,0:0:0:0:
475,192,56800,1,0,0:0:0:0:
256,192,56800,1,0,0:0:0:0:
182,192,56900,1,0,0:0:0:0:
329,192,57000,1,0,0:0:0:0:
109,192,57100,1,0,0:0:0:0:
475,192,57200,1,0,0:0:0:0:
256,192,57200,1,0,0:0:0:0:
36,192,57300,1,0,0:0:0:0:
402,192,57400,1,0,0:0:0:0:
256,192,57500,1,0,0:0:0:0:
36,192,57600,1,0,0:0:0:0:
475,192,57600,1,0,0:0:0:0:
329,192,57700,1,0,0:0:0:0:
402,192,57700,1,0,0:0:0:0:
182,192,57800,1,0,0:0:0:0:
109,192,57900,1,0,0:0:0:0:
329,192,57900,1,0,0:0:0:0:
36,192,58000,1,0,0:0:0:0:
402,192,58000,1,0,0:0:0:0:
182,192,58100,1,0,0:0:0:0:
475,192,58200,1,0,0:0:0:0:
329,192,58300,1,0,0:0:0:0:
36,192,58400,1,0,0:0:0:0:
109,192,58400,1,0,0:0:0:0:
182,192,58500,1,0,0:0:0:0:
329,192,58600,1,0,0:0:0:0:
109,192,58700,1,0,0:0:0:0:
36,192,58800,1,0,0:0:0:0:
475,192,58800,1,0,0:0:0:0:
329,192,58900,1,0,0:0:0:0:
182,192,59000,1,0,0:0:0:0:
402,192,59100,1,0,0:0:0:0:
36,192,59200,1,0,0:0:0:0:
182,192,59200,1,0,0:0:0:0:
256,192,59300,1,0,0:0:0:0:
475,192,59400,1,0,0:0:0:0:
329,192,59500,1,0,0:0:0:0:
36,192,59600,1,0,0:0:0:0:
109,192,59700,1,0,0:0:0:0:
182,192,59800,1,0,0:0:0:0:
256,192,59900,1,0,0:0:0:0:
36,192,60000,1,0,0:0:0:0:
475,192,60000,1,0,0:0:0:0:
182,192,60100,1,0,0:0:0:0:
329,192,60200,1,0,0:0:0:0:
256,192,60300,1,0,0:0:0:0:
36,192,60400,1,0,0:0:0:0:
182,192,60400,1,0,0:0:0:0:
329,192,60500,1,0,0:0:0:0:
109,192,60600,1,0,0:0:0:0:
402,192,60700,1,0,0:0:0:0:
36,192,60800,1,0,0:0:0:0:
475,192,60800,1,0,0:0:0:0:
182,192,60900,1,0,0:0:0:0:
329,192,61000,1,0,0:0:0:0:
182,192,61100,1,0,0:0:0:0:
36,192,61200,1,0,0:0:0:0:
256,192,61200,1,0,0:0:0:0:
475,192,61300,1,0,0:0:0:0:
109,192,61400,1,0,0:0:0:0:
182,192,61500,1,0,0:0:0:0:
36,192,61600,1,0,0:0:0:0:
475,192,61600,1,0,0:0:0:0:
329,192,61700,1,0,0:0:0:0:
182,192,61800,1,0,0:0:0:0:
475,192,61900,1,0,0:0:0:0:
36,192,62000,1,0,0:0:0:0:
109,192,62000,1,0,0:0:0:0:
256,192,62100,1,0,0:0:0:0:
475,192,62200,1,0,0:0:0:0:
329,192,62300,1,0,0:0:0:0:
36,192,62400,1,0,0:0:0:0:
475,192,62400,1,0,0:0:0:0:
402,192,62500,1,0,0:0:0:0:
182,192,62600,1,0,0:0:0:0:
256,192,62700,1,0,0:0:0:0:
36,192,62800,1,0,0:0:0:0:
475,192,62900,1,0,0:0:0:0:
329,192,63000,1,0,0:0:0:0:
475,192,63100,1,0,0:0:0:0:
36,192,63200,1,0,0:0:0:0:
256,192,63200,1,0,0:0:0:0:
402,192,63300,1,0,0:0:0:0:
182,192,63400,1,0,0:0:0:0:
329,192,63500,1,0,0:0:0:0:
36,192,63600,1,0,0:0:0:0:
475,192,63600,1,0,0:0:0:0:
109,192,63700,1,0,0:0:0:0:
475,192,63800,1,0,0:0:0:0:
329,192,63900,1,0,0:0:0:0:
36,192,64000,1,0,0:0:0:0:
256,192,64000,1,0,0:0:0:0:
402,192,64100,1,0,0:0:0:0:
182,192,64100,1,0,0:0:0:0:
109,192,64200,1,0,0:0:0:0:
402,192,64300,1,0,0:0:0:0:
182,192,64300,1,0,0:0:0:0:
36,192,64400,1,0,0:0:0:0:
475,192,64400,1,4,0:0:0:0:
256,192,64400,1,0,0:0:0:0:
402,192,64600,1,0,0:0:0:0:
182,192,64700,1,0,0:0:0:0:
109,192,64900,1,0,0:0:0:0:
329,192,65000,1,0,0:0:0:0:
475,192,65200,1,0,0:0:0:0:
256,192,65300,1,0,0:0:0:0:
182,192,65500,1,0,0:0:0:0:
36,192,65700,1,0,0:0:0:0:
402,192,65800,1,0,0:0:0:0:
109,192,66100,1,0,0:0:0:0:
182,192,66200,1,0,0:0:0:0:
475,192,66400,1,0,0:0:0:0:
402,192,66600,1,0,0:0:0:0:
329,192,66700,1,0,0:0:0:0:
36,192,66800,1,0,0:0:0:0:
256,192,66900,1,0,0:0:0:0:
182,192,67100,1,0,0:0:0:0:
329,192,67200,1,0,0:0:0:0:
109,192,67400,1,0,0:0:0:0:
256,192,67600,1,0,0:0:0:0:
475,192,67600,1,4,0:0:0:0:
402,192,67800,1,0,0:0:0:0:
182,192,67900,1,0,0:0:0:0:
36,192,68100,1,0,0:0:0:0:
109,192,68200,1,0,0:0:0:0:
475,192,68400,1,0,0:0:0:0:
402,192,68500,1,0,0:0:0:0:
256,192,68700,1,0,0:0:0:0:
36,192,68900,1,0,0:0:0:0:
109,192,69000,1,0,0:0:0:0:
109,192,69300,1,0,0:0:0:0:
182,192,69400,1,0,0:0:0:0:
256,192,69600,1,0,0:0:0:0:
329,192,69800,1,0,0:0:0:0:
402,192,69900,1,0,0:0:0:0:
475,192,70100,1,0,0:0:0:0:
182,192,70300,1,0,0:0:0:0:
329,192,70400,1,0,0:0:0:0:
36,192,70600,1,0,0:0:0:0:
109,192,70800,1,0,0:0:0:0:
402,192,70800,1,4,0:0:0:0:
36,192,72200,1,0,0:0:0:0:
109,192,72400,1,0,0:0:0:0:
402,192,72400,1,4,0:0:0:0:
475,192,73600,1,0,0:0:0:0:
109,192,73700,1,0,0:0:0:0:
402,192,73800,1,0,0:0:0:0:
36,192,73900,1,0,0:0:0:0:
256,192,74000,1,12,0:0:0:0:
475,192,74100,1,8,0:0:0:0:
182,192,74200,1,8,0:0:0:0:
402,192,74300,1,8,0:0:0:0:
256,192,74400,1,8,0:0:0:0:
36,192,74500,1,8,0:0:0:0:
329,192,74600,1,8,0:0:0:0:
109,192,74700,1,8,0:0:0:0:
475,192,74800,1,12,0:0:0:0:
256,192,74900,1,8,0:0:0:0:
402,192,75000,1,8,0:0:0:0:
182,192,75100,1,8,0:0:0:0:
36,192,75200,1,8,0:0:0:0:
256,192,75300,1,8,0:0:0:0:
109,192,75400,1,8,0:0:0:0:
329,192,75500,1,8,0:0:0:0:
475,192,75600,1,12,0:0:0:0:
402,192,75666,1,8,0:0:0:0:
329,192,75733,1,8,0:0:0:0:
256,192,75800,1,8,0:0:0:0:
402,192,75866,1,8,0:0:0:0:
329,192,75933,1,8,0:0:0:0:
256,192,76000,1,12,0:0:0:0:
182,192,76066,1,8,0:0:0:0:
329,192,76133,1,8,0:0:0:0:
256,192,76200,1,8,0:0:0:0:
182,192,76266,1,8,0:0:0:0:
109,192,76333,1,8,0:0:0:0:
256,192,76400,1,12,0:0:0:0:
182,192,76466,1,8,0:0:0:0:
109,192,76533,1,8,0:0:0:0:
36,192,76600,1,8,0:0:0:0:
109,192,76666,1,8,0:0:0:0:
182,192,76733,1,8,0:0:0:0:
256,192,76800,1,8,0:0:0:0:
329,192,76866,1,8,0:0:0:0:
402,192,76933,1,8,0:0:0:0:
475,192,77000,1,8,0:0:0:0:
402,192,77066,1,8,0:0:0:0:
329,192,77133,1,8,0:0:0:0:
256,192,77200,1,0,0:0:0:0:
475,192,77600,1,0,0:0:0:0:
109,192,77600,128,0,77800:0:0:0:0:
329,192,77800,128,0,78800:0:0:0:0:
475,192,78800,128,0,79400:0:0:0:0:
329,192,79400,128,0,80000:0:0:0:0:
182,192,80000,128,0,80400:0:0:0:0:
36,192,80400,128,0,81600:0:0:0:0:
182,192,81600,128,0,81800:0:0:0:0:
402,192,81800,128,0,83600:0:0:0:0:
36,192,84000,128,0,84200:0:0:0:0:
182,192,84200,128,0,85200:0:0:0:0:
402,192,85200,128,0,85800:0:0:0:0:
256,192,85800,128,0,86400:0:0:0:0:
109,192,86400,128,0,86800:0:0:0:0:
36,192,86800,128,0,88000:0:0:0:0:
182,192,88000,128,0,88200:0:0:0:0:
475,192,88200,128,0,90000:0:0:0:0:
182,192,89000,1,2,0:0:0:0:
329,192,89100,1,2,0:0:0:0:
256,192,89200,1,2,0:0:0:0:
182,192,89500,1,2,0:0:0:0:
36,192,89800,1,2,0:0:0:0:
109,192,90000,1,2,0:0:0:0:
256,192,90000,1,0,0:0:0:0:
402,192,90100,1,0,0:0:0:0:
256,192,90200,1,0,0:0:0:0:
109,192,90400,1,0,0:0:0:0:
256,192,90600,1,0,0:0:0:0:
402,192,90700,1,0,0:0:0:0:
109,192,90900,1,0,0:0:0:0:
256,192,91000,1,0,0:0:0:0:
402,192,91200,1,0,0:0:0:0:
256,192,91300,1,0,0:0:0:0:
109,192,91400,1,0,0:0:0:0:
36,192,91700,1,0,0:0:0:0:
182,192,91800,1,0,0:0:0:0:
329,192,92000,1,0,0:0:0:0:
182,192,92200,1,0,0:0:0:0:
36,192,92300,1,0,0:0:0:0:
329,192,92500,1,0,0:0:0:0:
182,192,92600,1,0,0:0:0:0:
36,192,92800,1,0,0:0:0:0:
182,192,92900,1,0,0:0:0:0:
329,192,93000,1,0,0:0:0:0:
475,192,93300,1,0,0:0:0:0:
329,192,93400,1,0,0:0:0:0:
182,192,93600,1,0,0:0:0:0:
329,192,93800,1,0,0:0:0:0:
475,192,93900,1,0,0:0:0:0:
182,192,94100,1,0,0:0:0:0:
329,192,94200,1,0,0:0:0:0:
475,192,94400,1,0,0:0:0:0:
329,192,94500,1,0,0:0:0:0:
182,192,94600,1,0,0:0:0:0:
36,192,94900,1,0,0:0:0:0:
256,192,95000,1,0,0:0:0:0:
475,192,95200,1,0,0:0:0:0:
256,192,95400,1,0,0:0:0:0:
36,192,95500,1,0,0:0:0:0:
475,192,95700,1,0,0:0:0:0:
256,192,95800,1,0,0:0:0:0:
36,192,96000,1,0,0:0:0:0:
256,192,96100,1,0,0:0:0:0:
475,192,96200,1,0,0:0:0:0:
182,192,96500,1,0,0:0:0:0:
329,192,96600,1,0,0:0:0:0:
329,192,96800,1,0,0:0:0:0:
329,192,97000,1,0,0:0:0:0:
182,192,97100,1,0,0:0:0:0:
182,192,97300,1,0,0:0:0:0:
329,192,97400,1,0,0:0:0:0:
182,192,97600,1,0,0:0:0:0:
329,192,97700,1,0,0:0:0:0:
182,192,97800,1,0,0:0:0:0:
256,192,98100,1,0,0:0:0:0:
402,192,98200,1,0,0:0:0:0:
402,192,98400,1,0,0:0:0:0:
402,192,98600,1,0,0:0:0:0:
256,192,98700,1,0,0:0:0:0:
256,192,98900,1,0,0:0:0:0:
402,192,99000,1,0,0:0:0:0:
256,192,99200,1,0,0:0:0:0:
402,192,99300,1,0,0:0:0:0:
256,192,99400,1,0,0:0:0:0:
256,192,99700,1,0,0:0:0:0:
109,192,99800,1,0,0:0:0:0:
109,192,100000,1,0,0:0:0:0:
109,192,100200,1,0,0:0:0:0:
256,192,100300,1,0,0:0:0:0:
256,192,100500,1,0,0:0:0:0:
109,192,100600,1,0,0:0:0:0:
256,192,100800,1,0,0:0:0:0:
109,192,100900,1,0,0:0:0:0:
256,192,101000,1,0,0:0:0:0:
36,192,101300,1,0,0:0:0:0:
475,192,101400,1,0,0:0:0:0:
475,192,101600,1,0,0:0:0:0:
475,192,101800,1,0,0:0:0:0:
36,192,101900,1,0,0:0:0:0:
36,192,102100,1,0,0:0:0:0:
475,192,102200,1,0,0:0:0:0:
256,192,102200,128,0,102800:0:0:0:0:
36,192,102400,1,0,0:0:0:0:
475,192,102500,1,0,0:0:0:0:
36,192,102600,1,0,0:0:0:0:
109,192,102800,1,4,0:0:0:0:
475,192,102800,1,0,0:0:0:0:
329,192,102900,1,0,0:0:0:0:
182,192,102900,128,0,103000:0:0:0:0:
475,192,103000,1,0,0:0:0:0:
329,192,103100,1,0,0:0:0:0:
182,192,103200,1,0,0:0:0:0:
36,192,103300,1,0,0:0:0:0:
182,192,103400,1,0,0:0:0:0:
36,192,103500,1,0,0:0:0:0:
402,192,103600,128,0,103800:0:0:0:0:
256,192,103800,128,0,104000:0:0:0:0:
109,192,104000,128,0,104200:0:0:0:0:
256,192,104200,128,0,104400:0:0:0:0:
402,192,104400,1,0,0:0:0:0:
182,192,104500,1,0,0:0:0:0:
36,192,104500,128,0,104600:0:0:0:0:
475,192,104600,1,0,0:0:0:0:
256,192,104700,1,0,0:0:0:0:
109,192,104800,1,0,0:0:0:0:
329,192,104900,1,0,0:0:0:0:
36,192,105000,1,0,0:0:0:0:
256,192,105100,1,0,0:0:0:0:
475,192,105200,128,0,105400:0:0:0:0:
36,192,105400,128,0,105600:0:0:0:0:
329,192,105600,128,0,105800:0:0:0:0:
182,192,105800,128,0,106000:0:0:0:0:
402,192,106000,1,0,0:0:0:0:
109,192,106100,1,0,0:0:0:0:
256,192,106100,128,0,106200:0:0:0:0:
402,192,106200,1,0,0:0:0:0:
109,192,106300,1,0,0:0:0:0:
475,192,106400,1,0,0:0:0:0:
36,192,106500,1,0,0:0:0:0:
475,192,106600,1,0,0:0:0:0:
36,192,106700,1,0,0:0:0:0:
182,192,106800,128,0,107000:0:0:0:0:
329,192,107000,128,0,107200:0:0:0:0:
182,192,107200,128,0,107400:0:0:0:0:
329,192,107400,128,0,107600:0:0:0:0:
36,192,107600,1,0,0:0:0:0:
109,192,107700,1,0,0:0:0:0:
475,192,107700,128,0,107800:0:0:0:0:
36,192,107800,1,0,0:0:0:0:
109,192,107900,1,0,0:0:0:0:
329,192,108000,1,0,0:0:0:0:
402,192,108100,1,0,0:0:0:0:
329,192,108200,1,0,0:0:0:0:
402,192,108300,1,0,0:0:0:0:
36,192,108400,128,0,108600:0:0:0:0:
475,192,108600,128,0,108800:0:0:0:0:
109,192,108800,128,0,109000:0:0:0:0:
402,192,109000,128,0,109200:0:0:0:0:
36,192,109200,1,0,0:0:0:0:
256,192,109200,1,4,0:0:0:0:
475,192,109200,1,0,0:0:0:0:
329,192,109300,1,0,0:0:0:0:
109,192,109400,1,0,0:0:0:0:
475,192,109400,1,0,0:0:0:0:
329,192,109500,1,0,0:0:0:0:
36,192,109600,1,0,0:0:0:0:
475,192,109600,1,0,0:0:0:0:
329,192,109700,1,0,0:0:0:0:
109,192,109800,1,0,0:0:0:0:
475,192,109800,1,0,0:0:0:0:
329,192,109900,1,0,0:0:0:0:
36,192,110000,1,0,0:0:0:0:
475,192,110000,128,0,110200:0:0:0:0:
109,192,110200,1,0,0:0:0:0:
329,192,110200,128,0,110400:0:0:0:0:
36,192,110400,1,0,0:0:0:0:
475,192,110400,128,0,110600:0:0:0:0:
109,192,110600,1,0,0:0:0:0:
329,192,110600,128,0,110800:0:0:0:0:
182,192,110800,1,0,0:0:0:0:
475,192,110800,1,0,0:0:0:0:
36,192,110900,1,0,0:0:0:0:
329,192,111000,1,0,0:0:0:0:
475,192,111000,1,0,0:0:0:0:
36,192,111100,1,0,0:0:0:0:
182,192,111200,1,0,0:0:0:0:
475,192,111200,1,0,0:0:0:0:
36,192,111300,1,0,0:0:0:0:
329,192,111400,1,0,0:0:0:0:
475,192,111400,1,0,0:0:0:0:
36,192,111500,1,0,0:0:0:0:
182,192,111600,1,0,0:0:0:0:
402,192,111600,128,0,111800:0:0:0:0:
329,192,111800,1,0,0:0:0:0:
109,192,111800,128,0,112000:0:0:0:0:
182,192,112000,1,0,0:0:0:0:
402,192,112000,128,0,112200:0:0:0:0:
329,192,112200,1,0,0:0:0:0:
109,192,112200,128,0,112400:0:0:0:0:
475,192,112400,1,0,0:0:0:0:
329,192,112400,1,8,0:0:0:0:
182,192,112500,1,8,0:0:0:0:
402,192,112600,1,0,0:0:0:0:
36,192,112600,1,8,0:0:0:0:
182,192,112700,1,8,0:0:0:0:
475,192,112800,1,0,0:0:0:0:
329,192,112800,1,8,0:0:0:0:
182,192,112900,1,8,0:0:0:0:
402,192,113000,1,0,0:0:0:0:
36,192,113000,1,8,0:0:0:0:
182,192,113100,1,8,0:0:0:0:
475,192,113200,1,0,0:0:0:0:
329,192,113200,1,8,0:0:0:0:
182,192,113300,1,8,0:0:0:0:
402,192,113400,1,0,0:0:0:0:
36,192,113400,1,8,0:0:0:0:
182,192,113500,1,8,0:0:0:0:
475,192,113600,1,0,0:0:0:0:
329,192,113600,1,8,0:0:0:0:
182,192,113700,1,8,0:0:0:0:
402,192,113800,1,0,0:0:0:0:
36,192,113800,1,8,0:0:0:0:
182,192,113900,1,8,0:0:0:0:
329,192,114000,1,8,0:0:0:0:
182,192,114066,1,8,0:0:0:0:
36,192,114133,1,8,0:0:0:0:
402,192,114200,1,8,0:0:0:0:
256,192,114266,1,8,0:0:0:0:
109,192,114333,1,8,0:0:0:0:
475,192,114400,1,8,0:0:0:0:
329,192,114466,1,8,0:0:0:0:
182,192,114533,1,8,0:0:0:0:
36,192,114600,1,8,0:0:0:0:
182,192,114666,1,8,0:0:0:0:
329,192,114733,1,8,0:0:0:0:
475,192,114800,1,8,0:0:0:0:
109,192,114866,1,8,0:0:0:0:
256,192,114933,1,8,0:0:0:0:
402,192,115000,1,8,0:0:0:0:
36,192,115066,1,8,0:0:0:0:
182,192,115133,1,8,0:0:0:0:
329,192,115200,1,8,0:0:0:0:
475,192,115266,1,8,0:0:0:0:
36,192,115333,1,8,0:0:0:0:
182,192,115400,1,8,0:0:0:0:
329,192,115466,1,8,0:0:0:0:
475,192,115533,1,8,0:0:0:0:
36,192,115600,1,0,0:0:0:0:
256,192,115600,1,4,0:0:0:0:
109,192,115600,1,0,0:0:0:0:
329,192,115700,1,0,0:0:0:0:
475,192,115700,1,0,0:0:0:0:
402,192,115800,1,0,0:0:0:0:
109,192,115800,1,0,0:0:0:0:
182,192,115900,1,0,0:0:0:0:
475,192,115900,1,0,0:0:0:0:
36,192,116000,1,0,0:0:0:0:
256,192,116000,1,0,0:0:0:0:
329,192,116100,1,0,0:0:0:0:
109,192,116100,1,0,0:0:0:0:
402,192,116200,1,0,0:0:0:0:
256,192,116200,1,0,0:0:0:0:
329,192,116300,1,0,0:0:0:0:
109,192,116300,1,0,0:0:0:0:
36,192,116400,1,0,0:0:0:0:
475,192,116400,1,0,0:0:0:0:
329,192,116500,1,0,0:0:0:0:
402,192,116600,1,0,0:0:0:0:
109,192,116600,1,0,0:0:0:0:
182,192,116700,1,0,0:0:0:0:
36,192,116800,1,0,0:0:0:0:
475,192,116800,1,0,0:0:0:0:
329,192,116900,1,0,0:0:0:0:
402,192,117000,1,0,0:0:0:0:
109,192,117000,1,0,0:0:0:0:
329,192,117100,1,0,0:0:0:0:
36,192,117200,1,0,0:0:0:0:
475,192,117200,1,0,0:0:0:0:
182,192,117300,1,0,0:0:0:0:
256,192,117300,1,0,0:0:0:0:
329,192,117400,1,0,0:0:0:0:
475,192,117400,1,0,0:0:0:0:
109,192,117500,1,0,0:0:0:0:
256,192,117500,1,0,0:0:0:0:
36,192,117600,1,0,0:0:0:0:
402,192,117600,1,0,0:0:0:0:
182,192,117700,1,0,0:0:0:0:
475,192,117700,1,0,0:0:0:0:
329,192,117800,1,0,0:0:0:0:
402,192,117800,1,0,0:0:0:0:
182,192,117900,1,0,0:0:0:0:
475,192,117900,1,0,0:0:0:0:
36,192,118000,1,0,0:0:0:0:
256,192,118000,1,0,0:0:0:0:
182,192,118100,1,0,0:0:0:0:
329,192,118200,1,0,0:0:0:0:
475,192,118200,1,0,0:0:0:0:
109,192,118300,1,0,0:0:0:0:
36,192,118400,1,0,0:0:0:0:
256,192,118400,1,0,0:0:0:0:
182,192,118500,1,0,0:0:0:0:
329,192,118600,1,0,0:0:0:0:
475,192,118600,1,0,0:0:0:0:
182,192,118700,1,0,0:0:0:0:
36,192,118800,1,0,0:0:0:0:
256,192,118800,1,0,0:0:0:0:
402,192,118900,1,0,0:0:0:0:
109,192,118900,1,0,0:0:0:0:
475,192,119000,1,0,0:0:0:0:
256,192,119000,1,0,0:0:0:0:
329,192,119100,1,0,0:0:0:0:
109,192,119100,1,0,0:0:0:0:
36,192,119200,1,0,0:0:0:0:
182,192,119200,1,0,0:0:0:0:
402,192,119300,1,0,0:0:0:0:
329,192,119300,1,0,0:0:0:0:
475,192,119400,1,0,0:0:0:0:
182,192,119400,1,0,0:0:0:0:
402,192,119500,1,0,0:0:0:0:
329,192,119500,1,0,0:0:0:0:
36,192,119600,1,0,0:0:0:0:
109,192,119600,1,0,0:0:0:0:
402,192,119700,1,0,0:0:0:0:
475,192,119800,1,0,0:0:0:0:
256,192,119800,1,0,0:0:0:0:
329,192,119900,1,0,0:0:0:0:
36,192,120000,1,0,0:0:0:0:
109,192,120000,1,0,0:0:0:0:
402,192,120100,1,0,0:0:0:0:
475,192,120200,1,0,0:0:0:0:
256,192,120200,1,0,0:0:0:0:
402,192,120300,1,0,0:0:0:0:
36,192,120400,1,0,0:0:0:0:
329,192,120400,1,0,0:0:0:0:
109,192,120500,1,0,0:0:0:0:
475,192,120500,1,0,0:0:0:0:
402,192,120600,1,0,0:0:0:0:
329,192,120600,1,0,0:0:0:0:
182,192,120700,1,0,0:0:0:0:
475,192,120700,1,0,0:0:0:0:
36,192,120800,1,0,0:0:0:0:
256,192,120800,1,0,0:0:0:0:
109,192,120900,1,0,0:0:0:0:
329,192,120900,1,0,0:0:0:0:
402,192,121000,1,0,0:0:0:0:
256,192,121000,1,0,0:0:0:0:
109,192,121100,1,0,0:0:0:0:
329,192,121100,1,0,0:0:0:0:
36,192,121200,1,0,0:0:0:0:
475,192,121200,1,0,0:0:0:0:
109,192,121300,1,0,0:0:0:0:
402,192,121400,1,0,0:0:0:0:
256,192,121400,1,0,0:0:0:0:
182,192,121500,1,0,0:0:0:0:
36,192,121600,1,0,0:0:0:0:
475,192,121600,1,0,0:0:0:0:
109,192,121700,1,0,0:0:0:0:
329,192,121700,1,0,0:0:0:0:
402,192,121800,1,0,0:0:0:0:
256,192,121800,1,0,0:0:0:0:
109,192,121900,1,0,0:0:0:0:
475,192,121900,1,0,0:0:0:0:
182,192,122000,1,0,0:0:0:0:
329,192,122000,1,4,0:0:0:0:
36,192,122000,1,0,0:0:0:0:
475,192,122100,1,0,0:0:0:0:
182,192,122200,1,0,0:0:0:0:
36,192,122200,1,0,0:0:0:0:
475,192,122300,1,0,0:0:0:0:
182,192,122400,1,0,0:0:0:0:
36,192,122400,1,0,0:0:0:0:
475,192,122500,1,0,0:0:0:0:
182,192,122600,1,0,0:0:0:0:
36,192,122600,1,0,0:0:0:0:
475,192,122700,1,0,0:0:0:0:
329,192,122800,1,0,0:0:0:0:
109,192,122800,1,0,0:0:0:0:
329,192,123000,1,0,0:0:0:0:
182,192,123000,1,0,0:0:0:0:
329,192,123200,1,0,0:0:0:0:
109,192,123200,1,0,0:0:0:0:
329,192,123400,1,0,0:0:0:0:
182,192,123400,1,0,0:0:0:0:
402,192,123500,1,0,0:0:0:0:
475,192,123600,1,0,0:0:0:0:
182,192,123600,1,4,0:0:0:0:
329,192,123600,1,0,0:0:0:0:
109,192,123700,1,0,0:0:0:0:
475,192,123800,1,0,0:0:0:0:
329,192,123800,1,0,0:0:0:0:
109,192,123900,1,0,0:0:0:0:
475,192,124000,1,0,0:0:0:0:
329,192,124000,1,0,0:0:0:0:
109,192,124100,1,0,0:0:0:0:
475,192,124200,1,0,0:0:0:0:
329,192,124200,1,0,0:0:0:0:
109,192,124300,1,0,0:0:0:0:
36,192,124400,1,0,0:0:0:0:
329,192,124400,1,0,0:0:0:0:
36,192,124600,1,0,0:0:0:0:
402,192,124600,1,0,0:0:0:0:
182,192,124700,1,0,0:0:0:0:
36,192,124800,1,0,0:0:0:0:
475,192,124800,1,0,0:0:0:0:
36,192,125000,1,0,0:0:0:0:
402,192,125000,1,0,0:0:0:0:
182,192,125200,1,0,0:0:0:0:
256,192,125200,1,4,0:0:0:0:
329,192,125300,1,0,0:0:0:0:
182,192,125400,1,0,0:0:0:0:
329,192,125500,1,0,0:0:0:0:
182,192,125600,1,0,0:0:0:0:
329,192,125700,1,0,0:0:0:0:
182,192,125800,1,0,0:0:0:0:
329,192,125900,1,0,0:0:0:0:
256,192,126000,1,4,0:0:0:0:
182,192,126000,1,0,0:0:0:0:
109,192,126066,1,0,0:0:0:0:
36,192,126133,1,0,0:0:0:0:
329,192,126200,1,0,0:0:0:0:
402,192,126266,1,0,0:0:0:0:
475,192,126333,1,0,0:0:0:0:
182,192,126400,1,0,0:0:0:0:
109,192,126466,1,0,0:0:0:0:
36,192,126533,1,0,0:0:0:0:
329,192,126600,1,0,0:0:0:0:
402,192,126666,1,0,0:0:0:0:
475,192,126733,1,0,0:0:0:0:
256,192,126800,1,4,0:0:0:0:
36,192,126800,128,2,126900:0:0:0:0:
182,192,126900,128,2,127000:0:0:0:0:
329,192,127000,128,2,127100:0:0:0:0:
182,192,127100,128,2,127200:0:0:0:0:
329,192,127200,128,2,127300:0:0:0:0:
475,192,127300,128,2,127400:0:0:0:0:
329,192,127400,128,2,127500:0:0:0:0:
475,192,127500,128,2,127600:0:0:0:0:
256,192,127600,128,2,127700:0:0:0:0:
109,192,127700,128,2,127800:0:0:0:0:
256,192,127800,128,2,127900:0:0:0:0:
402,192,127900,128,2,128000:0:0:0:0:
36,192,128000,128,2,128100:0:0:0:0:
182,192,128100,128,2,128200:0:0:0:0:
329,192,128200,128,2,128300:0:0:0:0:
475,192,128300,128,2,128400:0:0:0:0:
36,192,128400,1,0,0:0:0:0:
182,192,128400,1,4,0:0:0:0:
329,192,128500,1,0,0:0:0:0:
109,192,128600,1,0,0:0:0:0:
256,192,128700,1,0,0:0:0:0:
36,192,128800,1,0,0:0:0:0:
182,192,128800,1,0,0:0:0:0:
329,192,128900,1,0,0:0:0:0:
402,192,129000,1,0,0:0:0:0:
109,192,129100,1,0,0:0:0:0:
36,192,129200,1,0,0:0:0:0:
256,192,129200,1,0,0:0:0:0:
475,192,129300,1,0,0:0:0:0:
109,192,129400,1,0,0:0:0:0:
475,192,129500,1,0,0:0:0:0:
36,192,129600,1,0,0:0:0:0:
402,192,129600,1,0,0:0:0:0:
329,192,129700,1,0,0:0:0:0:
109,192,129800,1,0,0:0:0:0:
256,192,129900,1,0,0:0:0:0:
36,192,130000,1,0,0:0:0:0:
182,192,130000,1,0,0:0:0:0:
329,192,130100,1,0,0:0:0:0:
402,192,130200,1,0,0:0:0:0:
109,192,130300,1,0,0:0:0:0:
36,192,130400,1,0,0:0:0:0:
329,192,130400,1,0,0:0:0:0:
475,192,130500,1,0,0:0:0:0:
109,192,130600,1,0,0:0:0:0:
475,192,130700,1,0,0:0:0:0:
36,192,130800,1,0,0:0:0:0:
182,192,130800,1,0,0:0:0:0:
402,192,130900,1,0,0:0:0:0:
109,192,131000,1,0,0:0:0:0:
329,192,131100,1,0,0:0:0:0:
402,192,131200,1,0,0:0:0:0:
36,192,131200,1,0,0:0:0:0:
109,192,131300,1,0,0:0:0:0:
402,192,131400,1,0,0:0:0:0:
475,192,131500,1,0,0:0:0:0:
36,192,131600,1,0,0:0:0:0:
329,192,131600,1,0,0:0:0:0:
182,192,131700,1,0,0:0:0:0:
109,192,131800,1,0,0:0:0:0:
256,192,131900,1,0,0:0:0:0:
36,192,132000,1,0,0:0:0:0:
182,192,132000,1,0,0:0:0:0:
329,192,132100,1,0,0:0:0:0:
475,192,132200,1,0,0:0:0:0:
109,192,132300,1,0,0:0:0:0:
36,192,132400,1,0,0:0:0:0:
475,192,132400,1,0,0:0:0:0:
329,192,132500,1,0,0:0:0:0:
109,192,132600,1,0,0:0:0:0:
402,192,132700,1,0,0:0:0:0:
36,192,132800,1,0,0:0:0:0:
329,192,132800,1,0,0:0:0:0:
256,192,132900,1,0,0:0:0:0:
109,192,133000,1,0,0:0:0:0:
256,192,133100,1,0,0:0:0:0:
36,192,133200,1,0,0:0:0:0:
182,192,133200,1,0,0:0:0:0:
329,192,133300,1,0,0:0:0:0:
402,192,133400,1,0,0:0:0:0:
109,192,133500,1,0,0:0:0:0:
36,192,133600,1,0,0:0:0:0:
475,192,133600,1,0,0:0:0:0:
402,192,133700,1,0,0:0:0:0:
109,192,133800,1,0,0:0:0:0:
329,192,133900,1,0,0:0:0:0:
36,192,134000,1,0,0:0:0:0:
182,192,134000,1,0,0:0:0:0:
402,192,134100,1,0,0:0:0:0:
109,192,134200,1,0,0:0:0:0:
256,192,134300,1,0,0:0:0:0:
36,192,134400,1,0,0:0:0:0:
402,192,134400,1,0,0:0:0:0:
182,192,134500,1,0,0:0:0:0:
329,192,134600,1,0,0:0:0:0:
475,192,134700,1,0,0:0:0:0:
36,192,134700,1,0,0:0:0:0:
182,192,134800,1,0,0:0:0:0:
402,192,134800,1,0,0:0:0:0:
329,192,134900,1,0,0:0:0:0:
109,192,134900,1,0,0:0:0:0:
475,192,135000,1,0,0:0:0:0:
36,192,135100,1,0,0:0:0:0:
256,192,135100,1,0,0:0:0:0:
475,192,135200,1,0,0:0:0:0:
109,192,135300,1,0,0:0:0:0:
329,192,135300,1,0,0:0:0:0:
402,192,135400,1,0,0:0:0:0:
182,192,135400,1,0,0:0:0:0:
36,192,135500,1,0,0:0:0:0:
182,192,135600,1,0,0:0:0:0:
402,192,135600,1,0,0:0:0:0:
109,192,135700,1,0,0:0:0:0:
475,192,135700,1,0,0:0:0:0:
256,192,135800,1,0,0:0:0:0:
402,192,135900,1,0,0:0:0:0:
36,192,135900,1,0,0:0:0:0:
475,192,136000,1,0,0:0:0:0:
109,192,136000,1,0,0:0:0:0:
182,192,136100,1,0,0:0:0:0:
402,192,136100,1,0,0:0:0:0:
36,192,136200,1,0,0:0:0:0:
329,192,136300,1,0,0:0:0:0:
109,192,136300,1,0,0:0:0:0:
475,192,136400,1,0,0:0:0:0:
36,192,136500,1,0,0:0:0:0:
182,192,136500,1,0,0:0:0:0:
256,192,136600,1,0,0:0:0:0:
402,192,136600,1,0,0:0:0:0:
109,192,136700,1,0,0:0:0:0:
329,192,136800,1,0,0:0:0:0:
475,192,136800,1,0,0:0:0:0:
182,192,136900,1,0,0:0:0:0:
36,192,136900,1,0,0:0:0:0:
256,192,137000,1,0,0:0:0:0:
109,192,137100,1,0,0:0:0:0:
402,192,137100,1,0,0:0:0:0:
256,192,137200,1,0,0:0:0:0:
182,192,137300,1,0,0:0:0:0:
329,192,137300,1,0,0:0:0:0:
256,192,137400,1,0,0:0:0:0:
109,192,137500,1,0,0:0:0:0:
402,192,137500,1,0,0:0:0:0:
182,192,137600,1,0,0:0:0:0:
329,192,137600,1,0,0:0:0:0:
256,192,137700,1,0,0:0:0:0:
109,192,137800,1,0,0:0:0:0:
402,192,137800,1,0,0:0:0:0:
36,192,137900,1,0,0:0:0:0:
475,192,137900,1,0,0:0:0:0:
182,192,138000,1,0,0:0:0:0:
329,192,138000,1,0,0:0:0:0:
256,192,138100,1,0,0:0:0:0:
109,192,138100,1,0,0:0:0:0:
475,192,138200,1,0,0:0:0:0:
36,192,138300,1,0,0:0:0:0:
182,192,138300,1,0,0:0:0:0:
475,192,138400,1,0,0:0:0:0:
109,192,138500,1,0,0:0:0:0:
256,192,138500,1,0,0:0:0:0:
329,192,138600,1,0,0:0:0:0:
475,192,138600,1,0,0:0:0:0:
36,192,138700,1,0,0:0:0:0:
402,192,138800,1,0,0:0:0:0:
182,192,138800,1,0,0:0:0:0:
109,192,138900,1,0,0:0:0:0:
329,192,138900,1,0,0:0:0:0:
475,192,139000,1,0,0:0:0:0:
36,192,139100,1,0,0:0:0:0:
256,192,139100,1,0,0:0:0:0:
182,192,139200,1,0,0:0:0:0:
402,192,139200,1,0,0:0:0:0:
109,192,139300,1,0,0:0:0:0:
329,192,139300,1,0,0:0:0:0:
475,192,139400,1,0,0:0:0:0:
36,192,139500,1,0,0:0:0:0:
256,192,139500,1,0,0:0:0:0:
182,192,139600,1,0,0:0:0:0:
329,192,139700,1,0,0:0:0:0:
475,192,139700,1,0,0:0:0:0:
182,192,139800,1,0,0:0:0:0:
36,192,139800,1,0,0:0:0:0:
402,192,139900,1,0,0:0:0:0:
109,192,140000,1,0,0:0:0:0:
256,192,140000,1,0,0:0:0:0:
329,192,140100,1,0,0:0:0:0:
475,192,140100,1,0,0:0:0:0:
36,192,140200,1,0,0:0:0:0:
109,192,140300,1,0,0:0:0:0:
402,192,140300,1,0,0:0:0:0:
256,192,140400,1,0,0:0:0:0:
36,192,140500,1,0,0:0:0:0:
475,192,140500,1,0,0:0:0:0:
182,192,140600,1,0,0:0:0:0:
402,192,140700,1,0,0:0:0:0:
109,192,140700,1,0,0:0:0:0:
182,192,140800,1,0,0:0:0:0:
329,192,140800,1,0,0:0:0:0:
256,192,140900,1,0,0:0:0:0:
109,192,141000,1,0,0:0:0:0:
402,192,141000,1,0,0:0:0:0:
36,192,141100,1,0,0:0:0:0:
475,192,141100,1,0,0:0:0:0:
329,192,141200,1,0,0:0:0:0:
182,192,141200,1,4,0:0:0:0:
36,192,141266,1,0,0:0:0:0:
475,192,141333,1,0,0:0:0:0:
109,192,141400,1,0,0:0:0:0:
402,192,141466,1,0,0:0:0:0:
182,192,141533,1,0,0:0:0:0:
329,192,141600,1,0,0:0:0:0:
475,192,141600,1,0,0:0:0:0:
109,192,141666,1,0,0:0:0:0:
402,192,141733,1,0,0:0:0:0:
36,192,141800,1,0,0:0:0:0:
256,192,141866,1,0,0:0:0:0:
475,192,141933,1,0,0:0:0:0:
329,192,142000,1,0,0:0:0:0:
182,192,142000,1,0,0:0:0:0:
36,192,142066,1,0,0:0:0:0:
475,192,142133,1,0,0:0:0:0:
109,192,142200,1,0,0:0:0:0:
402,192,142266,1,0,0:0:0:0:
182,192,142333,1,0,0:0:0:0:
329,192,142400,1,0,0:0:0:0:
475,192,142400,1,0,0:0:0:0:
36,192,142466,1,0,0:0:0:0:
182,192,142533,1,0,0:0:0:0:
329,192,142600,1,0,0:0:0:0:
475,192,142666,1,0,0:0:0:0:
36,192,142733,1,0,0:0:0:0:
182,192,142800,1,0,0:0:0:0:
329,192,142800,1,0,0:0:0:0:
475,192,142866,1,0,0:0:0:0:
36,192,142933,1,0,0:0:0:0:
402,192,143000,1,0,0:0:0:0:
109,192,143066,1,0,0:0:0:0:
329,192,143133,1,0,0:0:0:0:
182,192,143200,1,0,0:0:0:0:
36,192,143200,1,0,0:0:0:0:
402,192,143266,1,0,0:0:0:0:
109,192,143333,1,0,0:0:0:0:
475,192,143400,1,0,0:0:0:0:
256,192,143466,1,0,0:0:0:0:
36,192,143533,1,0,0:0:0:0:
182,192,143600,1,0,0:0:0:0:
329,192,143600,1,0,0:0:0:0:
475,192,143666,1,0,0:0:0:0:
36,192,143733,1,0,0:0:0:0:
402,192,143800,1,0,0:0:0:0:
109,192,143866,1,0,0:0:0:0:
329,192,143933,1,0,0:0:0:0:
182,192,144000,1,0,0:0:0:0:
36,192,144000,1,0,0:0:0:0:
402,192,144066,1,0,0:0:0:0:
109,192,144133,1,0,0:0:0:0:
475,192,144200,1,0,0:0:0:0:
256,192,144266,1,0,0:0:0:0:
36,192,144333,1,0,0:0:0:0:
475,192,144400,1,0,0:0:0:0:
329,192,144400,1,0,0:0:0:0:
182,192,144466,1,0,0:0:0:0:
36,192,144533,1,0,0:0:0:0:
402,192,144600,1,0,0:0:0:0:
256,192,144666,1,0,0:0:0:0:
109,192,144733,1,0,0:0:0:0:
475,192,144800,1,0,0:0:0:0:
36,192,144800,1,0,0:0:0:0:
329,192,144866,1,0,0:0:0:0:
182,192,144933,1,0,0:0:0:0:
402,192,145000,1,0,0:0:0:0:
109,192,145066,1,0,0:0:0:0:
256,192,145133,1,0,0:0:0:0:
475,192,145200,1,0,0:0:0:0:
329,192,145200,1,0,0:0:0:0:
182,192,145266,1,0,0:0:0:0:
36,192,145333,1,0,0:0:0:0:
402,192,145400,1,0,0:0:0:0:
256,192,145466,1,0,0:0:0:0:
109,192,145533,1,0,0:0:0:0:
475,192,145600,1,0,0:0:0:0:
36,192,145600,1,0,0:0:0:0:
329,192,145666,1,0,0:0:0:0:
182,192,145733,1,0,0:0:0:0:
402,192,145800,1,0,0:0:0:0:
109,192,145866,1,0,0:0:0:0:
256,192,145933,1,0,0:0:0:0:
182,192,146000,1,0,0:0:0:0:
36,192,146000,1,0,0:0:0:0:
329,192,146066,1,0,0:0:0:0:
475,192,146133,1,0,0:0:0:0:
109,192,146200,1,0,0:0:0:0:
256,192,146266,1,0,0:0:0:0:
402,192,146333,1,0,0:0:0:0:
36,192,146400,1,0,0:0:0:0:
475,192,146400,1,0,0:0:0:0:
182,192,146466,1,0,0:0:0:0:
329,192,146533,1,0,0:0:0:0:
109,192,146600,1,0,0:0:0:0:
402,192,146666,1,0,0:0:0:0:
256,192,146733,1,0,0:0:0:0:
36,192,146800,1,0,0:0:0:0:
182,192,146800,1,0,0:0:0:0:
329,192,146866,1,0,0:0:0:0:
475,192,146933,1,0,0:0:0:0:
109,192,147000,1,0,0:0:0:0:
256,192,147066,1,0,0:0:0:0:
402,192,147133,1,0,0:0:0:0:
36,192,147200,1,0,0:0:0:0:
475,192,147200,1,0,0:0:0:0:
182,192,147266,1,0,0:0:0:0:
256,192,147300,1,0,0:0:0:0:
329,192,147333,1,0,0:0:0:0:
109,192,147400,1,0,0:0:0:0:
402,192,147466,1,0,0:0:0:0:
182,192,147500,1,0,0:0:0:0:
256,192,147533,1,0,0:0:0:0:
475,192,147600,1,4,0:0:0:0:
36,192,147600,1,0,0:0:0:0:
329,192,147800,1,0,0:0:0:0:
182,192,148000,1,0,0:0:0:0:
329,192,148200,1,0,0:0:0:0:
475,192,148400,1,0,0:0:0:0:
182,192,148600,1,0,0:0:0:0:
329,192,148800,1,0,0:0:0:0:
182,192,149000,1,0,0:0:0:0:
329,192,149100,1,0,0:0:0:0:
36,192,149200,1,0,0:0:0:0:
402,192,149400,1,0,0:0:0:0:
109,192,149600,1,0,0:0:0:0:
402,192,149800,1,0,0:0:0:0:
475,192,150000,1,0,0:0:0:0:
109,192,150200,1,0,0:0:0:0:
402,192,150300,1,0,0:0:0:0:
109,192,150400,1,0,0:0:0:0:
402,192,150600,1,0,0:0:0:0:
475,192,150800,1,4,0:0:0:0:
36,192,150800,1,0,0:0:0:0:
329,192,150900,1,0,0:0:0:0:
182,192,151000,1,0,0:0:0:0:
329,192,151100,1,0,0:0:0:0:
475,192,151200,1,0,0:0:0:0:
182,192,151300,1,0,0:0:0:0:
329,192,151400,1,0,0:0:0:0:
182,192,151500,1,0,0:0:0:0:
36,192,151600,1,0,0:0:0:0:
402,192,151700,1,0,0:0:0:0:
109,192,151800,1,0,0:0:0:0:
402,192,151900,1,0,0:0:0:0:
475,192,152000,1,0,0:0:0:0:
109,192,152100,1,0,0:0:0:0:
402,192,152200,1,0,0:0:0:0:
109,192,152300,1,0,0:0:0:0:
36,192,152400,1,0,0:0:0:0:
475,192,152400,1,4,0:0:0:0:
402,192,152466,1,0,0:0:0:0:
109,192,152533,1,0,0:0:0:0:
329,192,152600,1,0,0:0:0:0:
182,192,152666,1,0,0:0:0:0:
402,192,152733,1,0,0:0:0:0:
109,192,152800,1,0,0:0:0:0:
329,192,152866,1,0,0:0:0:0:
182,192,152933,1,0,0:0:0:0:
402,192,153000,1,0,0:0:0:0:
109,192,153066,1,0,0:0:0:0:
329,192,153133,1,0,0:0:0:0:
36,192,153200,1,0,0:0:0:0:
475,192,153266,1,0,0:0:0:0:
182,192,153333,1,0,0:0:0:0:
329,192,153400,1,0,0:0:0:0:
36,192,153466,1,0,0:0:0:0:
475,192,153533,1,0,0:0:0:0:
182,192,153600,1,0,0:0:0:0:
329,192,153666,1,0,0:0:0:0:
36,192,153733,1,0,0:0:0:0:
475,192,153800,1,0,0:0:0:0:
182,192,153866,1,0,0:0:0:0:
329,192,153933,1,0,0:0:0:0:
36,192,154000,1,0,0:0:0:0:
256,192,154100,128,0,154200:0:0:0:0:
