osu file format v14

[General]
AudioFilename: audio.mp3
AudioLeadIn: 0
PreviewTime: 10542
Countdown: 0
SampleSet: Soft
StackLeniency: 0.7
Mode: 3
LetterboxInBreaks: 0
SpecialStyle: 0
WidescreenStoryboard: 0

[Editor]
DistanceSpacing: 0.8
BeatDivisor: 8
GridSize: 16
TimelineZoom: 1.7

[Metadata]
Title:XRISPITSCORE
TitleUnicode:XRISPITSCORE
Artist:Nemona
ArtistUnicode:Nemona
Creator:mijkolsmith
Version:Crispy
Source:
Tags:
BeatmapID:1628885
BeatmapSetID:775112

[Difficulty]
HPDrainRate:8
CircleSize:4
OverallDifficulty:8
ApproachRate:5
SliderMultiplier:1.4
SliderTickRate:1

[Events]
//Background and Video events
0,0,"wow.jpg",0,0
//Break Periods
//Storyboard Layer 0 (Background)
//Storyboard Layer 1 (Fail)
//Storyboard Layer 2 (Pass)
//Storyboard Layer 3 (Foreground)
//Storyboard Sound Samples

[TimingPoints]
14033,218.181818181818,4,2,0,20,1,0

[HitObjects]
64,192,7051,5,0,0:0:0:0:
64,192,7160,1,0,0:0:0:0:
64,192,7269,1,0,0:0:0:0:
448,192,7378,1,0,0:0:0:0:
448,192,7433,1,0,0:0:0:0:
64,192,7487,1,0,0:0:0:0:
64,192,7596,1,0,0:0:0:0:
64,192,7705,1,0,0:0:0:0:
448,192,7814,1,0,0:0:0:0:
448,192,7869,1,0,0:0:0:0:
64,192,7923,1,0,0:0:0:0:
64,192,8033,1,0,0:0:0:0:
64,192,8142,1,0,0:0:0:0:
448,192,8251,1,0,0:0:0:0:
448,192,8305,1,0,0:0:0:0:
64,192,8360,1,0,0:0:0:0:
64,192,8469,1,0,0:0:0:0:
64,192,8578,1,0,0:0:0:0:
448,192,8687,1,0,0:0:0:0:
448,192,8742,1,0,0:0:0:0:
192,192,8796,1,0,0:0:0:0:
64,192,8905,1,0,0:0:0:0:
448,192,9014,1,0,0:0:0:0:
320,192,9051,1,0,0:0:0:0:
192,192,9087,1,0,0:0:0:0:
64,192,9123,1,0,0:0:0:0:
448,192,9160,1,0,0:0:0:0:
320,192,9196,1,0,0:0:0:0:
192,192,9233,1,0,0:0:0:0:
64,192,9342,1,0,0:0:0:0:
448,192,9451,1,0,0:0:0:0:
320,192,9487,1,0,0:0:0:0:
192,192,9523,1,0,0:0:0:0:
64,192,9560,1,0,0:0:0:0:
448,192,9596,1,0,0:0:0:0:
320,192,9633,1,0,0:0:0:0:
64,192,9669,1,0,0:0:0:0:
64,192,9778,1,0,0:0:0:0:
192,192,9887,1,0,0:0:0:0:
320,192,9914,1,0,0:0:0:0:
448,192,9942,1,0,0:0:0:0:
64,192,9996,1,0,0:0:0:0:
64,192,10105,1,0,0:0:0:0:
192,192,10214,1,0,0:0:0:0:
320,192,10242,1,0,0:0:0:0:
448,192,10269,1,0,0:0:0:0:
64,192,10323,1,0,0:0:0:0:
64,192,10542,128,0,10760:0:0:0:0:
192,192,10760,1,0,0:0:0:0:
320,192,10978,128,0,11196:0:0:0:0:
448,192,11196,128,0,11414:0:0:0:0:
64,192,11414,1,0,0:0:0:0:
192,192,11633,128,0,11851:0:0:0:0:
320,192,11851,128,0,12069:0:0:0:0:
448,192,12069,1,0,0:0:0:0:
192,192,12287,128,0,12723:0:0:0:0:
64,192,12723,128,0,13487:0:0:0:0:
64,192,14032,1,0,0:0:0:0:
192,192,14032,1,0,0:0:0:0:
448,192,14032,1,0,0:0:0:0:
448,192,14142,1,0,0:0:0:0:
64,192,14251,1,0,0:0:0:0:
320,192,14251,1,0,0:0:0:0:
192,192,14360,1,0,0:0:0:0:
192,192,14414,1,0,0:0:0:0:
320,192,14469,1,0,0:0:0:0:
448,192,14469,1,0,0:0:0:0:
320,192,14578,1,0,0:0:0:0:
448,192,14687,1,0,0:0:0:0:
64,192,14687,1,0,0:0:0:0:
320,192,14796,1,0,0:0:0:0:
320,192,14851,1,0,0:0:0:0:
192,192,14905,1,0,0:0:0:0:
64,192,14905,1,0,0:0:0:0:
192,192,15014,1,0,0:0:0:0:
320,192,15123,1,0,0:0:0:0:
64,192,15123,1,0,0:0:0:0:
192,192,15232,1,0,0:0:0:0:
192,192,15287,1,0,0:0:0:0:
448,192,15342,1,0,0:0:0:0:
320,192,15342,1,0,0:0:0:0:
448,192,15451,1,0,0:0:0:0:
192,192,15560,1,0,0:0:0:0:
448,192,15560,1,0,0:0:0:0:
320,192,15669,1,0,0:0:0:0:
320,192,15723,1,0,0:0:0:0:
192,192,15778,1,0,0:0:0:0:
64,192,15778,1,0,0:0:0:0:
192,192,15887,1,0,0:0:0:0:
64,192,15996,1,0,0:0:0:0:
192,192,16032,1,0,0:0:0:0:
320,192,16069,1,0,0:0:0:0:
448,192,16105,1,0,0:0:0:0:
64,192,16142,1,0,0:0:0:0:
192,192,16178,1,0,0:0:0:0:
320,192,16214,1,0,0:0:0:0:
448,192,16214,1,0,0:0:0:0:
64,192,16323,1,0,0:0:0:0:
448,192,16432,1,0,0:0:0:0:
320,192,16469,1,0,0:0:0:0:
192,192,16505,1,0,0:0:0:0:
64,192,16542,1,0,0:0:0:0:
448,192,16578,1,0,0:0:0:0:
320,192,16614,1,0,0:0:0:0:
192,192,16651,1,0,0:0:0:0:
64,192,16651,1,0,0:0:0:0:
192,192,16760,1,0,0:0:0:0:
448,192,16869,1,0,0:0:0:0:
64,192,16869,1,0,0:0:0:0:
192,192,16896,1,0,0:0:0:0:
320,192,16923,1,0,0:0:0:0:
448,192,16978,1,0,0:0:0:0:
320,192,17087,1,0,0:0:0:0:
64,192,17087,1,0,0:0:0:0:
192,192,17196,1,0,0:0:0:0:
320,192,17223,1,0,0:0:0:0:
448,192,17251,1,0,0:0:0:0:
192,192,17305,1,0,0:0:0:0:
64,192,17305,1,0,0:0:0:0:
320,192,17414,1,0,0:0:0:0:
448,192,17523,1,0,0:0:0:0:
64,192,17523,1,0,0:0:0:0:
64,192,17632,1,0,0:0:0:0:
192,192,17742,1,0,0:0:0:0:
448,192,17742,1,0,0:0:0:0:
320,192,17851,1,0,0:0:0:0:
320,192,17905,1,0,0:0:0:0:
64,192,17960,1,0,0:0:0:0:
448,192,17960,1,0,0:0:0:0:
64,192,18069,1,0,0:0:0:0:
192,192,18178,1,0,0:0:0:0:
320,192,18178,1,0,0:0:0:0:
448,192,18287,1,0,0:0:0:0:
448,192,18342,1,0,0:0:0:0:
320,192,18396,1,0,0:0:0:0:
64,192,18396,1,0,0:0:0:0:
64,192,18505,1,0,0:0:0:0:
192,192,18614,1,0,0:0:0:0:
320,192,18614,1,0,0:0:0:0:
64,192,18723,1,0,0:0:0:0:
64,192,18778,1,0,0:0:0:0:
192,192,18832,1,0,0:0:0:0:
448,192,18832,1,0,0:0:0:0:
192,192,18942,1,0,0:0:0:0:
64,192,19051,1,0,0:0:0:0:
448,192,19051,1,0,0:0:0:0:
320,192,19160,1,0,0:0:0:0:
320,192,19214,1,0,0:0:0:0:
448,192,19269,1,0,0:0:0:0:
64,192,19269,1,0,0:0:0:0:
64,192,19378,1,0,0:0:0:0:
320,192,19487,1,0,0:0:0:0:
192,192,19523,1,0,0:0:0:0:
64,192,19560,1,0,0:0:0:0:
448,192,19596,1,0,0:0:0:0:
320,192,19632,1,0,0:0:0:0:
192,192,19669,1,0,0:0:0:0:
64,192,19705,1,0,0:0:0:0:
448,192,19705,1,0,0:0:0:0:
320,192,19814,1,0,0:0:0:0:
192,192,19923,1,0,0:0:0:0:
320,192,19960,1,0,0:0:0:0:
448,192,19996,1,0,0:0:0:0:
64,192,20032,1,0,0:0:0:0:
192,192,20069,1,0,0:0:0:0:
320,192,20105,1,0,0:0:0:0:
448,192,20142,1,0,0:0:0:0:
64,192,20142,1,0,0:0:0:0:
448,192,20251,1,0,0:0:0:0:
320,192,20360,1,0,0:0:0:0:
448,192,20360,1,0,0:0:0:0:
192,192,20387,1,0,0:0:0:0:
64,192,20414,1,0,0:0:0:0:
320,192,20469,1,0,0:0:0:0:
192,192,20578,1,0,0:0:0:0:
64,192,20578,1,0,0:0:0:0:
448,192,20687,1,0,0:0:0:0:
320,192,20714,1,0,0:0:0:0:
192,192,20742,1,0,0:0:0:0:
64,192,20796,1,0,0:0:0:0:
448,192,20796,1,0,0:0:0:0:
320,192,20905,1,0,0:0:0:0:
192,192,21014,1,0,0:0:0:0:
64,192,21014,1,0,0:0:0:0:
448,192,21014,1,0,0:0:0:0:
448,192,21123,1,0,0:0:0:0:
64,192,21232,1,0,0:0:0:0:
448,192,21232,1,0,0:0:0:0:
320,192,21342,1,0,0:0:0:0:
320,192,21396,1,0,0:0:0:0:
448,192,21451,1,0,0:0:0:0:
192,192,21451,1,0,0:0:0:0:
192,192,21560,1,0,0:0:0:0:
192,192,21669,1,0,0:0:0:0:
320,192,21669,1,0,0:0:0:0:
64,192,21778,1,0,0:0:0:0:
64,192,21832,1,0,0:0:0:0:
192,192,21887,1,0,0:0:0:0:
320,192,21887,1,0,0:0:0:0:
320,192,21996,1,0,0:0:0:0:
320,192,22105,1,0,0:0:0:0:
64,192,22105,1,0,0:0:0:0:
448,192,22214,1,0,0:0:0:0:
448,192,22269,1,0,0:0:0:0:
320,192,22323,1,0,0:0:0:0:
64,192,22323,1,0,0:0:0:0:
64,192,22432,1,0,0:0:0:0:
64,192,22542,1,0,0:0:0:0:
448,192,22542,1,0,0:0:0:0:
320,192,22651,1,0,0:0:0:0:
320,192,22705,1,0,0:0:0:0:
192,192,22760,1,0,0:0:0:0:
64,192,22760,1,0,0:0:0:0:
448,192,22869,1,0,0:0:0:0:
192,192,22978,1,0,0:0:0:0:
64,192,23014,1,0,0:0:0:0:
448,192,23051,1,0,0:0:0:0:
320,192,23087,1,0,0:0:0:0:
192,192,23123,1,0,0:0:0:0:
64,192,23160,1,0,0:0:0:0:
320,192,23196,1,0,0:0:0:0:
448,192,23196,1,0,0:0:0:0:
192,192,23305,1,0,0:0:0:0:
320,192,23414,1,0,0:0:0:0:
448,192,23451,1,0,0:0:0:0:
64,192,23487,1,0,0:0:0:0:
192,192,23523,1,0,0:0:0:0:
320,192,23560,1,0,0:0:0:0:
448,192,23596,1,0,0:0:0:0:
192,192,23632,1,0,0:0:0:0:
64,192,23632,1,0,0:0:0:0:
192,192,23742,1,0,0:0:0:0:
320,192,23851,1,0,0:0:0:0:
64,192,23851,1,0,0:0:0:0:
448,192,23878,1,0,0:0:0:0:
192,192,23905,1,0,0:0:0:0:
64,192,23960,1,0,0:0:0:0:
192,192,24069,1,0,0:0:0:0:
320,192,24069,1,0,0:0:0:0:
448,192,24178,1,0,0:0:0:0:
64,192,24205,1,0,0:0:0:0:
192,192,24232,1,0,0:0:0:0:
320,192,24287,1,0,0:0:0:0:
448,192,24287,1,0,0:0:0:0:
64,192,24396,1,0,0:0:0:0:
192,192,24505,1,0,0:0:0:0:
448,192,24505,1,0,0:0:0:0:
448,192,24614,1,0,0:0:0:0:
448,192,24723,1,0,0:0:0:0:
64,192,24723,1,0,0:0:0:0:
320,192,24832,1,0,0:0:0:0:
320,192,24887,1,0,0:0:0:0:
448,192,24942,1,0,0:0:0:0:
64,192,24942,1,0,0:0:0:0:
64,192,25051,1,0,0:0:0:0:
64,192,25160,1,0,0:0:0:0:
448,192,25160,1,0,0:0:0:0:
192,192,25269,1,0,0:0:0:0:
192,192,25323,1,0,0:0:0:0:
320,192,25378,1,0,0:0:0:0:
64,192,25378,1,0,0:0:0:0:
320,192,25487,1,0,0:0:0:0:
320,192,25596,1,0,0:0:0:0:
192,192,25596,1,0,0:0:0:0:
448,192,25705,1,0,0:0:0:0:
448,192,25760,1,0,0:0:0:0:
192,192,25814,1,0,0:0:0:0:
64,192,25814,1,0,0:0:0:0:
192,192,25923,1,0,0:0:0:0:
192,192,26032,1,0,0:0:0:0:
448,192,26032,1,0,0:0:0:0:
64,192,26142,1,0,0:0:0:0:
64,192,26196,1,0,0:0:0:0:
192,192,26251,1,0,0:0:0:0:
448,192,26251,1,0,0:0:0:0:
448,192,27014,1,0,0:0:0:0:
320,192,27287,1,0,0:0:0:0:
192,192,27560,1,0,0:0:0:0:
64,192,27778,1,0,0:0:0:0:
448,192,27996,1,0,0:0:0:0:
320,192,27996,1,0,0:0:0:0:
192,192,27996,1,0,0:0:0:0:
64,192,28105,1,0,0:0:0:0:
448,192,28214,1,0,0:0:0:0:
192,192,28214,1,0,0:0:0:0:
320,192,28323,1,0,0:0:0:0:
192,192,28432,1,0,0:0:0:0:
64,192,28432,1,0,0:0:0:0:
448,192,28542,1,0,0:0:0:0:
64,192,28651,1,0,0:0:0:0:
192,192,28651,1,0,0:0:0:0:
320,192,28760,1,0,0:0:0:0:
64,192,28869,1,0,0:0:0:0:
192,192,28869,1,0,0:0:0:0:
448,192,28923,1,0,0:0:0:0:
64,192,28978,1,0,0:0:0:0:
448,192,29032,1,0,0:0:0:0:
192,192,29087,1,0,0:0:0:0:
64,192,29087,1,0,0:0:0:0:
320,192,29196,1,0,0:0:0:0:
320,192,29305,1,0,0:0:0:0:
192,192,29305,1,0,0:0:0:0:
64,192,29414,1,0,0:0:0:0:
320,192,29523,1,0,0:0:0:0:
448,192,29523,1,0,0:0:0:0:
192,192,29632,1,0,0:0:0:0:
448,192,29742,1,0,0:0:0:0:
192,192,29742,1,0,0:0:0:0:
192,192,29851,1,0,0:0:0:0:
192,192,29960,1,0,0:0:0:0:
64,192,29960,1,0,0:0:0:0:
192,192,30069,1,0,0:0:0:0:
320,192,30178,1,0,0:0:0:0:
448,192,30178,1,0,0:0:0:0:
192,192,30287,1,0,0:0:0:0:
192,192,30342,1,0,0:0:0:0:
448,192,30396,1,0,0:0:0:0:
64,192,30396,1,0,0:0:0:0:
320,192,30505,1,0,0:0:0:0:
64,192,30614,1,0,0:0:0:0:
448,192,30669,1,0,0:0:0:0:
64,192,30723,1,0,0:0:0:0:
448,192,30778,1,0,0:0:0:0:
64,192,30832,1,0,0:0:0:0:
192,192,30832,1,0,0:0:0:0:
320,192,30869,1,0,0:0:0:0:
448,192,30905,1,0,0:0:0:0:
64,192,30942,1,0,0:0:0:0:
192,192,30978,1,0,0:0:0:0:
320,192,31014,1,0,0:0:0:0:
448,192,31051,1,0,0:0:0:0:
64,192,31051,1,0,0:0:0:0:
192,192,31160,1,0,0:0:0:0:
64,192,31269,1,0,0:0:0:0:
448,192,31269,1,0,0:0:0:0:
320,192,31378,1,0,0:0:0:0:
192,192,31487,1,0,0:0:0:0:
448,192,31487,1,0,0:0:0:0:
64,192,31596,1,0,0:0:0:0:
64,192,31705,1,0,0:0:0:0:
192,192,31705,1,0,0:0:0:0:
64,192,31814,1,0,0:0:0:0:
320,192,31923,1,0,0:0:0:0:
192,192,31923,1,0,0:0:0:0:
448,192,32032,1,0,0:0:0:0:
320,192,32142,1,0,0:0:0:0:
192,192,32142,1,0,0:0:0:0:
64,192,32251,1,0,0:0:0:0:
448,192,32360,1,0,0:0:0:0:
320,192,32360,1,0,0:0:0:0:
64,192,32469,1,0,0:0:0:0:
448,192,32578,1,0,0:0:0:0:
320,192,32578,1,0,0:0:0:0:
192,192,32687,1,0,0:0:0:0:
320,192,32796,1,0,0:0:0:0:
448,192,32796,1,0,0:0:0:0:
320,192,32905,1,0,0:0:0:0:
192,192,33014,1,0,0:0:0:0:
64,192,33014,1,0,0:0:0:0:
320,192,33069,1,0,0:0:0:0:
192,192,33123,1,0,0:0:0:0:
320,192,33178,1,0,0:0:0:0:
64,192,33232,1,0,0:0:0:0:
448,192,33232,1,0,0:0:0:0:
64,192,33342,1,0,0:0:0:0:
64,192,33451,1,0,0:0:0:0:
320,192,33451,1,0,0:0:0:0:
64,192,33560,1,0,0:0:0:0:
192,192,33669,1,0,0:0:0:0:
448,192,33669,1,0,0:0:0:0:
320,192,33778,1,0,0:0:0:0:
192,192,33887,1,0,0:0:0:0:
448,192,33887,1,0,0:0:0:0:
320,192,33996,1,0,0:0:0:0:
192,192,34105,1,0,0:0:0:0:
64,192,34105,1,0,0:0:0:0:
320,192,34160,1,0,0:0:0:0:
192,192,34214,1,0,0:0:0:0:
320,192,34269,1,0,0:0:0:0:
64,192,34323,1,0,0:0:0:0:
448,192,34323,1,0,0:0:0:0:
64,192,34432,1,0,0:0:0:0:
320,192,34542,1,0,0:0:0:0:
192,192,34542,1,0,0:0:0:0:
448,192,34596,1,0,0:0:0:0:
320,192,34651,1,0,0:0:0:0:
448,192,34705,1,0,0:0:0:0:
192,192,34760,1,0,0:0:0:0:
64,192,34760,1,0,0:0:0:0:
192,192,34869,1,0,0:0:0:0:
64,192,34978,1,0,0:0:0:0:
320,192,34978,1,0,0:0:0:0:
448,192,34978,1,0,0:0:0:0:
192,192,35087,1,0,0:0:0:0:
320,192,35196,1,0,0:0:0:0:
448,192,35196,1,0,0:0:0:0:
192,192,35305,1,0,0:0:0:0:
64,192,35414,1,0,0:0:0:0:
320,192,35414,1,0,0:0:0:0:
192,192,35523,1,0,0:0:0:0:
320,192,35632,1,0,0:0:0:0:
64,192,35632,1,0,0:0:0:0:
448,192,35742,1,0,0:0:0:0:
320,192,35851,1,0,0:0:0:0:
64,192,35851,1,0,0:0:0:0:
192,192,35905,1,0,0:0:0:0:
64,192,35960,1,0,0:0:0:0:
192,192,36014,1,0,0:0:0:0:
320,192,36069,1,0,0:0:0:0:
448,192,36069,1,0,0:0:0:0:
448,192,36178,1,0,0:0:0:0:
448,192,36287,1,0,0:0:0:0:
64,192,36287,1,0,0:0:0:0:
192,192,36396,1,0,0:0:0:0:
64,192,36505,1,0,0:0:0:0:
320,192,36505,1,0,0:0:0:0:
448,192,36614,1,0,0:0:0:0:
448,192,36723,1,0,0:0:0:0:
192,192,36723,1,0,0:0:0:0:
448,192,36832,1,0,0:0:0:0:
448,192,36942,1,0,0:0:0:0:
64,192,36942,1,0,0:0:0:0:
448,192,37051,1,0,0:0:0:0:
320,192,37160,1,0,0:0:0:0:
192,192,37160,1,0,0:0:0:0:
448,192,37269,1,0,0:0:0:0:
448,192,37323,1,0,0:0:0:0:
192,192,37378,1,0,0:0:0:0:
64,192,37378,1,0,0:0:0:0:
448,192,37596,1,0,0:0:0:0:
320,192,37596,1,0,0:0:0:0:
64,192,37651,1,0,0:0:0:0:
448,192,37705,1,0,0:0:0:0:
64,192,37760,1,0,0:0:0:0:
192,192,37814,1,0,0:0:0:0:
448,192,37814,1,0,0:0:0:0:
320,192,37851,1,0,0:0:0:0:
64,192,37887,1,0,0:0:0:0:
192,192,37923,1,0,0:0:0:0:
320,192,37960,1,0,0:0:0:0:
448,192,37996,1,0,0:0:0:0:
64,192,38032,1,0,0:0:0:0:
192,192,38032,1,0,0:0:0:0:
320,192,38142,1,0,0:0:0:0:
192,192,38251,1,0,0:0:0:0:
64,192,38251,1,0,0:0:0:0:
320,192,38360,1,0,0:0:0:0:
64,192,38469,1,0,0:0:0:0:
448,192,38469,1,0,0:0:0:0:
192,192,38578,1,0,0:0:0:0:
192,192,38687,1,0,0:0:0:0:
64,192,38687,1,0,0:0:0:0:
192,192,38796,1,0,0:0:0:0:
320,192,38905,1,0,0:0:0:0:
448,192,38905,1,0,0:0:0:0:
192,192,39014,1,0,0:0:0:0:
448,192,39123,1,0,0:0:0:0:
320,192,39123,1,0,0:0:0:0:
64,192,39232,1,0,0:0:0:0:
192,192,39342,1,0,0:0:0:0:
320,192,39342,1,0,0:0:0:0:
448,192,39451,1,0,0:0:0:0:
320,192,39560,1,0,0:0:0:0:
192,192,39560,1,0,0:0:0:0:
64,192,39669,1,0,0:0:0:0:
192,192,39778,1,0,0:0:0:0:
320,192,39778,1,0,0:0:0:0:
320,192,39887,1,0,0:0:0:0:
64,192,39996,1,0,0:0:0:0:
192,192,39996,1,0,0:0:0:0:
448,192,40051,1,0,0:0:0:0:
64,192,40105,1,0,0:0:0:0:
448,192,40160,1,0,0:0:0:0:
64,192,40214,1,0,0:0:0:0:
320,192,40214,1,0,0:0:0:0:
320,192,40323,1,0,0:0:0:0:
320,192,40432,1,0,0:0:0:0:
192,192,40432,1,0,0:0:0:0:
320,192,40542,1,0,0:0:0:0:
192,192,40651,1,0,0:0:0:0:
64,192,40651,1,0,0:0:0:0:
448,192,40760,1,0,0:0:0:0:
192,192,40869,1,0,0:0:0:0:
64,192,40869,1,0,0:0:0:0:
448,192,40978,1,0,0:0:0:0:
192,192,41087,1,0,0:0:0:0:
64,192,41087,1,0,0:0:0:0:
448,192,41142,1,0,0:0:0:0:
192,192,41196,1,0,0:0:0:0:
448,192,41251,1,0,0:0:0:0:
192,192,41305,1,0,0:0:0:0:
320,192,41305,1,0,0:0:0:0:
320,192,41414,1,0,0:0:0:0:
448,192,41523,1,0,0:0:0:0:
64,192,41523,1,0,0:0:0:0:
320,192,41578,1,0,0:0:0:0:
64,192,41632,1,0,0:0:0:0:
320,192,41687,1,0,0:0:0:0:
192,192,41742,1,0,0:0:0:0:
64,192,41742,1,0,0:0:0:0:
192,192,41851,1,0,0:0:0:0:
320,192,41960,1,0,0:0:0:0:
448,192,41960,1,0,0:0:0:0:
448,192,42396,1,0,0:0:0:0:
448,192,42614,1,0,0:0:0:0:
448,192,42832,1,0,0:0:0:0:
448,192,43051,1,0,0:0:0:0:
448,192,43160,1,0,0:0:0:0:
448,192,43269,1,0,0:0:0:0:
448,192,43378,1,0,0:0:0:0:
64,192,43432,1,0,0:0:0:0:
448,192,43487,1,0,0:0:0:0:
64,192,43542,1,0,0:0:0:0:
448,192,43596,1,0,0:0:0:0:
192,192,43705,1,0,0:0:0:0:
320,192,43705,1,0,0:0:0:0:
64,192,43705,1,0,0:0:0:0:
448,192,43814,1,0,0:0:0:0:
320,192,43923,1,0,0:0:0:0:
64,192,43923,1,0,0:0:0:0:
192,192,44032,1,0,0:0:0:0:
320,192,44142,1,0,0:0:0:0:
64,192,44142,1,0,0:0:0:0:
448,192,44251,1,0,0:0:0:0:
320,192,44360,1,0,0:0:0:0:
64,192,44360,1,0,0:0:0:0:
192,192,44469,1,0,0:0:0:0:
64,192,44578,1,0,0:0:0:0:
320,192,44578,1,0,0:0:0:0:
320,192,44687,1,0,0:0:0:0:
320,192,44796,1,0,0:0:0:0:
192,192,44796,1,0,0:0:0:0:
320,192,44905,1,0,0:0:0:0:
192,192,45014,1,0,0:0:0:0:
320,192,45014,1,0,0:0:0:0:
320,192,45123,1,0,0:0:0:0:
320,192,45232,1,0,0:0:0:0:
64,192,45232,1,0,0:0:0:0:
320,192,45342,1,0,0:0:0:0:
192,192,45451,1,0,0:0:0:0:
320,192,45451,1,0,0:0:0:0:
64,192,45560,1,0,0:0:0:0:
192,192,45669,1,0,0:0:0:0:
320,192,45669,1,0,0:0:0:0:
448,192,45778,1,0,0:0:0:0:
320,192,45887,1,0,0:0:0:0:
192,192,45887,1,0,0:0:0:0:
64,192,45996,1,0,0:0:0:0:
192,192,46105,1,0,0:0:0:0:
320,192,46105,1,0,0:0:0:0:
448,192,46214,1,0,0:0:0:0:
320,192,46323,1,0,0:0:0:0:
192,192,46323,1,0,0:0:0:0:
448,192,46378,1,0,0:0:0:0:
192,192,46432,1,0,0:0:0:0:
192,192,46542,1,0,0:0:0:0:
320,192,46542,1,0,0:0:0:0:
192,192,46651,1,0,0:0:0:0:
192,192,46760,1,0,0:0:0:0:
320,192,46760,1,0,0:0:0:0:
448,192,46814,1,0,0:0:0:0:
192,192,46869,1,0,0:0:0:0:
192,192,46978,1,0,0:0:0:0:
320,192,46978,1,0,0:0:0:0:
192,192,47087,1,0,0:0:0:0:
448,192,47196,1,0,0:0:0:0:
192,192,47196,1,0,0:0:0:0:
320,192,47305,1,0,0:0:0:0:
64,192,47414,1,0,0:0:0:0:
448,192,47414,1,0,0:0:0:0:
192,192,47523,1,0,0:0:0:0:
64,192,47632,1,0,0:0:0:0:
448,192,47632,1,0,0:0:0:0:
320,192,47742,1,0,0:0:0:0:
64,192,47851,1,0,0:0:0:0:
448,192,47851,1,0,0:0:0:0:
192,192,47960,1,0,0:0:0:0:
64,192,48069,1,0,0:0:0:0:
448,192,48069,1,0,0:0:0:0:
64,192,48178,1,0,0:0:0:0:
64,192,48287,1,0,0:0:0:0:
320,192,48287,1,0,0:0:0:0:
64,192,48396,1,0,0:0:0:0:
64,192,48505,1,0,0:0:0:0:
448,192,48505,1,0,0:0:0:0:
64,192,48614,1,0,0:0:0:0:
64,192,48723,1,0,0:0:0:0:
320,192,48723,1,0,0:0:0:0:
64,192,48832,1,0,0:0:0:0:
64,192,48942,1,0,0:0:0:0:
448,192,48942,1,0,0:0:0:0:
192,192,49051,1,0,0:0:0:0:
448,192,49160,1,0,0:0:0:0:
64,192,49160,1,0,0:0:0:0:
320,192,49269,1,0,0:0:0:0:
64,192,49378,1,0,0:0:0:0:
448,192,49378,1,0,0:0:0:0:
192,192,49487,1,0,0:0:0:0:
64,192,49596,1,0,0:0:0:0:
448,192,49596,1,0,0:0:0:0:
320,192,49705,1,0,0:0:0:0:
64,192,49814,1,0,0:0:0:0:
448,192,49814,1,0,0:0:0:0:
192,192,49869,1,0,0:0:0:0:
448,192,49923,1,0,0:0:0:0:
320,192,50032,1,0,0:0:0:0:
448,192,50032,1,0,0:0:0:0:
448,192,50142,1,0,0:0:0:0:
64,192,50251,1,0,0:0:0:0:
448,192,50251,1,0,0:0:0:0:
192,192,50305,1,0,0:0:0:0:
448,192,50360,1,0,0:0:0:0:
64,192,50469,1,0,0:0:0:0:
448,192,50469,1,0,0:0:0:0:
448,192,50578,1,0,0:0:0:0:
320,192,50687,1,0,0:0:0:0:
448,192,50687,1,0,0:0:0:0:
64,192,50796,1,0,0:0:0:0:
320,192,50905,1,0,0:0:0:0:
448,192,50905,1,0,0:0:0:0:
64,192,51014,1,0,0:0:0:0:
320,192,51123,1,0,0:0:0:0:
448,192,51123,1,0,0:0:0:0:
192,192,51232,1,0,0:0:0:0:
320,192,51342,1,0,0:0:0:0:
448,192,51342,1,0,0:0:0:0:
192,192,51451,1,0,0:0:0:0:
320,192,51560,1,0,0:0:0:0:
448,192,51560,1,0,0:0:0:0:
320,192,51669,1,0,0:0:0:0:
320,192,51778,1,0,0:0:0:0:
64,192,51778,1,0,0:0:0:0:
320,192,51887,1,0,0:0:0:0:
320,192,51996,1,0,0:0:0:0:
192,192,51996,1,0,0:0:0:0:
320,192,52105,1,0,0:0:0:0:
320,192,52214,1,0,0:0:0:0:
192,192,52214,1,0,0:0:0:0:
320,192,52323,1,0,0:0:0:0:
320,192,52432,1,0,0:0:0:0:
64,192,52432,1,0,0:0:0:0:
192,192,52542,1,0,0:0:0:0:
320,192,52651,1,0,0:0:0:0:
64,192,52651,1,0,0:0:0:0:
192,192,52760,1,0,0:0:0:0:
64,192,52869,1,0,0:0:0:0:
320,192,52869,1,0,0:0:0:0:
448,192,52978,1,0,0:0:0:0:
64,192,53087,1,0,0:0:0:0:
320,192,53087,1,0,0:0:0:0:
448,192,53196,1,0,0:0:0:0:
320,192,53305,1,0,0:0:0:0:
64,192,53305,1,0,0:0:0:0:
448,192,53360,1,0,0:0:0:0:
64,192,53414,1,0,0:0:0:0:
64,192,53523,1,0,0:0:0:0:
192,192,53523,1,0,0:0:0:0:
64,192,53632,1,0,0:0:0:0:
64,192,53742,1,0,0:0:0:0:
320,192,53742,1,0,0:0:0:0:
448,192,53796,1,0,0:0:0:0:
64,192,53851,1,0,0:0:0:0:
64,192,53960,1,0,0:0:0:0:
448,192,53960,1,0,0:0:0:0:
64,192,54069,1,0,0:0:0:0:
64,192,54178,1,0,0:0:0:0:
192,192,54178,1,0,0:0:0:0:
320,192,54287,1,0,0:0:0:0:
192,192,54396,1,0,0:0:0:0:
64,192,54396,1,0,0:0:0:0:
320,192,54505,1,0,0:0:0:0:
64,192,54614,1,0,0:0:0:0:
192,192,54614,1,0,0:0:0:0:
448,192,54723,1,0,0:0:0:0:
192,192,54832,1,0,0:0:0:0:
64,192,54832,1,0,0:0:0:0:
448,192,54942,1,0,0:0:0:0:
64,192,55051,1,0,0:0:0:0:
192,192,55051,1,0,0:0:0:0:
192,192,55160,1,0,0:0:0:0:
192,192,55269,1,0,0:0:0:0:
320,192,55269,1,0,0:0:0:0:
192,192,55378,1,0,0:0:0:0:
192,192,55487,1,0,0:0:0:0:
448,192,55487,1,0,0:0:0:0:
192,192,55596,1,0,0:0:0:0:
192,192,55705,1,0,0:0:0:0:
320,192,55705,1,0,0:0:0:0:
192,192,55814,1,0,0:0:0:0:
192,192,55923,1,0,0:0:0:0:
448,192,55923,1,0,0:0:0:0:
320,192,56032,1,0,0:0:0:0:
192,192,56142,1,0,0:0:0:0:
448,192,56142,1,0,0:0:0:0:
320,192,56251,1,0,0:0:0:0:
192,192,56360,1,0,0:0:0:0:
448,192,56360,1,0,0:0:0:0:
64,192,56469,1,0,0:0:0:0:
192,192,56578,1,0,0:0:0:0:
448,192,56578,1,0,0:0:0:0:
64,192,56687,1,0,0:0:0:0:
192,192,56796,1,0,0:0:0:0:
448,192,56796,1,0,0:0:0:0:
64,192,56851,1,0,0:0:0:0:
448,192,56905,1,0,0:0:0:0:
448,192,57014,1,0,0:0:0:0:
320,192,57014,1,0,0:0:0:0:
448,192,57123,1,0,0:0:0:0:
448,192,57232,1,0,0:0:0:0:
192,192,57232,1,0,0:0:0:0:
64,192,57287,1,0,0:0:0:0:
448,192,57342,1,0,0:0:0:0:
448,192,57451,1,0,0:0:0:0:
192,192,57451,1,0,0:0:0:0:
448,192,57560,1,0,0:0:0:0:
448,192,57669,1,0,0:0:0:0:
64,192,57669,1,0,0:0:0:0:
192,192,57669,1,0,0:0:0:0:
192,192,57778,1,0,0:0:0:0:
448,192,57887,1,0,0:0:0:0:
64,192,57887,1,0,0:0:0:0:
320,192,57996,1,0,0:0:0:0:
320,192,58051,1,0,0:0:0:0:
192,192,58105,1,0,0:0:0:0:
64,192,58105,1,0,0:0:0:0:
192,192,58214,1,0,0:0:0:0:
320,192,58323,1,0,0:0:0:0:
448,192,58323,1,0,0:0:0:0:
64,192,58432,1,0,0:0:0:0:
64,192,58487,1,0,0:0:0:0:
192,192,58542,1,0,0:0:0:0:
448,192,58542,1,0,0:0:0:0:
448,192,58651,1,0,0:0:0:0:
320,192,58760,1,0,0:0:0:0:
64,192,58760,1,0,0:0:0:0:
448,192,58869,1,0,0:0:0:0:
448,192,58923,1,0,0:0:0:0:
192,192,58978,1,0,0:0:0:0:
64,192,58978,1,0,0:0:0:0:
64,192,59087,1,0,0:0:0:0:
320,192,59196,1,0,0:0:0:0:
448,192,59196,1,0,0:0:0:0:
192,192,59305,1,0,0:0:0:0:
192,192,59360,1,0,0:0:0:0:
320,192,59414,1,0,0:0:0:0:
64,192,59414,1,0,0:0:0:0:
320,192,59523,1,0,0:0:0:0:
64,192,59632,1,0,0:0:0:0:
192,192,59669,1,0,0:0:0:0:
448,192,59705,1,0,0:0:0:0:
320,192,59742,1,0,0:0:0:0:
192,192,59778,1,0,0:0:0:0:
64,192,59814,1,0,0:0:0:0:
320,192,59851,1,0,0:0:0:0:
448,192,59851,1,0,0:0:0:0:
192,192,59960,1,0,0:0:0:0:
448,192,60069,1,0,0:0:0:0:
320,192,60105,1,0,0:0:0:0:
64,192,60142,1,0,0:0:0:0:
192,192,60178,1,0,0:0:0:0:
320,192,60214,1,0,0:0:0:0:
448,192,60251,1,0,0:0:0:0:
192,192,60287,1,0,0:0:0:0:
64,192,60287,1,0,0:0:0:0:
192,192,60396,1,0,0:0:0:0:
320,192,60505,1,0,0:0:0:0:
64,192,60505,1,0,0:0:0:0:
448,192,60532,1,0,0:0:0:0:
192,192,60560,1,0,0:0:0:0:
64,192,60614,1,0,0:0:0:0:
192,192,60723,1,0,0:0:0:0:
320,192,60723,1,0,0:0:0:0:
64,192,60832,1,0,0:0:0:0:
192,192,60860,1,0,0:0:0:0:
320,192,60887,1,0,0:0:0:0:
64,192,60942,1,0,0:0:0:0:
448,192,60942,1,0,0:0:0:0:
192,192,61051,1,0,0:0:0:0:
320,192,61160,1,0,0:0:0:0:
448,192,61160,1,0,0:0:0:0:
192,192,61269,1,0,0:0:0:0:
320,192,61378,1,0,0:0:0:0:
64,192,61378,1,0,0:0:0:0:
448,192,61487,1,0,0:0:0:0:
448,192,61542,1,0,0:0:0:0:
320,192,61596,1,0,0:0:0:0:
64,192,61596,1,0,0:0:0:0:
64,192,61705,1,0,0:0:0:0:
320,192,61814,1,0,0:0:0:0:
448,192,61814,1,0,0:0:0:0:
192,192,61923,1,0,0:0:0:0:
192,192,61978,1,0,0:0:0:0:
64,192,62032,1,0,0:0:0:0:
448,192,62032,1,0,0:0:0:0:
64,192,62142,1,0,0:0:0:0:
320,192,62251,1,0,0:0:0:0:
448,192,62251,1,0,0:0:0:0:
64,192,62360,1,0,0:0:0:0:
64,192,62414,1,0,0:0:0:0:
192,192,62469,1,0,0:0:0:0:
448,192,62469,1,0,0:0:0:0:
448,192,62578,1,0,0:0:0:0:
64,192,62687,1,0,0:0:0:0:
192,192,62687,1,0,0:0:0:0:
320,192,62796,1,0,0:0:0:0:
320,192,62851,1,0,0:0:0:0:
448,192,62905,1,0,0:0:0:0:
64,192,62905,1,0,0:0:0:0:
192,192,63014,1,0,0:0:0:0:
320,192,63123,1,0,0:0:0:0:
192,192,63160,1,0,0:0:0:0:
448,192,63196,1,0,0:0:0:0:
320,192,63232,1,0,0:0:0:0:
64,192,63269,1,0,0:0:0:0:
192,192,63305,1,0,0:0:0:0:
320,192,63342,1,0,0:0:0:0:
448,192,63342,1,0,0:0:0:0:
192,192,63451,1,0,0:0:0:0:
320,192,63560,1,0,0:0:0:0:
448,192,63596,1,0,0:0:0:0:
64,192,63632,1,0,0:0:0:0:
192,192,63669,1,0,0:0:0:0:
448,192,63705,1,0,0:0:0:0:
320,192,63742,1,0,0:0:0:0:
192,192,63778,1,0,0:0:0:0:
64,192,63778,1,0,0:0:0:0:
192,192,63887,1,0,0:0:0:0:
192,192,63996,1,0,0:0:0:0:
64,192,63996,1,0,0:0:0:0:
320,192,64023,1,0,0:0:0:0:
448,192,64051,1,0,0:0:0:0:
64,192,64105,1,0,0:0:0:0:
448,192,64214,1,0,0:0:0:0:
320,192,64214,1,0,0:0:0:0:
192,192,64323,1,0,0:0:0:0:
320,192,64351,1,0,0:0:0:0:
448,192,64378,1,0,0:0:0:0:
64,192,64432,1,0,0:0:0:0:
192,192,64432,1,0,0:0:0:0:
320,192,64542,1,0,0:0:0:0:
192,192,64651,1,0,0:0:0:0:
64,192,64651,1,0,0:0:0:0:
448,192,64651,1,0,0:0:0:0:
64,192,64760,1,0,0:0:0:0:
64,192,64869,1,0,0:0:0:0:
448,192,64869,1,0,0:0:0:0:
192,192,64978,1,0,0:0:0:0:
192,192,65032,1,0,0:0:0:0:
448,192,65087,1,0,0:0:0:0:
320,192,65087,1,0,0:0:0:0:
320,192,65196,1,0,0:0:0:0:
192,192,65305,1,0,0:0:0:0:
320,192,65305,1,0,0:0:0:0:
448,192,65414,1,0,0:0:0:0:
448,192,65469,1,0,0:0:0:0:
192,192,65523,1,0,0:0:0:0:
320,192,65523,1,0,0:0:0:0:
192,192,65632,1,0,0:0:0:0:
192,192,65742,1,0,0:0:0:0:
64,192,65742,1,0,0:0:0:0:
320,192,65851,1,0,0:0:0:0:
320,192,65905,1,0,0:0:0:0:
448,192,65960,1,0,0:0:0:0:
64,192,65960,1,0,0:0:0:0:
448,192,66069,1,0,0:0:0:0:
192,192,66178,1,0,0:0:0:0:
448,192,66178,1,0,0:0:0:0:
64,192,66287,1,0,0:0:0:0:
64,192,66342,1,0,0:0:0:0:
448,192,66396,1,0,0:0:0:0:
192,192,66396,1,0,0:0:0:0:
448,192,66505,1,0,0:0:0:0:
192,192,66614,1,0,0:0:0:0:
320,192,66651,1,0,0:0:0:0:
64,192,66687,1,0,0:0:0:0:
192,192,66723,1,0,0:0:0:0:
448,192,66760,1,0,0:0:0:0:
320,192,66796,1,0,0:0:0:0:
192,192,66832,1,0,0:0:0:0:
64,192,66832,1,0,0:0:0:0:
64,192,66942,1,0,0:0:0:0:
192,192,67051,1,0,0:0:0:0:
64,192,67087,1,0,0:0:0:0:
448,192,67123,1,0,0:0:0:0:
320,192,67160,1,0,0:0:0:0:
64,192,67196,1,0,0:0:0:0:
192,192,67232,1,0,0:0:0:0:
320,192,67269,1,0,0:0:0:0:
448,192,67269,1,0,0:0:0:0:
448,192,67378,1,0,0:0:0:0:
320,192,67487,1,0,0:0:0:0:
192,192,67487,1,0,0:0:0:0:
64,192,67514,1,0,0:0:0:0:
448,192,67542,1,0,0:0:0:0:
192,192,67596,1,0,0:0:0:0:
64,192,67705,1,0,0:0:0:0:
320,192,67705,1,0,0:0:0:0:
448,192,67814,1,0,0:0:0:0:
320,192,67842,1,0,0:0:0:0:
192,192,67869,1,0,0:0:0:0:
64,192,67923,1,0,0:0:0:0:
448,192,67923,1,0,0:0:0:0:
320,192,68032,1,0,0:0:0:0:
64,192,68142,1,0,0:0:0:0:
192,192,68142,1,0,0:0:0:0:
192,192,68251,1,0,0:0:0:0:
448,192,68360,1,0,0:0:0:0:
64,192,68360,1,0,0:0:0:0:
320,192,68469,1,0,0:0:0:0:
320,192,68523,1,0,0:0:0:0:
192,192,68578,1,0,0:0:0:0:
448,192,68578,1,0,0:0:0:0:
448,192,68687,1,0,0:0:0:0:
320,192,68796,1,0,0:0:0:0:
192,192,68796,1,0,0:0:0:0:
64,192,68905,1,0,0:0:0:0:
64,192,68960,1,0,0:0:0:0:
448,192,69014,1,0,0:0:0:0:
320,192,69014,1,0,0:0:0:0:
320,192,69123,1,0,0:0:0:0:
64,192,69232,1,0,0:0:0:0:
192,192,69232,1,0,0:0:0:0:
448,192,69342,1,0,0:0:0:0:
448,192,69396,1,0,0:0:0:0:
64,192,69451,1,0,0:0:0:0:
192,192,69451,1,0,0:0:0:0:
320,192,69560,1,0,0:0:0:0:
448,192,69669,1,0,0:0:0:0:
64,192,69669,1,0,0:0:0:0:
192,192,69778,1,0,0:0:0:0:
192,192,69832,1,0,0:0:0:0:
64,192,69887,1,0,0:0:0:0:
320,192,69887,1,0,0:0:0:0:
448,192,70651,1,0,0:0:0:0:
320,192,70923,1,0,0:0:0:0:
192,192,71196,1,0,0:0:0:0:
64,192,71414,1,0,0:0:0:0:
192,192,71632,1,0,0:0:0:0:
448,192,71632,1,0,0:0:0:0:
320,192,71632,1,0,0:0:0:0:
448,192,71742,1,0,0:0:0:0:
192,192,71851,1,0,0:0:0:0:
448,192,71851,1,0,0:0:0:0:
448,192,71960,1,0,0:0:0:0:
192,192,72069,1,0,0:0:0:0:
64,192,72069,1,0,0:0:0:0:
448,192,72178,1,0,0:0:0:0:
192,192,72287,1,0,0:0:0:0:
64,192,72287,1,0,0:0:0:0:
320,192,72396,1,0,0:0:0:0:
448,192,72505,1,0,0:0:0:0:
192,192,72505,1,0,0:0:0:0:
320,192,72614,1,0,0:0:0:0:
64,192,72723,1,0,0:0:0:0:
448,192,72723,1,0,0:0:0:0:
192,192,72832,1,0,0:0:0:0:
448,192,72942,1,0,0:0:0:0:
320,192,72942,1,0,0:0:0:0:
448,192,73051,1,0,0:0:0:0:
448,192,73160,1,0,0:0:0:0:
64,192,73160,1,0,0:0:0:0:
448,192,73269,1,0,0:0:0:0:
320,192,73378,1,0,0:0:0:0:
192,192,73378,1,0,0:0:0:0:
64,192,73487,1,0,0:0:0:0:
192,192,73596,1,0,0:0:0:0:
320,192,73596,1,0,0:0:0:0:
448,192,73705,1,0,0:0:0:0:
192,192,73814,1,0,0:0:0:0:
64,192,73814,1,0,0:0:0:0:
320,192,73869,1,0,0:0:0:0:
192,192,73923,1,0,0:0:0:0:
320,192,73978,1,0,0:0:0:0:
192,192,74032,1,0,0:0:0:0:
448,192,74032,1,0,0:0:0:0:
192,192,74142,1,0,0:0:0:0:
192,192,74251,128,0,74305:0:0:0:0:
320,192,74251,1,0,0:0:0:0:
448,192,74360,1,0,0:0:0:0:
192,192,74469,128,0,74523:0:0:0:0:
64,192,74469,1,0,0:0:0:0:
448,192,74578,1,0,0:0:0:0:
320,192,74687,1,0,0:0:0:0:
64,192,74687,1,0,0:0:0:0:
320,192,74796,1,0,0:0:0:0:
320,192,74905,1,0,0:0:0:0:
192,192,74905,1,0,0:0:0:0:
320,192,75014,1,0,0:0:0:0:
64,192,75123,1,0,0:0:0:0:
448,192,75123,1,0,0:0:0:0:
192,192,75178,1,0,0:0:0:0:
64,192,75232,1,0,0:0:0:0:
320,192,75342,1,0,0:0:0:0:
64,192,75342,1,0,0:0:0:0:
448,192,75396,1,0,0:0:0:0:
64,192,75451,1,0,0:0:0:0:
64,192,75560,1,0,0:0:0:0:
192,192,75560,1,0,0:0:0:0:
448,192,75669,1,0,0:0:0:0:
192,192,75778,1,0,0:0:0:0:
64,192,75778,1,0,0:0:0:0:
448,192,75887,1,0,0:0:0:0:
64,192,75942,1,0,0:0:0:0:
320,192,75996,1,0,0:0:0:0:
192,192,75996,1,0,0:0:0:0:
192,192,76105,1,0,0:0:0:0:
192,192,76214,1,0,0:0:0:0:
320,192,76214,1,0,0:0:0:0:
192,192,76323,1,0,0:0:0:0:
448,192,76432,1,0,0:0:0:0:
320,192,76460,1,0,0:0:0:0:
192,192,76487,1,0,0:0:0:0:
64,192,76514,1,0,0:0:0:0:
448,192,76542,1,0,0:0:0:0:
320,192,76569,1,0,0:0:0:0:
192,192,76596,1,0,0:0:0:0:
64,192,76623,1,0,0:0:0:0:
320,192,76651,1,0,0:0:0:0:
448,192,76651,1,0,0:0:0:0:
192,192,76760,1,0,0:0:0:0:
64,192,76869,1,0,0:0:0:0:
448,192,76869,1,0,0:0:0:0:
64,192,76978,1,0,0:0:0:0:
320,192,77087,1,0,0:0:0:0:
448,192,77087,1,0,0:0:0:0:
320,192,77196,1,0,0:0:0:0:
64,192,77305,1,0,0:0:0:0:
192,192,77332,1,0,0:0:0:0:
320,192,77360,1,0,0:0:0:0:
448,192,77387,1,0,0:0:0:0:
64,192,77414,1,0,0:0:0:0:
192,192,77442,1,0,0:0:0:0:
320,192,77469,1,0,0:0:0:0:
448,192,77496,1,0,0:0:0:0:
192,192,77523,1,0,0:0:0:0:
64,192,77523,1,0,0:0:0:0:
64,192,77632,1,0,0:0:0:0:
192,192,77742,1,0,0:0:0:0:
448,192,77742,1,0,0:0:0:0:
448,192,77851,1,0,0:0:0:0:
64,192,77960,1,0,0:0:0:0:
320,192,77960,1,0,0:0:0:0:
64,192,78069,1,0,0:0:0:0:
64,192,78178,1,0,0:0:0:0:
192,192,78178,1,0,0:0:0:0:
64,192,78287,1,0,0:0:0:0:
192,192,78396,1,0,0:0:0:0:
320,192,78396,1,0,0:0:0:0:
320,192,78505,1,0,0:0:0:0:
448,192,78614,1,0,0:0:0:0:
192,192,78614,1,0,0:0:0:0:
64,192,78614,1,0,0:0:0:0:
192,192,78723,1,0,0:0:0:0:
192,192,78832,1,0,0:0:0:0:
64,192,78832,1,0,0:0:0:0:
192,192,78942,1,0,0:0:0:0:
320,192,79051,1,0,0:0:0:0:
448,192,79051,1,0,0:0:0:0:
64,192,79160,1,0,0:0:0:0:
320,192,79269,1,0,0:0:0:0:
448,192,79269,1,0,0:0:0:0:
192,192,79378,1,0,0:0:0:0:
64,192,79487,1,0,0:0:0:0:
320,192,79487,1,0,0:0:0:0:
448,192,79596,1,0,0:0:0:0:
64,192,79705,1,0,0:0:0:0:
320,192,79705,1,0,0:0:0:0:
192,192,79814,1,0,0:0:0:0:
320,192,79923,1,0,0:0:0:0:
448,192,79923,1,0,0:0:0:0:
448,192,80032,1,0,0:0:0:0:
448,192,80142,1,0,0:0:0:0:
64,192,80142,1,0,0:0:0:0:
448,192,80251,1,0,0:0:0:0:
320,192,80360,1,0,0:0:0:0:
64,192,80360,1,0,0:0:0:0:
192,192,80469,1,0,0:0:0:0:
64,192,80578,1,0,0:0:0:0:
320,192,80578,1,0,0:0:0:0:
192,192,80687,1,0,0:0:0:0:
320,192,80796,1,0,0:0:0:0:
448,192,80796,1,0,0:0:0:0:
192,192,80851,1,0,0:0:0:0:
320,192,80905,1,0,0:0:0:0:
192,192,80960,1,0,0:0:0:0:
64,192,81014,1,0,0:0:0:0:
320,192,81014,1,0,0:0:0:0:
320,192,81123,1,0,0:0:0:0:
64,192,81232,1,0,0:0:0:0:
320,192,81232,128,0,81287:0:0:0:0:
192,192,81342,1,0,0:0:0:0:
320,192,81451,128,0,81505:0:0:0:0:
448,192,81451,1,0,0:0:0:0:
64,192,81560,1,0,0:0:0:0:
192,192,81669,1,0,0:0:0:0:
448,192,81669,1,0,0:0:0:0:
192,192,81778,1,0,0:0:0:0:
192,192,81887,1,0,0:0:0:0:
320,192,81887,1,0,0:0:0:0:
192,192,81996,1,0,0:0:0:0:
64,192,82105,1,0,0:0:0:0:
448,192,82105,1,0,0:0:0:0:
320,192,82160,1,0,0:0:0:0:
448,192,82214,1,0,0:0:0:0:
448,192,82323,1,0,0:0:0:0:
320,192,82323,1,0,0:0:0:0:
192,192,82378,1,0,0:0:0:0:
448,192,82432,1,0,0:0:0:0:
448,192,82542,1,0,0:0:0:0:
320,192,82542,1,0,0:0:0:0:
64,192,82651,1,0,0:0:0:0:
320,192,82760,1,0,0:0:0:0:
448,192,82760,1,0,0:0:0:0:
192,192,82869,1,0,0:0:0:0:
320,192,82923,1,0,0:0:0:0:
448,192,82978,1,0,0:0:0:0:
64,192,82978,1,0,0:0:0:0:
64,192,83087,1,0,0:0:0:0:
64,192,83196,1,0,0:0:0:0:
192,192,83196,1,0,0:0:0:0:
64,192,83305,1,0,0:0:0:0:
320,192,83414,1,0,0:0:0:0:
448,192,83442,1,0,0:0:0:0:
64,192,83469,1,0,0:0:0:0:
192,192,83496,1,0,0:0:0:0:
320,192,83523,1,0,0:0:0:0:
448,192,83551,1,0,0:0:0:0:
64,192,83578,1,0,0:0:0:0:
192,192,83605,1,0,0:0:0:0:
320,192,83632,1,0,0:0:0:0:
448,192,83632,1,0,0:0:0:0:
64,192,83742,1,0,0:0:0:0:
192,192,83851,1,0,0:0:0:0:
448,192,83851,1,0,0:0:0:0:
448,192,83960,1,0,0:0:0:0:
320,192,84069,1,0,0:0:0:0:
192,192,84069,1,0,0:0:0:0:
320,192,84178,1,0,0:0:0:0:
192,192,84287,1,0,0:0:0:0:
64,192,84314,1,0,0:0:0:0:
448,192,84342,1,0,0:0:0:0:
320,192,84369,1,0,0:0:0:0:
192,192,84396,1,0,0:0:0:0:
64,192,84423,1,0,0:0:0:0:
448,192,84451,1,0,0:0:0:0:
320,192,84478,1,0,0:0:0:0:
192,192,84505,1,0,0:0:0:0:
64,192,84505,1,0,0:0:0:0:
192,192,84614,1,0,0:0:0:0:
64,192,84723,1,0,0:0:0:0:
448,192,84723,1,0,0:0:0:0:
448,192,84832,1,0,0:0:0:0:
192,192,84942,1,0,0:0:0:0:
320,192,84942,1,0,0:0:0:0:
192,192,85051,1,0,0:0:0:0:
192,192,85160,1,0,0:0:0:0:
64,192,85160,1,0,0:0:0:0:
192,192,85269,1,0,0:0:0:0:
320,192,85378,1,0,0:0:0:0:
448,192,85378,1,0,0:0:0:0:
448,192,85487,1,0,0:0:0:0:
64,192,85596,1,0,0:0:0:0:
192,192,85596,1,0,0:0:0:0:
192,192,85705,1,0,0:0:0:0:
64,192,85814,1,0,0:0:0:0:
448,192,85814,1,0,0:0:0:0:
192,192,85923,1,0,0:0:0:0:
192,192,85978,1,0,0:0:0:0:
448,192,86032,1,0,0:0:0:0:
320,192,86032,1,0,0:0:0:0:
448,192,86142,1,0,0:0:0:0:
320,192,86251,1,0,0:0:0:0:
192,192,86251,1,0,0:0:0:0:
64,192,86360,1,0,0:0:0:0:
64,192,86414,1,0,0:0:0:0:
448,192,86469,1,0,0:0:0:0:
320,192,86469,1,0,0:0:0:0:
448,192,86578,1,0,0:0:0:0:
320,192,86687,1,0,0:0:0:0:
64,192,86687,1,0,0:0:0:0:
448,192,86796,1,0,0:0:0:0:
448,192,86851,1,0,0:0:0:0:
320,192,86905,1,0,0:0:0:0:
64,192,86905,1,0,0:0:0:0:
64,192,87014,1,0,0:0:0:0:
192,192,87123,1,0,0:0:0:0:
448,192,87123,1,0,0:0:0:0:
320,192,87232,1,0,0:0:0:0:
320,192,87287,1,0,0:0:0:0:
192,192,87342,1,0,0:0:0:0:
64,192,87342,1,0,0:0:0:0:
448,192,87451,1,0,0:0:0:0:
64,192,87560,1,0,0:0:0:0:
192,192,87596,1,0,0:0:0:0:
320,192,87632,1,0,0:0:0:0:
448,192,87669,1,0,0:0:0:0:
64,192,87705,1,0,0:0:0:0:
192,192,87742,1,0,0:0:0:0:
320,192,87778,1,0,0:0:0:0:
448,192,87778,1,0,0:0:0:0:
64,192,87887,1,0,0:0:0:0:
448,192,87996,1,0,0:0:0:0:
320,192,88032,1,0,0:0:0:0:
192,192,88069,1,0,0:0:0:0:
64,192,88105,1,0,0:0:0:0:
448,192,88142,1,0,0:0:0:0:
320,192,88178,1,0,0:0:0:0:
192,192,88214,1,0,0:0:0:0:
64,192,88214,1,0,0:0:0:0:
320,192,88323,1,0,0:0:0:0:
448,192,88432,1,0,0:0:0:0:
64,192,88432,1,0,0:0:0:0:
192,192,88460,1,0,0:0:0:0:
320,192,88487,1,0,0:0:0:0:
448,192,88542,1,0,0:0:0:0:
64,192,88651,1,0,0:0:0:0:
192,192,88651,1,0,0:0:0:0:
320,192,88760,1,0,0:0:0:0:
192,192,88787,1,0,0:0:0:0:
64,192,88814,1,0,0:0:0:0:
448,192,88869,1,0,0:0:0:0:
320,192,88869,1,0,0:0:0:0:
192,192,88978,1,0,0:0:0:0:
448,192,89087,1,0,0:0:0:0:
64,192,89087,1,0,0:0:0:0:
448,192,89196,1,0,0:0:0:0:
64,192,89305,1,0,0:0:0:0:
320,192,89305,1,0,0:0:0:0:
448,192,89414,1,0,0:0:0:0:
448,192,89469,1,0,0:0:0:0:
320,192,89523,1,0,0:0:0:0:
64,192,89523,1,0,0:0:0:0:
64,192,89632,1,0,0:0:0:0:
192,192,89742,1,0,0:0:0:0:
64,192,89851,1,0,0:0:0:0:
64,192,89905,1,0,0:0:0:0:
192,192,89960,1,0,0:0:0:0:
448,192,89960,1,0,0:0:0:0:
192,192,90069,1,0,0:0:0:0:
320,192,90178,1,0,0:0:0:0:
448,192,90178,1,0,0:0:0:0:
192,192,90287,1,0,0:0:0:0:
192,192,90342,1,0,0:0:0:0:
320,192,90396,1,0,0:0:0:0:
64,192,90396,1,0,0:0:0:0:
320,192,90505,1,0,0:0:0:0:
192,192,90614,1,0,0:0:0:0:
64,192,90614,1,0,0:0:0:0:
320,192,90723,1,0,0:0:0:0:
320,192,90778,1,0,0:0:0:0:
192,192,90832,1,0,0:0:0:0:
448,192,90832,1,0,0:0:0:0:
320,192,90942,1,0,0:0:0:0:
64,192,91051,1,0,0:0:0:0:
192,192,91087,1,0,0:0:0:0:
448,192,91123,1,0,0:0:0:0:
320,192,91160,1,0,0:0:0:0:
64,192,91196,1,0,0:0:0:0:
192,192,91232,1,0,0:0:0:0:
448,192,91269,1,0,0:0:0:0:
320,192,91269,1,0,0:0:0:0:
64,192,91378,1,0,0:0:0:0:
448,192,91487,1,0,0:0:0:0:
320,192,91523,1,0,0:0:0:0:
64,192,91560,1,0,0:0:0:0:
192,192,91596,1,0,0:0:0:0:
448,192,91632,1,0,0:0:0:0:
320,192,91669,1,0,0:0:0:0:
64,192,91705,1,0,0:0:0:0:
192,192,91705,1,0,0:0:0:0:
192,192,91814,1,0,0:0:0:0:
448,192,91923,1,0,0:0:0:0:
320,192,91923,1,0,0:0:0:0:
192,192,91951,1,0,0:0:0:0:
64,192,91978,1,0,0:0:0:0:
448,192,92032,1,0,0:0:0:0:
320,192,92142,1,0,0:0:0:0:
192,192,92142,1,0,0:0:0:0:
64,192,92251,1,0,0:0:0:0:
192,192,92278,1,0,0:0:0:0:
320,192,92305,1,0,0:0:0:0:
64,192,92360,1,0,0:0:0:0:
448,192,92360,1,0,0:0:0:0:
192,192,92469,1,0,0:0:0:0:
320,192,92578,1,0,0:0:0:0:
64,192,92578,1,0,0:0:0:0:
448,192,92578,1,0,0:0:0:0:
448,192,92687,1,0,0:0:0:0:
320,192,92796,1,0,0:0:0:0:
192,192,92796,1,0,0:0:0:0:
64,192,92905,1,0,0:0:0:0:
64,192,92960,1,0,0:0:0:0:
320,192,93014,1,0,0:0:0:0:
448,192,93014,1,0,0:0:0:0:
320,192,93123,1,0,0:0:0:0:
448,192,93232,1,0,0:0:0:0:
64,192,93232,1,0,0:0:0:0:
192,192,93342,1,0,0:0:0:0:
192,192,93396,1,0,0:0:0:0:
64,192,93451,1,0,0:0:0:0:
448,192,93451,1,0,0:0:0:0:
64,192,93560,1,0,0:0:0:0:
320,192,93669,1,0,0:0:0:0:
192,192,93669,1,0,0:0:0:0:
448,192,93778,1,0,0:0:0:0:
448,192,93832,1,0,0:0:0:0:
320,192,93887,1,0,0:0:0:0:
192,192,93887,1,0,0:0:0:0:
192,192,93996,1,0,0:0:0:0:
448,192,94105,1,0,0:0:0:0:
64,192,94105,1,0,0:0:0:0:
320,192,94214,1,0,0:0:0:0:
320,192,94269,1,0,0:0:0:0:
64,192,94323,1,0,0:0:0:0:
448,192,94323,1,0,0:0:0:0:
448,192,94432,1,0,0:0:0:0:
320,192,94542,1,0,0:0:0:0:
192,192,94578,1,0,0:0:0:0:
64,192,94614,1,0,0:0:0:0:
448,192,94651,1,0,0:0:0:0:
192,192,94687,1,0,0:0:0:0:
64,192,94723,1,0,0:0:0:0:
448,192,94760,1,0,0:0:0:0:
320,192,94760,1,0,0:0:0:0:
64,192,94869,1,0,0:0:0:0:
192,192,94978,1,0,0:0:0:0:
320,192,95014,1,0,0:0:0:0:
448,192,95051,1,0,0:0:0:0:
64,192,95087,1,0,0:0:0:0:
192,192,95123,1,0,0:0:0:0:
320,192,95160,1,0,0:0:0:0:
64,192,95196,1,0,0:0:0:0:
448,192,95196,1,0,0:0:0:0:
192,192,95305,1,0,0:0:0:0:
320,192,95414,1,0,0:0:0:0:
64,192,95414,1,0,0:0:0:0:
448,192,95442,1,0,0:0:0:0:
192,192,95469,1,0,0:0:0:0:
320,192,95523,1,0,0:0:0:0:
448,192,95632,1,0,0:0:0:0:
64,192,95632,1,0,0:0:0:0:
192,192,95742,1,0,0:0:0:0:
320,192,95769,1,0,0:0:0:0:
448,192,95796,1,0,0:0:0:0:
192,192,95851,1,0,0:0:0:0:
64,192,95851,1,0,0:0:0:0:
448,192,95960,1,0,0:0:0:0:
320,192,96069,1,0,0:0:0:0:
64,192,96069,1,0,0:0:0:0:
320,192,96178,1,0,0:0:0:0:
448,192,96287,1,0,0:0:0:0:
64,192,96287,1,0,0:0:0:0:
320,192,96396,1,0,0:0:0:0:
320,192,96451,1,0,0:0:0:0:
192,192,96505,1,0,0:0:0:0:
64,192,96505,1,0,0:0:0:0:
320,192,96614,1,0,0:0:0:0:
448,192,96723,1,0,0:0:0:0:
192,192,96723,1,0,0:0:0:0:
64,192,96832,1,0,0:0:0:0:
64,192,96887,1,0,0:0:0:0:
320,192,96942,1,0,0:0:0:0:
192,192,96942,1,0,0:0:0:0:
320,192,97051,1,0,0:0:0:0:
64,192,97160,1,0,0:0:0:0:
192,192,97160,1,0,0:0:0:0:
448,192,97269,1,0,0:0:0:0:
448,192,97323,1,0,0:0:0:0:
64,192,97378,1,0,0:0:0:0:
320,192,97378,1,0,0:0:0:0:
320,192,97487,1,0,0:0:0:0:
448,192,97596,1,0,0:0:0:0:
64,192,97596,1,0,0:0:0:0:
192,192,97705,1,0,0:0:0:0:
192,192,97760,1,0,0:0:0:0:
64,192,97814,1,0,0:0:0:0:
448,192,97814,1,0,0:0:0:0:
448,192,97923,1,0,0:0:0:0:
192,192,98032,1,0,0:0:0:0:
64,192,98069,1,0,0:0:0:0:
320,192,98105,1,0,0:0:0:0:
448,192,98142,1,0,0:0:0:0:
192,192,98178,1,0,0:0:0:0:
64,192,98214,1,0,0:0:0:0:
448,192,98251,1,0,0:0:0:0:
320,192,98251,1,0,0:0:0:0:
192,192,98360,1,0,0:0:0:0:
320,192,98469,1,0,0:0:0:0:
192,192,98505,1,0,0:0:0:0:
448,192,98542,1,0,0:0:0:0:
320,192,98578,1,0,0:0:0:0:
64,192,98614,1,0,0:0:0:0:
192,192,98651,1,0,0:0:0:0:
448,192,98687,1,0,0:0:0:0:
320,192,98687,1,0,0:0:0:0:
448,192,98796,1,0,0:0:0:0:
192,192,98905,1,0,0:0:0:0:
64,192,98905,1,0,0:0:0:0:
320,192,98932,1,0,0:0:0:0:
448,192,98960,1,0,0:0:0:0:
64,192,99014,1,0,0:0:0:0:
192,192,99123,1,0,0:0:0:0:
448,192,99123,1,0,0:0:0:0:
320,192,99232,1,0,0:0:0:0:
192,192,99260,1,0,0:0:0:0:
64,192,99287,1,0,0:0:0:0:
320,192,99342,1,0,0:0:0:0:
448,192,99342,1,0,0:0:0:0:
192,192,99451,1,0,0:0:0:0:
448,192,99560,1,0,0:0:0:0:
320,192,99560,1,0,0:0:0:0:
64,192,99560,1,0,0:0:0:0:
192,192,99669,1,0,0:0:0:0:
448,192,99778,1,0,0:0:0:0:
64,192,99778,1,0,0:0:0:0:
192,192,99887,1,0,0:0:0:0:
320,192,99996,1,0,0:0:0:0:
448,192,99996,1,0,0:0:0:0:
64,192,100105,1,0,0:0:0:0:
448,192,100214,1,0,0:0:0:0:
320,192,100214,1,0,0:0:0:0:
192,192,100323,1,0,0:0:0:0:
448,192,100432,1,0,0:0:0:0:
320,192,100432,1,0,0:0:0:0:
64,192,100487,1,0,0:0:0:0:
320,192,100542,1,0,0:0:0:0:
64,192,100596,1,0,0:0:0:0:
320,192,100651,1,0,0:0:0:0:
448,192,100651,1,0,0:0:0:0:
192,192,100760,1,0,0:0:0:0:
192,192,100869,1,0,0:0:0:0:
448,192,100869,1,0,0:0:0:0:
64,192,100978,1,0,0:0:0:0:
320,192,101087,1,0,0:0:0:0:
448,192,101087,1,0,0:0:0:0:
64,192,101196,1,0,0:0:0:0:
448,192,101305,1,0,0:0:0:0:
64,192,101305,1,0,0:0:0:0:
64,192,101414,1,0,0:0:0:0:
64,192,101523,1,0,0:0:0:0:
192,192,101523,1,0,0:0:0:0:
64,192,101632,1,0,0:0:0:0:
448,192,101742,1,0,0:0:0:0:
320,192,101742,1,0,0:0:0:0:
192,192,101851,1,0,0:0:0:0:
192,192,101905,1,0,0:0:0:0:
64,192,101960,1,0,0:0:0:0:
320,192,101960,1,0,0:0:0:0:
448,192,102069,1,0,0:0:0:0:
192,192,102178,1,0,0:0:0:0:
320,192,102232,1,0,0:0:0:0:
192,192,102287,1,0,0:0:0:0:
320,192,102342,1,0,0:0:0:0:
64,192,102396,1,0,0:0:0:0:
192,192,102396,1,0,0:0:0:0:
448,192,102432,1,0,0:0:0:0:
320,192,102469,1,0,0:0:0:0:
64,192,102505,1,0,0:0:0:0:
192,192,102542,1,0,0:0:0:0:
320,192,102578,1,0,0:0:0:0:
448,192,102614,1,0,0:0:0:0:
64,192,102614,1,0,0:0:0:0:
192,192,102723,1,0,0:0:0:0:
64,192,102832,1,0,0:0:0:0:
448,192,102832,1,0,0:0:0:0:
320,192,102942,1,0,0:0:0:0:
192,192,103051,1,0,0:0:0:0:
64,192,103051,1,0,0:0:0:0:
448,192,103160,1,0,0:0:0:0:
448,192,103269,1,0,0:0:0:0:
192,192,103269,1,0,0:0:0:0:
448,192,103378,1,0,0:0:0:0:
320,192,103487,1,0,0:0:0:0:
64,192,103487,1,0,0:0:0:0:
448,192,103596,1,0,0:0:0:0:
320,192,103705,1,0,0:0:0:0:
64,192,103705,1,0,0:0:0:0:
192,192,103814,1,0,0:0:0:0:
448,192,103923,1,0,0:0:0:0:
64,192,103923,1,0,0:0:0:0:
320,192,104032,1,0,0:0:0:0:
448,192,104142,1,0,0:0:0:0:
64,192,104142,1,0,0:0:0:0:
192,192,104251,1,0,0:0:0:0:
448,192,104360,1,0,0:0:0:0:
64,192,104360,1,0,0:0:0:0:
448,192,104469,1,0,0:0:0:0:
192,192,104578,1,0,0:0:0:0:
64,192,104578,1,0,0:0:0:0:
448,192,104632,1,0,0:0:0:0:
192,192,104687,1,0,0:0:0:0:
448,192,104742,1,0,0:0:0:0:
64,192,104796,1,0,0:0:0:0:
320,192,104796,1,0,0:0:0:0:
320,192,104905,1,0,0:0:0:0:
320,192,105014,1,0,0:0:0:0:
192,192,105014,1,0,0:0:0:0:
320,192,105123,1,0,0:0:0:0:
192,192,105232,1,0,0:0:0:0:
64,192,105232,1,0,0:0:0:0:
320,192,105342,1,0,0:0:0:0:
192,192,105451,1,0,0:0:0:0:
64,192,105451,1,0,0:0:0:0:
320,192,105560,1,0,0:0:0:0:
448,192,105669,1,0,0:0:0:0:
64,192,105669,1,0,0:0:0:0:
192,192,105723,1,0,0:0:0:0:
448,192,105778,1,0,0:0:0:0:
192,192,105832,1,0,0:0:0:0:
64,192,105887,1,0,0:0:0:0:
320,192,105887,1,0,0:0:0:0:
320,192,105996,1,0,0:0:0:0:
192,192,106105,1,0,0:0:0:0:
448,192,106105,1,0,0:0:0:0:
64,192,106160,1,0,0:0:0:0:
192,192,106214,1,0,0:0:0:0:
64,192,106269,1,0,0:0:0:0:
320,192,106323,1,0,0:0:0:0:
448,192,106323,1,0,0:0:0:0:
448,192,106432,1,0,0:0:0:0:
64,192,106542,1,0,0:0:0:0:
192,192,106542,1,0,0:0:0:0:
320,192,106542,1,0,0:0:0:0:
448,192,106651,1,0,0:0:0:0:
192,192,106760,1,0,0:0:0:0:
320,192,106760,1,0,0:0:0:0:
448,192,106869,1,0,0:0:0:0:
64,192,106978,1,0,0:0:0:0:
320,192,106978,1,0,0:0:0:0:
192,192,107087,1,0,0:0:0:0:
320,192,107196,1,0,0:0:0:0:
64,192,107196,1,0,0:0:0:0:
448,192,107305,1,0,0:0:0:0:
320,192,107414,1,0,0:0:0:0:
64,192,107414,1,0,0:0:0:0:
192,192,107469,1,0,0:0:0:0:
64,192,107523,1,0,0:0:0:0:
192,192,107578,1,0,0:0:0:0:
64,192,107632,1,0,0:0:0:0:
448,192,107632,1,0,0:0:0:0:
320,192,107742,1,0,0:0:0:0:
192,192,107851,1,0,0:0:0:0:
320,192,107851,1,0,0:0:0:0:
64,192,107960,1,0,0:0:0:0:
448,192,108069,1,0,0:0:0:0:
192,192,108069,1,0,0:0:0:0:
320,192,108178,1,0,0:0:0:0:
320,192,108287,1,0,0:0:0:0:
192,192,108287,1,0,0:0:0:0:
320,192,108396,1,0,0:0:0:0:
64,192,108505,1,0,0:0:0:0:
320,192,108505,1,0,0:0:0:0:
320,192,108614,1,0,0:0:0:0:
448,192,108723,1,0,0:0:0:0:
64,192,108723,1,0,0:0:0:0:
192,192,108832,1,0,0:0:0:0:
192,192,108887,1,0,0:0:0:0:
320,192,108942,1,0,0:0:0:0:
448,192,108942,1,0,0:0:0:0:
192,192,109051,1,0,0:0:0:0:
320,192,109160,1,0,0:0:0:0:
64,192,109214,1,0,0:0:0:0:
320,192,109269,1,0,0:0:0:0:
64,192,109323,1,0,0:0:0:0:
320,192,109378,1,0,0:0:0:0:
448,192,109378,1,0,0:0:0:0:
192,192,109414,1,0,0:0:0:0:
64,192,109451,1,0,0:0:0:0:
448,192,109487,1,0,0:0:0:0:
320,192,109523,1,0,0:0:0:0:
192,192,109560,1,0,0:0:0:0:
448,192,109596,1,0,0:0:0:0:
64,192,109596,1,0,0:0:0:0:
320,192,109705,1,0,0:0:0:0:
448,192,109814,1,0,0:0:0:0:
64,192,109814,1,0,0:0:0:0:
192,192,109923,1,0,0:0:0:0:
320,192,110032,1,0,0:0:0:0:
448,192,110032,1,0,0:0:0:0:
192,192,110142,1,0,0:0:0:0:
192,192,110251,1,0,0:0:0:0:
64,192,110251,1,0,0:0:0:0:
192,192,110360,1,0,0:0:0:0:
448,192,110469,1,0,0:0:0:0:
320,192,110469,1,0,0:0:0:0:
64,192,110578,1,0,0:0:0:0:
448,192,110687,1,0,0:0:0:0:
320,192,110687,1,0,0:0:0:0:
64,192,110796,1,0,0:0:0:0:
192,192,110905,1,0,0:0:0:0:
320,192,110905,1,0,0:0:0:0:
448,192,111014,1,0,0:0:0:0:
192,192,111123,1,0,0:0:0:0:
320,192,111123,1,0,0:0:0:0:
64,192,111232,1,0,0:0:0:0:
448,192,111342,1,0,0:0:0:0:
320,192,111342,1,0,0:0:0:0:
448,192,111451,1,0,0:0:0:0:
448,192,111560,1,0,0:0:0:0:
192,192,111560,1,0,0:0:0:0:
64,192,111614,1,0,0:0:0:0:
192,192,111669,1,0,0:0:0:0:
64,192,111723,1,0,0:0:0:0:
320,192,111778,1,0,0:0:0:0:
320,192,111887,1,0,0:0:0:0:
320,192,111996,1,0,0:0:0:0:
64,192,111996,1,0,0:0:0:0:
320,192,112105,1,0,0:0:0:0:
448,192,112214,1,0,0:0:0:0:
64,192,112323,1,0,0:0:0:0:
448,192,112432,1,0,0:0:0:0:
192,192,112432,1,0,0:0:0:0:
64,192,112542,1,0,0:0:0:0:
448,192,112651,1,0,0:0:0:0:
320,192,112705,1,0,0:0:0:0:
448,192,112760,1,0,0:0:0:0:
320,192,112814,1,0,0:0:0:0:
64,192,112869,1,0,0:0:0:0:
192,192,112869,1,0,0:0:0:0:
64,192,112978,1,0,0:0:0:0:
320,192,113087,1,0,0:0:0:0:
448,192,113142,1,0,0:0:0:0:
320,192,113196,1,0,0:0:0:0:
448,192,113251,1,0,0:0:0:0:
64,192,113305,1,0,0:0:0:0:
192,192,113305,1,0,0:0:0:0:
192,192,113414,1,0,0:0:0:0:
64,192,113523,1,0,0:0:0:0:
320,192,113523,1,0,0:0:0:0:
448,192,113523,1,0,0:0:0:0:
320,192,113632,1,0,0:0:0:0:
448,192,113632,1,0,0:0:0:0:
448,192,113742,1,0,0:0:0:0:
320,192,113742,1,0,0:0:0:0:
192,192,113851,1,0,0:0:0:0:
64,192,113851,1,0,0:0:0:0:
320,192,113905,1,0,0:0:0:0:
448,192,113905,1,0,0:0:0:0:
192,192,113960,1,0,0:0:0:0:
64,192,113960,1,0,0:0:0:0:
192,192,114069,1,0,0:0:0:0:
320,192,114069,1,0,0:0:0:0:
192,192,114178,1,0,0:0:0:0:
320,192,114178,1,0,0:0:0:0:
448,192,114287,1,0,0:0:0:0:
64,192,114287,1,0,0:0:0:0:
192,192,114342,1,0,0:0:0:0:
320,192,114342,1,0,0:0:0:0:
448,192,114396,1,0,0:0:0:0:
64,192,114396,1,0,0:0:0:0:
64,192,114505,1,0,0:0:0:0:
192,192,114505,1,0,0:0:0:0:
320,192,114614,1,0,0:0:0:0:
192,192,114614,1,0,0:0:0:0:
320,192,114723,1,0,0:0:0:0:
64,192,114723,1,0,0:0:0:0:
64,192,114832,1,0,0:0:0:0:
448,192,114832,1,0,0:0:0:0:
320,192,114942,1,0,0:0:0:0:
448,192,114942,1,0,0:0:0:0:
64,192,115051,1,0,0:0:0:0:
320,192,115051,1,0,0:0:0:0:
192,192,115160,1,0,0:0:0:0:
64,192,115160,1,0,0:0:0:0:
448,192,115269,1,0,0:0:0:0:
192,192,115269,1,0,0:0:0:0:
320,192,115378,1,0,0:0:0:0:
448,192,115378,1,0,0:0:0:0:
192,192,115487,1,0,0:0:0:0:
64,192,115487,1,0,0:0:0:0:
320,192,115523,1,0,0:0:0:0:
448,192,115560,1,0,0:0:0:0:
64,192,115596,1,0,0:0:0:0:
192,192,115632,1,0,0:0:0:0:
320,192,115669,1,0,0:0:0:0:
448,192,115705,1,0,0:0:0:0:
64,192,115705,1,0,0:0:0:0:
320,192,115814,1,0,0:0:0:0:
192,192,115814,1,0,0:0:0:0:
64,192,115923,1,0,0:0:0:0:
448,192,115923,1,0,0:0:0:0:
192,192,115960,1,0,0:0:0:0:
320,192,115996,1,0,0:0:0:0:
448,192,116032,1,0,0:0:0:0:
64,192,116069,1,0,0:0:0:0:
192,192,116105,1,0,0:0:0:0:
320,192,116142,1,0,0:0:0:0:
448,192,116142,1,0,0:0:0:0:
448,192,116251,1,0,0:0:0:0:
192,192,116251,1,0,0:0:0:0:
64,192,116360,1,0,0:0:0:0:
192,192,116387,1,0,0:0:0:0:
320,192,116414,1,0,0:0:0:0:
448,192,116469,1,0,0:0:0:0:
64,192,116469,1,0,0:0:0:0:
192,192,116578,1,0,0:0:0:0:
320,192,116578,1,0,0:0:0:0:
192,192,116687,1,0,0:0:0:0:
320,192,116714,1,0,0:0:0:0:
448,192,116742,1,0,0:0:0:0:
192,192,116796,1,0,0:0:0:0:
64,192,116796,1,0,0:0:0:0:
320,192,116851,1,0,0:0:0:0:
448,192,116851,1,0,0:0:0:0:
192,192,116905,1,0,0:0:0:0:
64,192,116905,1,0,0:0:0:0:
320,192,116960,1,0,0:0:0:0:
64,192,117014,1,0,0:0:0:0:
192,192,117014,1,0,0:0:0:0:
448,192,117014,1,0,0:0:0:0:
192,192,117123,1,0,0:0:0:0:
64,192,117123,1,0,0:0:0:0:
64,192,117232,1,0,0:0:0:0:
192,192,117232,1,0,0:0:0:0:
320,192,117342,1,0,0:0:0:0:
448,192,117342,1,0,0:0:0:0:
192,192,117396,1,0,0:0:0:0:
64,192,117396,1,0,0:0:0:0:
320,192,117451,1,0,0:0:0:0:
448,192,117451,1,0,0:0:0:0:
448,192,117560,1,0,0:0:0:0:
64,192,117560,1,0,0:0:0:0:
64,192,117669,1,0,0:0:0:0:
448,192,117669,1,0,0:0:0:0:
320,192,117778,1,0,0:0:0:0:
192,192,117778,1,0,0:0:0:0:
64,192,117832,1,0,0:0:0:0:
448,192,117832,1,0,0:0:0:0:
320,192,117887,1,0,0:0:0:0:
192,192,117887,1,0,0:0:0:0:
320,192,117996,1,0,0:0:0:0:
448,192,117996,1,0,0:0:0:0:
320,192,118105,1,0,0:0:0:0:
64,192,118105,1,0,0:0:0:0:
192,192,118214,1,0,0:0:0:0:
64,192,118214,1,0,0:0:0:0:
192,192,118296,1,0,0:0:0:0:
448,192,118323,1,0,0:0:0:0:
448,192,118432,1,0,0:0:0:0:
64,192,118432,1,0,0:0:0:0:
64,192,118542,1,0,0:0:0:0:
192,192,118542,1,0,0:0:0:0:
192,192,118651,1,0,0:0:0:0:
320,192,118651,1,0,0:0:0:0:
320,192,118760,1,0,0:0:0:0:
448,192,118760,1,0,0:0:0:0:
64,192,118869,1,0,0:0:0:0:
448,192,118869,1,0,0:0:0:0:
64,192,118978,1,0,0:0:0:0:
192,192,118978,1,0,0:0:0:0:
320,192,119014,1,0,0:0:0:0:
448,192,119051,1,0,0:0:0:0:
64,192,119087,1,0,0:0:0:0:
192,192,119123,1,0,0:0:0:0:
320,192,119160,1,0,0:0:0:0:
448,192,119196,1,0,0:0:0:0:
64,192,119196,1,0,0:0:0:0:
192,192,119305,1,0,0:0:0:0:
320,192,119305,1,0,0:0:0:0:
448,192,119414,1,0,0:0:0:0:
64,192,119414,1,0,0:0:0:0:
320,192,119451,1,0,0:0:0:0:
192,192,119487,1,0,0:0:0:0:
64,192,119523,1,0,0:0:0:0:
448,192,119560,1,0,0:0:0:0:
320,192,119596,1,0,0:0:0:0:
192,192,119632,1,0,0:0:0:0:
64,192,119632,1,0,0:0:0:0:
320,192,119742,1,0,0:0:0:0:
192,192,119742,1,0,0:0:0:0:
64,192,119851,1,0,0:0:0:0:
192,192,119878,1,0,0:0:0:0:
320,192,119905,1,0,0:0:0:0:
448,192,119960,1,0,0:0:0:0:
64,192,119960,1,0,0:0:0:0:
192,192,120069,1,0,0:0:0:0:
448,192,120069,1,0,0:0:0:0:
320,192,120178,1,0,0:0:0:0:
192,192,120205,1,0,0:0:0:0:
64,192,120232,1,0,0:0:0:0:
448,192,120287,1,0,0:0:0:0:
320,192,120287,1,0,0:0:0:0:
192,192,120342,1,0,0:0:0:0:
64,192,120342,1,0,0:0:0:0:
448,192,120396,1,0,0:0:0:0:
320,192,120396,1,0,0:0:0:0:
192,192,120451,1,0,0:0:0:0:
448,192,120505,1,0,0:0:0:0:
64,192,120505,1,0,0:0:0:0:
320,192,120505,1,0,0:0:0:0:
320,192,120614,1,0,0:0:0:0:
448,192,120614,1,0,0:0:0:0:
320,192,120723,1,0,0:0:0:0:
448,192,120723,1,0,0:0:0:0:
64,192,120832,1,0,0:0:0:0:
192,192,120832,1,0,0:0:0:0:
320,192,120887,1,0,0:0:0:0:
448,192,120887,1,0,0:0:0:0:
192,192,120942,1,0,0:0:0:0:
64,192,120942,1,0,0:0:0:0:
64,192,121051,1,0,0:0:0:0:
320,192,121051,1,0,0:0:0:0:
64,192,121160,1,0,0:0:0:0:
320,192,121160,1,0,0:0:0:0:
448,192,121269,1,0,0:0:0:0:
192,192,121269,1,0,0:0:0:0:
320,192,121323,1,0,0:0:0:0:
64,192,121323,1,0,0:0:0:0:
448,192,121378,1,0,0:0:0:0:
192,192,121378,1,0,0:0:0:0:
192,192,121487,1,0,0:0:0:0:
64,192,121487,1,0,0:0:0:0:
448,192,121596,1,0,0:0:0:0:
64,192,121596,1,0,0:0:0:0:
192,192,121705,1,0,0:0:0:0:
448,192,121705,1,0,0:0:0:0:
320,192,121814,1,0,0:0:0:0:
192,192,121814,1,0,0:0:0:0:
64,192,121923,1,0,0:0:0:0:
320,192,121923,1,0,0:0:0:0:
64,192,122032,1,0,0:0:0:0:
448,192,122032,1,0,0:0:0:0:
192,192,122142,1,0,0:0:0:0:
448,192,122142,1,0,0:0:0:0:
320,192,122251,1,0,0:0:0:0:
192,192,122251,1,0,0:0:0:0:
320,192,122360,1,0,0:0:0:0:
448,192,122360,1,0,0:0:0:0:
448,192,122469,1,0,0:0:0:0:
64,192,122469,1,0,0:0:0:0:
192,192,122505,1,0,0:0:0:0:
320,192,122542,1,0,0:0:0:0:
448,192,122578,1,0,0:0:0:0:
64,192,122614,1,0,0:0:0:0:
192,192,122651,1,0,0:0:0:0:
320,192,122687,1,0,0:0:0:0:
448,192,122687,1,0,0:0:0:0:
192,192,122796,1,0,0:0:0:0:
64,192,122796,1,0,0:0:0:0:
320,192,122905,1,0,0:0:0:0:
448,192,122905,1,0,0:0:0:0:
192,192,122942,1,0,0:0:0:0:
64,192,122978,1,0,0:0:0:0:
448,192,123014,1,0,0:0:0:0:
320,192,123051,1,0,0:0:0:0:
192,192,123087,1,0,0:0:0:0:
64,192,123123,1,0,0:0:0:0:
448,192,123123,1,0,0:0:0:0:
192,192,123232,1,0,0:0:0:0:
320,192,123232,1,0,0:0:0:0:
448,192,123342,1,0,0:0:0:0:
320,192,123369,1,0,0:0:0:0:
192,192,123396,1,0,0:0:0:0:
448,192,123451,1,0,0:0:0:0:
64,192,123451,1,0,0:0:0:0:
320,192,123560,1,0,0:0:0:0:
448,192,123560,1,0,0:0:0:0:
192,192,123669,1,0,0:0:0:0:
320,192,123696,1,0,0:0:0:0:
448,192,123723,1,0,0:0:0:0:
192,192,123778,1,0,0:0:0:0:
64,192,123778,1,0,0:0:0:0:
320,192,123832,1,0,0:0:0:0:
448,192,123832,1,0,0:0:0:0:
192,192,123887,1,0,0:0:0:0:
64,192,123887,1,0,0:0:0:0:
320,192,123942,1,0,0:0:0:0:
448,192,123996,1,0,0:0:0:0:
192,192,123996,1,0,0:0:0:0:
64,192,123996,1,0,0:0:0:0:
192,192,124105,1,0,0:0:0:0:
64,192,124105,1,0,0:0:0:0:
64,192,124214,1,0,0:0:0:0:
192,192,124214,1,0,0:0:0:0:
320,192,124323,1,0,0:0:0:0:
448,192,124323,1,0,0:0:0:0:
192,192,124378,1,0,0:0:0:0:
64,192,124378,1,0,0:0:0:0:
320,192,124432,1,0,0:0:0:0:
448,192,124432,1,0,0:0:0:0:
192,192,124542,1,0,0:0:0:0:
448,192,124542,1,0,0:0:0:0:
448,192,124651,1,0,0:0:0:0:
192,192,124651,1,0,0:0:0:0:
320,192,124760,1,0,0:0:0:0:
64,192,124760,1,0,0:0:0:0:
192,192,124814,1,0,0:0:0:0:
448,192,124814,1,0,0:0:0:0:
320,192,124869,1,0,0:0:0:0:
64,192,124869,1,0,0:0:0:0:
320,192,124978,1,0,0:0:0:0:
448,192,124978,1,0,0:0:0:0:
448,192,125087,1,0,0:0:0:0:
64,192,125087,1,0,0:0:0:0:
64,192,125196,1,0,0:0:0:0:
192,192,125196,1,0,0:0:0:0:
192,192,125305,1,0,0:0:0:0:
320,192,125305,1,0,0:0:0:0:
320,192,125414,1,0,0:0:0:0:
448,192,125414,1,0,0:0:0:0:
448,192,125523,1,0,0:0:0:0:
64,192,125523,1,0,0:0:0:0:
320,192,125632,1,0,0:0:0:0:
64,192,125632,1,0,0:0:0:0:
192,192,125742,1,0,0:0:0:0:
320,192,125742,1,0,0:0:0:0:
320,192,125851,1,0,0:0:0:0:
448,192,125851,1,0,0:0:0:0:
64,192,125960,1,0,0:0:0:0:
448,192,125960,1,0,0:0:0:0:
320,192,125996,1,0,0:0:0:0:
192,192,126032,1,0,0:0:0:0:
64,192,126069,1,0,0:0:0:0:
448,192,126105,1,0,0:0:0:0:
320,192,126142,1,0,0:0:0:0:
192,192,126178,1,0,0:0:0:0:
64,192,126178,1,0,0:0:0:0:
320,192,126287,1,0,0:0:0:0:
448,192,126287,1,0,0:0:0:0:
192,192,126396,1,0,0:0:0:0:
64,192,126396,1,0,0:0:0:0:
320,192,126432,1,0,0:0:0:0:
448,192,126469,1,0,0:0:0:0:
64,192,126505,1,0,0:0:0:0:
192,192,126542,1,0,0:0:0:0:
320,192,126578,1,0,0:0:0:0:
448,192,126614,1,0,0:0:0:0:
64,192,126614,1,0,0:0:0:0:
64,192,126723,1,0,0:0:0:0:
192,192,126723,1,0,0:0:0:0:
320,192,126832,1,0,0:0:0:0:
192,192,126860,1,0,0:0:0:0:
64,192,126887,1,0,0:0:0:0:
448,192,126942,1,0,0:0:0:0:
320,192,126942,1,0,0:0:0:0:
64,192,127051,1,0,0:0:0:0:
320,192,127051,1,0,0:0:0:0:
448,192,127160,1,0,0:0:0:0:
320,192,127187,1,0,0:0:0:0:
192,192,127214,1,0,0:0:0:0:
320,192,127269,1,0,0:0:0:0:
448,192,127269,1,0,0:0:0:0:
192,192,127323,1,0,0:0:0:0:
64,192,127323,1,0,0:0:0:0:
320,192,127378,1,0,0:0:0:0:
448,192,127378,1,0,0:0:0:0:
192,192,127432,1,0,0:0:0:0:
448,192,127487,128,0,127705:0:0:0:0:
320,192,127487,128,0,127705:0:0:0:0:
64,192,127487,128,0,127705:0:0:0:0:
192,192,127814,1,0,0:0:0:0:
