osu file format v14

[General]
AudioFilename: audio.mp3
AudioLeadIn: 0
PreviewTime: -1
Countdown: 1
SampleSet: Normal
StackLeniency: 0.7
Mode: 0
LetterboxInBreaks: 0
WidescreenStoryboard: 0

[Editor]
DistanceSpacing: 1
BeatDivisor: 3
GridSize: 8
TimelineZoom: 2

[Metadata]
Title:Cancer
TitleUnicode:Cancer
Artist:NemesisTheory
ArtistUnicode:NemesisTheory
Creator:TheChildGamer
Version:egg
Source:
Tags:
BeatmapID:2045553
BeatmapSetID:977318

[Difficulty]
HPDrainRate:10
CircleSize:7
OverallDifficulty:10
ApproachRate:10
SliderMultiplier:3.59999990463257
SliderTickRate:4

[Events]
//Background and Video events
//Break Periods
//Storyboard Layer 0 (Background)
//Storyboard Layer 1 (Fail)
//Storyboard Layer 2 (Pass)
//Storyboard Layer 3 (Foreground)
//Storyboard Sound Samples

[TimingPoints]
1993.12924993776,107.142857142857,4,1,0,100,1,0
9171,-100,4,3,0,100,0,0

[HitObjects]
20,191,1993,5,4,0:0:0:0:
254,53,2100,1,4,0:0:0:0:
442,195,2207,1,4,0:0:0:0:
256,327,2314,1,4,0:0:0:0:
3,8,2528,1,4,0:0:0:0:
494,377,2743,1,4,0:0:0:0:
260,195,2850,1,4,0:0:0:0:
260,195,3278,1,4,0:0:0:0:
260,195,3332,1,4,0:0:0:0:
260,195,3385,1,4,0:0:0:0:
260,195,3439,1,4,0:0:0:0:
260,195,3493,1,4,0:0:0:0:
260,195,3546,1,4,0:0:0:0:
260,195,3600,1,4,0:0:0:0:
325,249,3653,5,4,0:0:0:0:
353,224,3814,1,4,0:0:0:0:
371,183,3921,1,4,0:0:0:0:
361,141,4028,1,4,0:0:0:0:
331,121,4135,1,4,0:0:0:0:
298,108,4243,1,4,0:0:0:0:
264,108,4350,1,4,0:0:0:0:
245,128,4457,1,4,0:0:0:0:
232,159,4564,5,4,0:0:0:0:
228,191,4671,1,4,0:0:0:0:
247,203,4778,1,4,0:0:0:0:
282,208,4885,1,4,0:0:0:0:
323,193,4993,1,4,0:0:0:0:
349,162,5100,1,4,0:0:0:0:
351,128,5207,1,4,0:0:0:0:
335,99,5314,1,4,0:0:0:0:
300,88,5421,5,4,0:0:0:0:
261,92,5528,1,4,0:0:0:0:
235,119,5635,1,4,0:0:0:0:
224,151,5743,1,4,0:0:0:0:
235,182,5850,1,4,0:0:0:0:
268,196,5957,1,4,0:0:0:0:
287,200,6064,1,4,0:0:0:0:
304,200,6171,1,4,0:0:0:0:
344,202,6278,1,4,0:0:0:0:
370,181,6385,5,4,0:0:0:0:
383,144,6493,1,4,0:0:0:0:
384,109,6600,1,4,0:0:0:0:
356,84,6707,1,4,0:0:0:0:
318,93,6814,1,4,0:0:0:0:
307,151,6921,1,4,0:0:0:0:
375,178,7028,1,4,0:0:0:0:
449,146,7135,1,4,0:0:0:0:
436,92,7243,1,4,0:0:0:0:
418,66,7350,1,4,0:0:0:0:
398,50,7457,1,4,0:0:0:0:
333,33,7564,5,4,0:0:0:0:
283,89,7885,2,4,B|196:150|307:177|66:152|66:152|207:267|206:70|206:70|332:164|261:273|105:275|105:275|440:107|213:33|213:33|48:77,1,1079.99997138977
366,271,10973,1,4,0:0:0:0:
48,334,10979,1,4,0:0:0:0:
431,143,10986,1,4,0:0:0:0:
15,39,10993,1,4,0:0:0:0:
340,145,10999,1,4,0:0:0:0:
376,57,11006,1,4,0:0:0:0:
70,134,11013,1,4,0:0:0:0:
450,71,11019,1,4,0:0:0:0:
101,239,11026,1,4,0:0:0:0:
456,342,11033,1,4,0:0:0:0:
303,127,11040,1,4,0:0:0:0:
70,75,11046,1,4,0:0:0:0:
299,209,11053,1,4,0:0:0:0:
383,214,11060,5,4,0:0:0:0:
154,231,11066,1,4,0:0:0:0:
171,40,11073,1,4,0:0:0:0:
435,264,11080,1,4,0:0:0:0:
131,329,11086,1,4,0:0:0:0:
26,154,11093,1,4,0:0:0:0:
473,152,11100,1,4,0:0:0:0:
61,272,11106,1,4,0:0:0:0:
260,281,11113,1,4,0:0:0:0:
400,115,11120,1,4,0:0:0:0:
290,58,11127,1,4,0:0:0:0:
175,107,11133,1,4,0:0:0:0:
376,252,11140,1,4,0:0:0:0:
157,300,11147,1,4,0:0:0:0:
468,124,11153,5,4,0:0:0:0:
93,198,11160,1,4,0:0:0:0:
369,45,11167,1,4,0:0:0:0:
469,244,11173,1,4,0:0:0:0:
106,136,11180,1,4,0:0:0:0:
443,112,11187,1,4,0:0:0:0:
143,119,11194,1,4,0:0:0:0:
376,89,11200,1,4,0:0:0:0:
221,107,11207,1,4,0:0:0:0:
452,87,11214,5,4,0:0:0:0:
67,128,11220,1,4,0:0:0:0:
416,192,11227,1,4,0:0:0:0:
501,373,11234,1,4,0:0:0:0:
36,1,11240,1,4,0:0:0:0:
510,371,11247,1,4,0:0:0:0:
34,7,11254,1,4,0:0:0:0:
469,51,11260,1,4,0:0:0:0:
162,267,11267,1,4,0:0:0:0:
420,310,11274,1,4,0:0:0:0:
288,148,11281,1,4,0:0:0:0:
203,104,11287,1,4,0:0:0:0:
356,223,11301,1,4,0:0:0:0:
143,197,11307,1,4,0:0:0:0:
298,99,11314,1,4,0:0:0:0:
404,157,11321,1,4,0:0:0:0:
202,230,11327,1,4,0:0:0:0:
149,131,11334,1,4,0:0:0:0:
300,85,11341,1,4,0:0:0:0:
261,38,11348,1,4,0:0:0:0:
126,71,11354,1,4,0:0:0:0:
367,148,11361,5,4,0:0:0:0:
383,208,11374,1,4,0:0:0:0:
101,306,11381,1,4,0:0:0:0:
152,140,11388,1,4,0:0:0:0:
368,86,11394,1,4,0:0:0:0:
375,49,11401,1,4,0:0:0:0:
88,11,11408,1,4,0:0:0:0:
242,71,11415,1,4,0:0:0:0:
481,83,11421,1,4,0:0:0:0:
0,261,11428,1,4,0:0:0:0:
329,260,11435,1,4,0:0:0:0:
196,130,11441,1,4,0:0:0:0:
498,156,11448,1,4,0:0:0:0:
182,145,13993,5,4,0:0:0:0:
187,151,14019,1,4,0:0:0:0:
192,157,14046,1,4,0:0:0:0:
197,163,14073,1,4,0:0:0:0:
202,169,14100,1,4,0:0:0:0:
207,175,14127,1,4,0:0:0:0:
212,181,14153,1,4,0:0:0:0:
217,187,14180,1,4,0:0:0:0:
222,193,14207,1,4,0:0:0:0:
227,199,14234,1,4,0:0:0:0:
232,205,14260,1,4,0:0:0:0:
237,211,14287,1,4,0:0:0:0:
237,211,14314,1,4,0:0:0:0:
237,211,14341,1,4,0:0:0:0:
237,211,14368,1,4,0:0:0:0:
237,211,14394,1,4,0:0:0:0:
90,141,15278,2,4,B|186:179|186:179|262:61|262:61|314:213|314:213|193:162|193:162|456:84|456:84|221:247|221:247|138:54|138:54|371:196|371:196|170:225|170:225|310:112,1,1960
102,37,16564,1,4,0:0:0:0:
305,72,16778,1,4,0:0:0:0:
151,183,16885,1,4,0:0:0:0:
356,223,16993,1,4,0:0:0:0:
171,280,17100,1,4,0:0:0:0:
395,122,17314,1,4,0:0:0:0:
306,293,17421,1,4,0:0:0:0:
78,119,17528,1,4,0:0:0:0:
421,61,17635,1,4,0:0:0:0:
98,327,17743,1,4,0:0:0:0:
390,247,17850,1,4,0:0:0:0:
267,65,17957,5,4,0:0:0:0:
176,218,18010,1,4,0:0:0:0:
454,172,18064,1,4,0:0:0:0:
105,72,18118,1,4,0:0:0:0:
89,247,18171,1,4,0:0:0:0:
336,354,18225,1,4,0:0:0:0:
304,122,18278,1,4,0:0:0:0:
69,181,18332,1,4,0:0:0:0:
11,1,18439,1,4,0:0:0:0:
448,330,18493,1,4,0:0:0:0:
181,285,18546,1,4,0:0:0:0:
420,93,18600,1,4,0:0:0:0:
75,94,18653,1,4,0:0:0:0:
341,160,18707,1,4,0:0:0:0:
19,269,18760,1,4,0:0:0:0:
324,146,18814,1,4,0:0:0:0:
220,41,18850,5,4,0:0:0:0:
271,234,18993,1,4,0:0:0:0:
126,166,19135,1,4,0:0:0:0:
434,133,19278,1,4,0:0:0:0:
194,114,19421,1,4,0:0:0:0:
8,131,19564,1,4,0:0:0:0:
191,329,19707,1,4,0:0:0:0:
436,256,19850,1,4,0:0:0:0:
256,192,19993,12,4,22563,0:0:0:0:
258,189,22993,5,4,0:0:0:0:
136,87,23100,1,4,0:0:0:0:
344,134,23207,1,4,0:0:0:0:
171,217,23314,1,4,0:0:0:0:
336,235,23421,1,4,0:0:0:0:
268,104,23528,1,4,0:0:0:0:
436,85,23635,5,4,0:0:0:0:
172,265,23743,1,4,0:0:0:0:
463,206,23850,1,4,0:0:0:0:
327,70,23957,1,4,0:0:0:0:
123,112,24064,1,4,0:0:0:0:
243,124,24171,1,4,0:0:0:0:
136,193,24278,1,4,0:0:0:0:
191,262,24385,1,4,0:0:0:0:
356,264,24493,1,4,0:0:0:0:
347,146,24600,1,4,0:0:0:0:
440,93,24707,5,4,0:0:0:0:
54,157,24814,1,4,0:0:0:0:
213,299,24921,1,4,0:0:0:0:
411,77,25028,1,4,0:0:0:0:
125,78,25135,1,4,0:0:0:0:
432,280,25243,1,4,0:0:0:0:
66,175,25350,1,4,0:0:0:0:
71,268,25457,1,4,0:0:0:0:
393,186,25564,1,4,0:0:0:0:
20,191,25993,5,4,0:0:0:0:
254,53,26100,1,4,0:0:0:0:
442,195,26207,1,4,0:0:0:0:
256,327,26314,1,4,0:0:0:0:
3,8,26528,1,4,0:0:0:0:
494,377,26743,1,4,0:0:0:0:
260,195,26850,1,4,0:0:0:0:
260,195,27278,1,4,0:0:0:0:
260,195,27332,1,4,0:0:0:0:
260,195,27385,1,4,0:0:0:0:
260,195,27439,1,4,0:0:0:0:
260,195,27493,1,4,0:0:0:0:
260,195,27546,1,4,0:0:0:0:
260,195,27600,1,4,0:0:0:0:
325,249,27653,5,4,0:0:0:0:
353,224,27814,1,4,0:0:0:0:
371,183,27921,1,4,0:0:0:0:
361,141,28028,1,4,0:0:0:0:
331,121,28135,1,4,0:0:0:0:
298,108,28243,1,4,0:0:0:0:
264,108,28350,1,4,0:0:0:0:
245,128,28457,1,4,0:0:0:0:
232,159,28564,5,4,0:0:0:0:
228,191,28671,1,4,0:0:0:0:
247,203,28778,1,4,0:0:0:0:
282,208,28885,1,4,0:0:0:0:
323,193,28993,1,4,0:0:0:0:
349,162,29100,1,4,0:0:0:0:
351,128,29207,1,4,0:0:0:0:
335,99,29314,1,4,0:0:0:0:
300,88,29421,5,4,0:0:0:0:
261,92,29528,1,4,0:0:0:0:
235,119,29635,1,4,0:0:0:0:
224,151,29743,1,4,0:0:0:0:
235,182,29850,1,4,0:0:0:0:
268,196,29957,1,4,0:0:0:0:
287,200,30064,1,4,0:0:0:0:
304,200,30171,1,4,0:0:0:0:
344,202,30278,1,4,0:0:0:0:
370,181,30385,5,4,0:0:0:0:
383,144,30493,1,4,0:0:0:0:
384,109,30600,1,4,0:0:0:0:
356,84,30707,1,4,0:0:0:0:
318,93,30814,1,4,0:0:0:0:
307,151,30921,1,4,0:0:0:0:
375,178,31028,1,4,0:0:0:0:
449,146,31135,1,4,0:0:0:0:
436,92,31243,1,4,0:0:0:0:
418,66,31350,1,4,0:0:0:0:
398,50,31457,1,4,0:0:0:0:
333,33,31564,5,4,0:0:0:0:
283,89,31885,2,4,B|196:150|307:177|66:152|66:152|207:267|206:70|206:70|332:164|261:273|105:275|105:275|440:107|213:33|213:33|48:77,1,1400
121,268,34993,1,4,0:0:0:0:
384,90,35006,1,4,0:0:0:0:
111,27,35019,1,4,0:0:0:0:
448,254,35033,1,4,0:0:0:0:
53,115,35046,1,4,0:0:0:0:
431,85,35060,5,4,0:0:0:0:
175,289,35073,1,4,0:0:0:0:
346,106,35086,1,4,0:0:0:0:
55,19,35100,1,4,0:0:0:0:
416,267,35113,1,4,0:0:0:0:
29,319,35127,1,4,0:0:0:0:
358,156,35140,1,4,0:0:0:0:
300,54,35153,1,4,0:0:0:0:
363,53,35167,5,4,0:0:0:0:
94,167,35180,1,4,0:0:0:0:
346,256,35194,1,4,0:0:0:0:
82,141,35207,1,4,0:0:0:0:
401,142,35220,1,4,0:0:0:0:
174,32,35234,1,4,0:0:0:0:
140,176,35247,1,4,0:0:0:0:
304,223,35260,1,4,0:0:0:0:
471,155,35274,5,4,0:0:0:0:
471,155,35287,1,4,0:0:0:0:
471,155,35301,1,4,0:0:0:0:
471,155,35314,1,4,0:0:0:0:
471,155,35327,1,4,0:0:0:0:
471,155,35341,1,4,0:0:0:0:
471,155,35354,1,4,0:0:0:0:
54,155,35368,1,4,0:0:0:0:
489,46,35381,5,4,0:0:0:0:
156,100,35394,1,4,0:0:0:0:
342,315,35408,1,4,0:0:0:0:
132,234,35421,1,4,0:0:0:0:
246,141,35435,1,4,0:0:0:0:
291,83,35448,1,4,0:0:0:0:
432,78,35461,1,4,0:0:0:0:
131,175,35488,1,4,0:0:0:0:
402,321,35502,1,4,0:0:0:0:
361,211,35515,1,4,0:0:0:0:
226,63,35582,1,4,0:0:0:0:
446,156,35595,1,4,0:0:0:0:
65,260,35609,1,4,0:0:0:0:
321,171,35622,1,4,0:0:0:0:
419,304,35635,1,4,0:0:0:0:
205,188,35649,1,4,0:0:0:0:
313,103,35662,1,4,0:0:0:0:
374,102,35676,1,4,0:0:0:0:
393,260,35689,1,4,0:0:0:0:
102,252,35702,1,4,0:0:0:0:
172,176,35716,1,4,0:0:0:0:
60,35,35850,1,4,0:0:0:0:
387,217,35957,1,4,0:0:0:0:
86,206,36064,1,4,0:0:0:0:
256,103,36171,1,4,0:0:0:0:
424,71,36278,1,4,0:0:0:0:
117,139,36385,1,4,0:0:0:0:
206,207,36493,1,4,0:0:0:0:
356,146,36600,1,4,0:0:0:0:
341,161,36814,5,4,0:0:0:0:
153,167,36921,1,4,0:0:0:0:
233,140,37028,1,4,0:0:0:0:
382,99,37457,5,4,0:0:0:0:
439,97,37564,1,4,0:0:0:0:
151,171,37671,1,4,0:0:0:0:
354,81,37778,1,4,0:0:0:0:
406,80,37885,1,4,0:0:0:0:
182,145,37993,5,4,0:0:0:0:
187,151,38019,1,4,0:0:0:0:
192,157,38046,1,4,0:0:0:0:
197,163,38073,1,4,0:0:0:0:
202,169,38100,1,4,0:0:0:0:
207,175,38127,1,4,0:0:0:0:
212,181,38153,1,4,0:0:0:0:
217,187,38180,1,4,0:0:0:0:
222,193,38207,1,4,0:0:0:0:
227,199,38234,1,4,0:0:0:0:
232,205,38260,1,4,0:0:0:0:
237,211,38287,1,4,0:0:0:0:
237,211,38314,1,4,0:0:0:0:
237,211,38341,1,4,0:0:0:0:
237,211,38368,1,4,0:0:0:0:
237,211,38394,1,4,0:0:0:0:
24,25,39278,2,4,B|490:19|490:19|496:332|4:271|4:270|26:26,1,1120
102,37,40564,1,4,0:0:0:0:
305,72,40778,1,4,0:0:0:0:
151,183,40885,1,4,0:0:0:0:
356,223,40993,1,4,0:0:0:0:
171,280,41100,1,4,0:0:0:0:
395,122,41314,1,4,0:0:0:0:
306,293,41421,1,4,0:0:0:0:
78,119,41528,1,4,0:0:0:0:
421,61,41635,1,4,0:0:0:0:
98,327,41743,1,4,0:0:0:0:
390,247,41850,1,4,0:0:0:0:
267,65,41957,5,4,0:0:0:0:
176,218,42010,1,4,0:0:0:0:
454,172,42064,1,4,0:0:0:0:
105,72,42118,1,4,0:0:0:0:
89,247,42171,1,4,0:0:0:0:
336,354,42225,1,4,0:0:0:0:
304,122,42278,1,4,0:0:0:0:
69,181,42332,1,4,0:0:0:0:
11,1,42439,1,4,0:0:0:0:
448,330,42493,1,4,0:0:0:0:
181,285,42546,1,4,0:0:0:0:
420,93,42600,1,4,0:0:0:0:
75,94,42653,1,4,0:0:0:0:
341,160,42707,1,4,0:0:0:0:
19,269,42760,1,4,0:0:0:0:
324,146,42814,1,4,0:0:0:0:
220,41,42850,5,4,0:0:0:0:
271,234,42993,1,4,0:0:0:0:
126,166,43135,1,4,0:0:0:0:
434,133,43278,1,4,0:0:0:0:
194,114,43421,1,4,0:0:0:0:
8,131,43564,1,4,0:0:0:0:
191,329,43707,1,4,0:0:0:0:
436,256,43850,1,4,0:0:0:0:
256,192,43993,12,4,46563,0:0:0:0:
258,189,46993,5,4,0:0:0:0:
136,87,47100,1,4,0:0:0:0:
344,134,47207,1,4,0:0:0:0:
171,217,47314,1,4,0:0:0:0:
336,235,47421,1,4,0:0:0:0:
268,104,47528,1,4,0:0:0:0:
436,85,47635,5,4,0:0:0:0:
172,265,47743,1,4,0:0:0:0:
463,206,47850,1,4,0:0:0:0:
327,70,47957,1,4,0:0:0:0:
123,112,48064,1,4,0:0:0:0:
243,124,48171,1,4,0:0:0:0:
136,193,48278,1,4,0:0:0:0:
191,262,48385,1,4,0:0:0:0:
356,264,48493,1,4,0:0:0:0:
347,146,48600,1,4,0:0:0:0:
440,93,48707,5,4,0:0:0:0:
54,157,48814,1,4,0:0:0:0:
213,299,48921,1,4,0:0:0:0:
411,77,49028,1,4,0:0:0:0:
125,78,49135,1,4,0:0:0:0:
432,280,49243,1,4,0:0:0:0:
66,175,49350,1,4,0:0:0:0:
71,268,49457,1,4,0:0:0:0:
393,186,49564,1,4,0:0:0:0:
271,88,49671,2,0,B|-102:152|140:222|140:222|484:83|484:83|178:352|215:188|215:188|72:292|72:292|316:29|316:29|374:142|374:142|196:180|196:180|414:59,1,2159.99994277954
199,315,49778,1,0,0:0:0:0:
261,321,49885,1,0,0:0:0:0:
315,150,49993,1,0,0:0:0:0:
164,148,50100,1,0,0:0:0:0:
293,105,50207,1,0,0:0:0:0:
180,182,50314,1,0,0:0:0:0:
385,112,50421,1,0,0:0:0:0:
226,184,50528,1,0,0:0:0:0:
419,150,50635,1,0,0:0:0:0:
84,93,50743,1,0,0:0:0:0:
260,278,50850,1,0,0:0:0:0:
385,156,50957,1,0,0:0:0:0:
160,165,51064,1,0,0:0:0:0:
400,289,51171,1,0,0:0:0:0:
63,247,51278,1,0,0:0:0:0:
373,96,51385,5,0,0:0:0:0:
158,131,51493,1,0,0:0:0:0:
241,213,51600,1,0,0:0:0:0:
356,143,51707,1,0,0:0:0:0:
289,118,51814,5,0,0:0:0:0:
158,131,51921,1,0,0:0:0:0:
150,258,52028,1,0,0:0:0:0:
431,124,52135,5,0,0:0:0:0:
12,109,52243,1,0,0:0:0:0:
440,92,52350,1,0,0:0:0:0:
161,247,52457,1,0,0:0:0:0:
355,295,52564,5,0,0:0:0:0:
17,303,52671,1,0,0:0:0:0:
235,68,52778,1,0,0:0:0:0:
420,242,52885,1,0,0:0:0:0:
24,22,52993,6,0,B|496:19|496:19|498:373|498:373|18:377|18:377|24:79|24:79|436:83|436:83|434:330|434:330|78:330|78:330|78:127|78:126|77:126|390:130|390:130|388:279|388:279|120:284|120:284|130:191|130:191|324:199|324:199|317:233|210:236|210:235,1,3599.99990463257
214,85,53421,1,0,0:0:0:0:
197,103,54278,1,0,0:0:0:0:
442,220,54314,1,0,0:0:0:0:
112,297,54350,1,0,0:0:0:0:
132,55,54385,1,0,0:0:0:0:
437,77,54421,1,0,0:0:0:0:
228,291,54457,1,0,0:0:0:0:
436,21,54493,5,0,0:0:0:0:
191,155,54528,1,0,0:0:0:0:
42,168,54564,1,0,0:0:0:0:
337,352,54600,1,0,0:0:0:0:
334,167,54635,1,0,0:0:0:0:
299,101,54671,1,0,0:0:0:0:
403,169,54707,5,0,0:0:0:0:
122,107,54743,1,0,0:0:0:0:
340,283,54778,1,0,0:0:0:0:
89,212,54814,1,0,0:0:0:0:
299,75,54850,1,0,0:0:0:0:
433,57,54885,1,0,0:0:0:0:
239,141,54921,1,0,0:0:0:0:
95,178,54957,1,0,0:0:0:0:
224,253,54993,1,0,0:0:0:0:
416,165,55028,1,0,0:0:0:0:
352,81,55064,1,0,0:0:0:0:
304,52,55100,1,0,0:0:0:0:
256,191,55135,5,0,0:0:0:0:
