osu file format v14

[General]
AudioFilename: audio.mp3
AudioLeadIn: 0
PreviewTime: -1
Countdown: 1
SampleSet: None
StackLeniency: 0.2
Mode: 0
LetterboxInBreaks: 0
SkinPreference:Unnamed Skin
CountdownOffset: 3
WidescreenStoryboard: 0

[Editor]
DistanceSpacing: 1
BeatDivisor: 1
GridSize: 8
TimelineZoom: 2

[Metadata]
Title:Cancer
TitleUnicode:Cancer
Artist:NemesisTheory
ArtistUnicode:NemesisTheory
Creator:TheChildGamer
Version:Easy
Source:
Tags:
BeatmapID:2087457
BeatmapSetID:977318

[Difficulty]
HPDrainRate:10
CircleSize:7
OverallDifficulty:10
ApproachRate:10
SliderMultiplier:3.59999990463257
SliderTickRate:4

[Events]
//Background and Video events
//Break Periods
//Storyboard Layer 0 (Background)
//Storyboard Layer 1 (Fail)
//Storyboard Layer 2 (Pass)
//Storyboard Layer 3 (Foreground)
//Storyboard Sound Samples

[TimingPoints]
1993.12924993776,21.4285714285714,4,1,0,100,1,0
9171,-100,4,3,0,100,0,0

[HitObjects]
0,0,1996,6,0,B|502:-7|502:-7|-4:220|-4:220|450:99|450:99|-5:346|144:44|144:44|474:312|28:113|420:199|198:305|198:305|260:43|114:315,1,2699.99992847443
184,138,1999,1,0,0:0:0:0:
369,221,2001,1,0,0:0:0:0:
5,318,2002,1,0,0:0:0:0:
125,191,2003,1,0,0:0:0:0:
257,174,2005,1,0,0:0:0:0:
419,212,2006,1,0,0:0:0:0:
194,282,2007,1,0,0:0:0:0:
151,159,2009,1,0,0:0:0:0:
245,121,2011,1,0,0:0:0:0:
336,139,2013,1,0,0:0:0:0:
296,73,2014,1,0,0:0:0:0:
286,65,2015,1,0,0:0:0:0:
133,149,2017,1,0,0:0:0:0:
7,200,2019,1,0,0:0:0:0:
251,44,2078,1,0,0:0:0:0:
36,175,2080,1,0,0:0:0:0:
472,70,2081,1,0,0:0:0:0:
383,338,2082,1,0,0:0:0:0:
7,84,2084,1,0,0:0:0:0:
358,43,2085,1,0,0:0:0:0:
57,83,2086,1,0,0:0:0:0:
451,182,2088,1,0,0:0:0:0:
40,360,2089,1,0,0:0:0:0:
281,52,2090,1,0,0:0:0:0:
107,47,2092,5,0,0:0:0:0:
256,365,2093,1,0,0:0:0:0:
459,140,2094,1,0,0:0:0:0:
118,127,2096,1,0,0:0:0:0:
32,292,2097,1,0,0:0:0:0:
364,113,2098,1,0,0:0:0:0:
145,101,2100,1,0,0:0:0:0:
223,245,2101,1,0,0:0:0:0:
366,102,2102,1,0,0:0:0:0:
208,166,2105,1,0,0:0:0:0:
349,57,2108,1,0,0:0:0:0:
60,107,2109,1,0,0:0:0:0:
249,327,2110,1,0,0:0:0:0:
375,147,2112,1,0,0:0:0:0:
77,118,2113,1,0,0:0:0:0:
285,88,2115,1,0,0:0:0:0:
117,234,2116,1,0,0:0:0:0:
169,111,2117,1,0,0:0:0:0:
301,173,2119,1,0,0:0:0:0:
99,202,2120,1,0,0:0:0:0:
146,112,2121,1,0,0:0:0:0:
376,178,2123,1,0,0:0:0:0:
379,288,2124,1,0,0:0:0:0:
184,285,2125,1,0,0:0:0:0:
138,185,2127,1,0,0:0:0:0:
199,53,2129,5,0,0:0:0:0:
423,138,2131,1,0,0:0:0:0:
150,88,2133,1,0,0:0:0:0:
396,158,2135,1,0,0:0:0:0:
174,263,2136,1,0,0:0:0:0:
149,116,2137,1,0,0:0:0:0:
507,1,2140,1,0,0:0:0:0:
4,381,2141,1,0,0:0:0:0:
500,373,2143,1,0,0:0:0:0:
280,143,2144,1,0,0:0:0:0:
24,87,2145,1,0,0:0:0:0:
406,129,2147,1,0,0:0:0:0:
435,263,2148,1,0,0:0:0:0:
352,186,2149,1,0,0:0:0:0:
151,212,2179,6,0,B|462:32|48:367|48:367|113:71|113:71|484:303|484:303|-2:123|-2:123|334:29|334:29|170:332|170:332|31:246|31:246|362:197|362:196|205:58|141:367,1,3127.49991714955
192,71,2202,5,0,0:0:0:0:
61,209,2203,1,0,0:0:0:0:
341,245,2204,1,0,0:0:0:0:
184,66,2206,1,0,0:0:0:0:
367,54,2207,1,0,0:0:0:0:
371,226,2210,1,0,0:0:0:0:
258,121,2211,1,0,0:0:0:0:
182,268,2212,1,0,0:0:0:0:
365,202,2216,1,0,0:0:0:0:
478,302,2218,1,0,0:0:0:0:
431,184,2219,1,0,0:0:0:0:
286,268,2220,1,0,0:0:0:0:
389,303,2222,1,0,0:0:0:0:
402,192,2223,1,0,0:0:0:0:
388,182,2224,1,0,0:0:0:0:
336,196,2226,1,0,0:0:0:0:
321,181,2227,1,0,0:0:0:0:
149,31,2228,1,0,0:0:0:0:
200,134,2230,1,0,0:0:0:0:
251,224,2231,1,0,0:0:0:0:
175,273,2232,1,0,0:0:0:0:
108,250,2234,1,0,0:0:0:0:
236,56,2235,1,0,0:0:0:0:
414,88,2236,1,0,0:0:0:0:
146,162,2239,1,0,0:0:0:0:
136,64,2240,1,0,0:0:0:0:
86,171,2242,1,0,0:0:0:0:
329,233,2243,1,0,0:0:0:0:
330,177,2246,1,0,0:0:0:0:
0,0,2408,6,0,B|502:-7|502:-7|-4:220|-4:220|450:99|450:99|-5:346|144:44|144:44|474:312|28:113|420:199|198:305|198:305|260:43|114:315,1,2699.99992847443
184,138,2411,1,0,0:0:0:0:
369,221,2413,1,0,0:0:0:0:
5,318,2414,1,0,0:0:0:0:
125,191,2415,1,0,0:0:0:0:
257,174,2417,1,0,0:0:0:0:
419,212,2418,1,0,0:0:0:0:
194,282,2419,1,0,0:0:0:0:
151,159,2421,1,0,0:0:0:0:
245,121,2423,1,0,0:0:0:0:
336,139,2425,1,0,0:0:0:0:
296,73,2426,1,0,0:0:0:0:
286,65,2427,1,0,0:0:0:0:
133,149,2429,1,0,0:0:0:0:
7,200,2431,1,0,0:0:0:0:
251,44,2490,1,0,0:0:0:0:
36,175,2492,1,0,0:0:0:0:
472,70,2493,1,0,0:0:0:0:
383,338,2494,1,0,0:0:0:0:
7,84,2496,1,0,0:0:0:0:
358,43,2497,1,0,0:0:0:0:
57,83,2498,1,0,0:0:0:0:
451,182,2500,1,0,0:0:0:0:
40,360,2501,1,0,0:0:0:0:
281,52,2502,1,0,0:0:0:0:
107,47,2504,5,0,0:0:0:0:
256,365,2505,1,0,0:0:0:0:
459,140,2506,1,0,0:0:0:0:
118,127,2508,1,0,0:0:0:0:
32,292,2509,1,0,0:0:0:0:
364,113,2510,1,0,0:0:0:0:
145,101,2512,1,0,0:0:0:0:
223,245,2513,1,0,0:0:0:0:
366,102,2514,1,0,0:0:0:0:
208,166,2517,1,0,0:0:0:0:
349,57,2520,1,0,0:0:0:0:
60,107,2521,1,0,0:0:0:0:
249,327,2522,1,0,0:0:0:0:
375,147,2524,1,0,0:0:0:0:
77,118,2525,1,0,0:0:0:0:
285,88,2527,1,0,0:0:0:0:
117,234,2528,1,0,0:0:0:0:
169,111,2529,1,0,0:0:0:0:
301,173,2531,1,0,0:0:0:0:
99,202,2532,1,0,0:0:0:0:
146,112,2533,1,0,0:0:0:0:
376,178,2535,1,0,0:0:0:0:
379,288,2536,1,0,0:0:0:0:
184,285,2537,1,0,0:0:0:0:
138,185,2539,1,0,0:0:0:0:
199,53,2541,5,0,0:0:0:0:
423,138,2543,1,0,0:0:0:0:
150,88,2545,1,0,0:0:0:0:
396,158,2547,1,0,0:0:0:0:
174,263,2548,1,0,0:0:0:0:
149,116,2549,1,0,0:0:0:0:
507,1,2552,1,0,0:0:0:0:
4,381,2553,1,0,0:0:0:0:
500,373,2555,1,0,0:0:0:0:
280,143,2556,1,0,0:0:0:0:
24,87,2557,1,0,0:0:0:0:
406,129,2559,1,0,0:0:0:0:
435,263,2560,1,0,0:0:0:0:
352,186,2561,1,0,0:0:0:0:
151,212,2591,6,0,B|462:32|48:367|48:367|113:71|113:71|484:303|484:303|-2:123|-2:123|334:29|334:29|170:332|170:332|31:246|31:246|362:197|362:196|205:58|141:367,1,3127.49991714955
192,71,2614,5,0,0:0:0:0:
61,209,2615,1,0,0:0:0:0:
341,245,2616,1,0,0:0:0:0:
184,66,2618,1,0,0:0:0:0:
367,54,2619,1,0,0:0:0:0:
371,226,2622,1,0,0:0:0:0:
258,121,2623,1,0,0:0:0:0:
182,268,2624,1,0,0:0:0:0:
365,202,2628,1,0,0:0:0:0:
478,302,2630,1,0,0:0:0:0:
431,184,2631,1,0,0:0:0:0:
286,268,2632,1,0,0:0:0:0:
389,303,2634,1,0,0:0:0:0:
402,192,2635,1,0,0:0:0:0:
388,182,2636,1,0,0:0:0:0:
336,196,2638,1,0,0:0:0:0:
321,181,2639,1,0,0:0:0:0:
149,31,2640,1,0,0:0:0:0:
200,134,2642,1,0,0:0:0:0:
251,224,2643,1,0,0:0:0:0:
175,273,2644,1,0,0:0:0:0:
108,250,2646,1,0,0:0:0:0:
236,56,2647,1,0,0:0:0:0:
414,88,2648,1,0,0:0:0:0:
146,162,2651,1,0,0:0:0:0:
136,64,2652,1,0,0:0:0:0:
86,171,2654,1,0,0:0:0:0:
329,233,2655,1,0,0:0:0:0:
330,177,2658,1,0,0:0:0:0:
0,0,2972,6,0,B|502:-7|502:-7|-4:220|-4:220|450:99|450:99|-5:346|144:44|144:44|474:312|28:113|420:199|198:305|198:305|260:43|114:315,1,2699.99992847443
0,0,2973,6,0,B|502:-7|502:-7|-4:220|-4:220|450:99|450:99|-5:346|144:44|144:44|474:312|28:113|420:199|198:305|198:305|260:43|114:315,1,2699.99992847443
0,0,2974,6,0,B|502:-7|502:-7|-4:220|-4:220|450:99|450:99|-5:346|144:44|144:44|474:312|28:113|420:199|198:305|198:305|260:43|114:315,1,2699.99992847443
184,138,2975,1,0,0:0:0:0:
0,0,2976,6,0,B|502:-7|502:-7|-4:220|-4:220|450:99|450:99|-5:346|144:44|144:44|474:312|28:113|420:199|198:305|198:305|260:43|114:315,1,2699.99992847443
0,0,2977,6,0,B|502:-7|502:-7|-4:220|-4:220|450:99|450:99|-5:346|144:44|144:44|474:312|28:113|420:199|198:305|198:305|260:43|114:315,1,2699.99992847443
0,0,2978,6,0,B|502:-7|502:-7|-4:220|-4:220|450:99|450:99|-5:346|144:44|144:44|474:312|28:113|420:199|198:305|198:305|260:43|114:315,1,2699.99992847443
184,138,2979,1,0,0:0:0:0:
184,138,2980,1,0,0:0:0:0:
184,138,2981,1,0,0:0:0:0:
369,221,2982,1,0,0:0:0:0:
369,221,2983,1,0,0:0:0:0:
5,318,2984,1,0,0:0:0:0:
125,191,2985,1,0,0:0:0:0:
257,174,2986,1,0,0:0:0:0:
257,174,2987,1,0,0:0:0:0:
419,212,2988,1,0,0:0:0:0:
194,282,2989,1,0,0:0:0:0:
151,159,2990,1,0,0:0:0:0:
151,159,2991,1,0,0:0:0:0:
245,121,2992,1,0,0:0:0:0:
245,121,2993,1,0,0:0:0:0:
336,139,2994,1,0,0:0:0:0:
336,139,2995,1,0,0:0:0:0:
296,73,2996,1,0,0:0:0:0:
286,65,2997,1,0,0:0:0:0:
133,149,2998,1,0,0:0:0:0:
133,149,2999,1,0,0:0:0:0:
7,200,3000,1,0,0:0:0:0:
7,200,3001,1,0,0:0:0:0:
251,44,3054,1,0,0:0:0:0:
251,44,3055,1,0,0:0:0:0:
251,44,3056,1,0,0:0:0:0:
36,175,3057,1,0,0:0:0:0:
251,44,3058,1,0,0:0:0:0:
251,44,3059,1,0,0:0:0:0:
251,44,3060,1,0,0:0:0:0:
36,175,3061,1,0,0:0:0:0:
36,175,3062,1,0,0:0:0:0:
472,70,3063,1,0,0:0:0:0:
383,338,3064,1,0,0:0:0:0:
7,84,3065,1,0,0:0:0:0:
7,84,3066,1,0,0:0:0:0:
358,43,3067,1,0,0:0:0:0:
57,83,3068,1,0,0:0:0:0:
451,182,3069,1,0,0:0:0:0:
451,182,3070,1,0,0:0:0:0:
40,360,3071,1,0,0:0:0:0:
281,52,3072,1,0,0:0:0:0:
107,47,3073,5,0,0:0:0:0:
107,47,3074,5,0,0:0:0:0:
256,365,3075,1,0,0:0:0:0:
459,140,3076,1,0,0:0:0:0:
118,127,3077,1,0,0:0:0:0:
118,127,3078,1,0,0:0:0:0:
32,292,3079,1,0,0:0:0:0:
364,113,3080,1,0,0:0:0:0:
145,101,3081,1,0,0:0:0:0:
145,101,3082,1,0,0:0:0:0:
223,245,3083,1,0,0:0:0:0:
366,102,3084,1,0,0:0:0:0:
208,166,3085,1,0,0:0:0:0:
208,166,3086,1,0,0:0:0:0:
208,166,3087,1,0,0:0:0:0:
349,57,3088,1,0,0:0:0:0:
349,57,3089,1,0,0:0:0:0:
349,57,3090,1,0,0:0:0:0:
60,107,3091,1,0,0:0:0:0:
249,327,3092,1,0,0:0:0:0:
375,147,3093,1,0,0:0:0:0:
375,147,3094,1,0,0:0:0:0:
77,118,3095,1,0,0:0:0:0:
285,88,3096,1,0,0:0:0:0:
285,88,3097,1,0,0:0:0:0:
117,234,3098,1,0,0:0:0:0:
169,111,3099,1,0,0:0:0:0:
301,173,3100,1,0,0:0:0:0:
301,173,3101,1,0,0:0:0:0:
99,202,3102,1,0,0:0:0:0:
146,112,3103,1,0,0:0:0:0:
376,178,3104,1,0,0:0:0:0:
376,178,3105,1,0,0:0:0:0:
379,288,3106,1,0,0:0:0:0:
184,285,3107,1,0,0:0:0:0:
138,185,3108,1,0,0:0:0:0:
138,185,3109,1,0,0:0:0:0:
199,53,3110,5,0,0:0:0:0:
199,53,3111,5,0,0:0:0:0:
423,138,3112,1,0,0:0:0:0:
423,138,3113,1,0,0:0:0:0:
150,88,3114,1,0,0:0:0:0:
150,88,3115,1,0,0:0:0:0:
396,158,3116,1,0,0:0:0:0:
396,158,3117,1,0,0:0:0:0:
174,263,3118,1,0,0:0:0:0:
149,116,3119,1,0,0:0:0:0:
507,1,3120,1,0,0:0:0:0:
507,1,3121,1,0,0:0:0:0:
507,1,3122,1,0,0:0:0:0:
4,381,3123,1,0,0:0:0:0:
500,373,3124,1,0,0:0:0:0:
500,373,3125,1,0,0:0:0:0:
280,143,3126,1,0,0:0:0:0:
24,87,3127,1,0,0:0:0:0:
406,129,3128,1,0,0:0:0:0:
406,129,3129,1,0,0:0:0:0:
435,263,3130,1,0,0:0:0:0:
352,186,3131,1,0,0:0:0:0:
151,212,3155,6,0,B|462:32|48:367|48:367|113:71|113:71|484:303|484:303|-2:123|-2:123|334:29|334:29|170:332|170:332|31:246|31:246|362:197|362:196|205:58|141:367,1,3127.49991714955
151,212,3156,6,0,B|462:32|48:367|48:367|113:71|113:71|484:303|484:303|-2:123|-2:123|334:29|334:29|170:332|170:332|31:246|31:246|362:197|362:196|205:58|141:367,1,3127.49991714955
151,212,3157,6,0,B|462:32|48:367|48:367|113:71|113:71|484:303|484:303|-2:123|-2:123|334:29|334:29|170:332|170:332|31:246|31:246|362:197|362:196|205:58|141:367,1,3127.49991714955
151,212,3159,6,0,B|462:32|48:367|48:367|113:71|113:71|484:303|484:303|-2:123|-2:123|334:29|334:29|170:332|170:332|31:246|31:246|362:197|362:196|205:58|141:367,1,3127.49991714955
151,212,3160,6,0,B|462:32|48:367|48:367|113:71|113:71|484:303|484:303|-2:123|-2:123|334:29|334:29|170:332|170:332|31:246|31:246|362:197|362:196|205:58|141:367,1,3127.49991714955
151,212,3161,6,0,B|462:32|48:367|48:367|113:71|113:71|484:303|484:303|-2:123|-2:123|334:29|334:29|170:332|170:332|31:246|31:246|362:197|362:196|205:58|141:367,1,3127.49991714955
192,71,3178,5,0,0:0:0:0:
192,71,3179,5,0,0:0:0:0:
192,71,3180,5,0,0:0:0:0:
61,209,3181,1,0,0:0:0:0:
192,71,3182,5,0,0:0:0:0:
192,71,3183,5,0,0:0:0:0:
192,71,3184,5,0,0:0:0:0:
61,209,3185,1,0,0:0:0:0:
341,245,3186,1,0,0:0:0:0:
184,66,3187,1,0,0:0:0:0:
184,66,3188,1,0,0:0:0:0:
367,54,3189,1,0,0:0:0:0:
371,226,3190,1,0,0:0:0:0:
371,226,3191,1,0,0:0:0:0:
371,226,3192,1,0,0:0:0:0:
258,121,3193,1,0,0:0:0:0:
182,268,3194,1,0,0:0:0:0:
478,302,3195,1,0,0:0:0:0:
365,202,3196,1,0,0:0:0:0:
365,202,3197,1,0,0:0:0:0:
365,202,3198,1,0,0:0:0:0:
478,302,3199,1,0,0:0:0:0:
478,302,3200,1,0,0:0:0:0:
431,184,3201,1,0,0:0:0:0:
286,268,3202,1,0,0:0:0:0:
389,303,3203,1,0,0:0:0:0:
389,303,3204,1,0,0:0:0:0:
402,192,3205,1,0,0:0:0:0:
388,182,3206,1,0,0:0:0:0:
336,196,3207,1,0,0:0:0:0:
336,196,3208,1,0,0:0:0:0:
321,181,3209,1,0,0:0:0:0:
149,31,3210,1,0,0:0:0:0:
200,134,3211,1,0,0:0:0:0:
200,134,3212,1,0,0:0:0:0:
251,224,3213,1,0,0:0:0:0:
175,273,3214,1,0,0:0:0:0:
108,250,3215,1,0,0:0:0:0:
108,250,3216,1,0,0:0:0:0:
236,56,3217,1,0,0:0:0:0:
414,88,3218,1,0,0:0:0:0:
146,162,3219,1,0,0:0:0:0:
146,162,3220,1,0,0:0:0:0:
146,162,3221,1,0,0:0:0:0:
136,64,3222,1,0,0:0:0:0:
86,171,3223,1,0,0:0:0:0:
86,171,3224,1,0,0:0:0:0:
329,233,3225,1,0,0:0:0:0:
330,177,3226,1,0,0:0:0:0:
330,177,3227,1,0,0:0:0:0:
330,177,3228,1,0,0:0:0:0:
0,0,3931,6,0,B|502:-7|502:-7|-4:220|-4:220|450:99|450:99|-5:346|144:44|144:44|474:312|28:113|420:199|198:305|198:305|260:43|114:315,1,2699.99992847443
184,138,3934,1,0,0:0:0:0:
369,221,3936,1,0,0:0:0:0:
5,318,3937,1,0,0:0:0:0:
125,191,3938,1,0,0:0:0:0:
257,174,3940,1,0,0:0:0:0:
419,212,3941,1,0,0:0:0:0:
194,282,3942,1,0,0:0:0:0:
151,159,3944,1,0,0:0:0:0:
245,121,3946,1,0,0:0:0:0:
336,139,3948,1,0,0:0:0:0:
296,73,3949,1,0,0:0:0:0:
286,65,3950,1,0,0:0:0:0:
133,149,3952,1,0,0:0:0:0:
7,200,3954,1,0,0:0:0:0:
251,44,4013,1,0,0:0:0:0:
36,175,4015,1,0,0:0:0:0:
472,70,4016,1,0,0:0:0:0:
383,338,4017,1,0,0:0:0:0:
7,84,4019,1,0,0:0:0:0:
358,43,4020,1,0,0:0:0:0:
57,83,4021,1,0,0:0:0:0:
451,182,4023,1,0,0:0:0:0:
40,360,4024,1,0,0:0:0:0:
281,52,4025,1,0,0:0:0:0:
107,47,4027,5,0,0:0:0:0:
256,365,4028,1,0,0:0:0:0:
459,140,4029,1,0,0:0:0:0:
118,127,4031,1,0,0:0:0:0:
32,292,4032,1,0,0:0:0:0:
364,113,4033,1,0,0:0:0:0:
145,101,4035,1,0,0:0:0:0:
223,245,4036,1,0,0:0:0:0:
366,102,4037,1,0,0:0:0:0:
208,166,4040,1,0,0:0:0:0:
349,57,4043,1,0,0:0:0:0:
60,107,4044,1,0,0:0:0:0:
249,327,4045,1,0,0:0:0:0:
375,147,4047,1,0,0:0:0:0:
77,118,4048,1,0,0:0:0:0:
285,88,4050,1,0,0:0:0:0:
117,234,4051,1,0,0:0:0:0:
169,111,4052,1,0,0:0:0:0:
301,173,4054,1,0,0:0:0:0:
99,202,4055,1,0,0:0:0:0:
146,112,4056,1,0,0:0:0:0:
376,178,4058,1,0,0:0:0:0:
379,288,4059,1,0,0:0:0:0:
184,285,4060,1,0,0:0:0:0:
138,185,4062,1,0,0:0:0:0:
199,53,4064,5,0,0:0:0:0:
423,138,4066,1,0,0:0:0:0:
150,88,4068,1,0,0:0:0:0:
396,158,4070,1,0,0:0:0:0:
174,263,4071,1,0,0:0:0:0:
149,116,4072,1,0,0:0:0:0:
507,1,4075,1,0,0:0:0:0:
4,381,4076,1,0,0:0:0:0:
500,373,4078,1,0,0:0:0:0:
280,143,4079,1,0,0:0:0:0:
24,87,4080,1,0,0:0:0:0:
406,129,4082,1,0,0:0:0:0:
435,263,4083,1,0,0:0:0:0:
352,186,4084,1,0,0:0:0:0:
151,212,4114,6,0,B|462:32|48:367|48:367|113:71|113:71|484:303|484:303|-2:123|-2:123|334:29|334:29|170:332|170:332|31:246|31:246|362:197|362:196|205:58|141:367,1,3127.49991714955
192,71,4137,5,0,0:0:0:0:
61,209,4138,1,0,0:0:0:0:
341,245,4139,1,0,0:0:0:0:
184,66,4141,1,0,0:0:0:0:
367,54,4142,1,0,0:0:0:0:
371,226,4145,1,0,0:0:0:0:
258,121,4146,1,0,0:0:0:0:
182,268,4147,1,0,0:0:0:0:
365,202,4151,1,0,0:0:0:0:
478,302,4153,1,0,0:0:0:0:
431,184,4154,1,0,0:0:0:0:
286,268,4155,1,0,0:0:0:0:
389,303,4157,1,0,0:0:0:0:
402,192,4158,1,0,0:0:0:0:
388,182,4159,1,0,0:0:0:0:
336,196,4161,1,0,0:0:0:0:
321,181,4162,1,0,0:0:0:0:
149,31,4163,1,0,0:0:0:0:
200,134,4165,1,0,0:0:0:0:
251,224,4166,1,0,0:0:0:0:
175,273,4167,1,0,0:0:0:0:
108,250,4169,1,0,0:0:0:0:
236,56,4170,1,0,0:0:0:0:
414,88,4171,1,0,0:0:0:0:
146,162,4174,1,0,0:0:0:0:
136,64,4175,1,0,0:0:0:0:
86,171,4177,1,0,0:0:0:0:
329,233,4178,1,0,0:0:0:0:
330,177,4181,1,0,0:0:0:0:
0,0,4343,6,0,B|502:-7|502:-7|-4:220|-4:220|450:99|450:99|-5:346|144:44|144:44|474:312|28:113|420:199|198:305|198:305|260:43|114:315,1,2699.99992847443
184,138,4346,1,0,0:0:0:0:
369,221,4348,1,0,0:0:0:0:
5,318,4349,1,0,0:0:0:0:
125,191,4350,1,0,0:0:0:0:
257,174,4352,1,0,0:0:0:0:
419,212,4353,1,0,0:0:0:0:
194,282,4354,1,0,0:0:0:0:
151,159,4356,1,0,0:0:0:0:
245,121,4358,1,0,0:0:0:0:
336,139,4360,1,0,0:0:0:0:
296,73,4361,1,0,0:0:0:0:
286,65,4362,1,0,0:0:0:0:
133,149,4364,1,0,0:0:0:0:
7,200,4366,1,0,0:0:0:0:
251,44,4425,1,0,0:0:0:0:
36,175,4427,1,0,0:0:0:0:
472,70,4428,1,0,0:0:0:0:
383,338,4429,1,0,0:0:0:0:
7,84,4431,1,0,0:0:0:0:
358,43,4432,1,0,0:0:0:0:
57,83,4433,1,0,0:0:0:0:
451,182,4435,1,0,0:0:0:0:
40,360,4436,1,0,0:0:0:0:
281,52,4437,1,0,0:0:0:0:
107,47,4439,5,0,0:0:0:0:
256,365,4440,1,0,0:0:0:0:
459,140,4441,1,0,0:0:0:0:
118,127,4443,1,0,0:0:0:0:
32,292,4444,1,0,0:0:0:0:
364,113,4445,1,0,0:0:0:0:
145,101,4447,1,0,0:0:0:0:
223,245,4448,1,0,0:0:0:0:
366,102,4449,1,0,0:0:0:0:
208,166,4452,1,0,0:0:0:0:
349,57,4455,1,0,0:0:0:0:
60,107,4456,1,0,0:0:0:0:
249,327,4457,1,0,0:0:0:0:
375,147,4459,1,0,0:0:0:0:
77,118,4460,1,0,0:0:0:0:
285,88,4462,1,0,0:0:0:0:
117,234,4463,1,0,0:0:0:0:
169,111,4464,1,0,0:0:0:0:
301,173,4466,1,0,0:0:0:0:
99,202,4467,1,0,0:0:0:0:
146,112,4468,1,0,0:0:0:0:
376,178,4470,1,0,0:0:0:0:
379,288,4471,1,0,0:0:0:0:
184,285,4472,1,0,0:0:0:0:
138,185,4474,1,0,0:0:0:0:
199,53,4476,5,0,0:0:0:0:
423,138,4478,1,0,0:0:0:0:
150,88,4480,1,0,0:0:0:0:
396,158,4482,1,0,0:0:0:0:
174,263,4483,1,0,0:0:0:0:
149,116,4484,1,0,0:0:0:0:
507,1,4487,1,0,0:0:0:0:
4,381,4488,1,0,0:0:0:0:
500,373,4490,1,0,0:0:0:0:
280,143,4491,1,0,0:0:0:0:
24,87,4492,1,0,0:0:0:0:
406,129,4494,1,0,0:0:0:0:
435,263,4495,1,0,0:0:0:0:
352,186,4496,1,0,0:0:0:0:
151,212,4526,6,0,B|462:32|48:367|48:367|113:71|113:71|484:303|484:303|-2:123|-2:123|334:29|334:29|170:332|170:332|31:246|31:246|362:197|362:196|205:58|141:367,1,3127.49991714955
192,71,4549,5,0,0:0:0:0:
61,209,4550,1,0,0:0:0:0:
341,245,4551,1,0,0:0:0:0:
184,66,4553,1,0,0:0:0:0:
367,54,4554,1,0,0:0:0:0:
371,226,4557,1,0,0:0:0:0:
258,121,4558,1,0,0:0:0:0:
182,268,4559,1,0,0:0:0:0:
365,202,4563,1,0,0:0:0:0:
478,302,4565,1,0,0:0:0:0:
431,184,4566,1,0,0:0:0:0:
286,268,4567,1,0,0:0:0:0:
389,303,4569,1,0,0:0:0:0:
402,192,4570,1,0,0:0:0:0:
388,182,4571,1,0,0:0:0:0:
336,196,4573,1,0,0:0:0:0:
321,181,4574,1,0,0:0:0:0:
149,31,4575,1,0,0:0:0:0:
200,134,4577,1,0,0:0:0:0:
251,224,4578,1,0,0:0:0:0:
175,273,4579,1,0,0:0:0:0:
108,250,4581,1,0,0:0:0:0:
236,56,4582,1,0,0:0:0:0:
414,88,4583,1,0,0:0:0:0:
146,162,4586,1,0,0:0:0:0:
136,64,4587,1,0,0:0:0:0:
86,171,4589,1,0,0:0:0:0:
329,233,4590,1,0,0:0:0:0:
330,177,4593,1,0,0:0:0:0:
0,0,4821,6,0,B|502:-7|502:-7|-4:220|-4:220|450:99|450:99|-5:346|144:44|144:44|474:312|28:113|420:199|198:305|198:305|260:43|114:315,1,2699.99992847443
184,138,4824,1,0,0:0:0:0:
369,221,4826,1,0,0:0:0:0:
5,318,4827,1,0,0:0:0:0:
125,191,4828,1,0,0:0:0:0:
257,174,4830,1,0,0:0:0:0:
419,212,4831,1,0,0:0:0:0:
194,282,4832,1,0,0:0:0:0:
151,159,4834,1,0,0:0:0:0:
245,121,4836,1,0,0:0:0:0:
336,139,4838,1,0,0:0:0:0:
296,73,4839,1,0,0:0:0:0:
286,65,4840,1,0,0:0:0:0:
133,149,4842,1,0,0:0:0:0:
7,200,4844,1,0,0:0:0:0:
251,44,4903,1,0,0:0:0:0:
36,175,4905,1,0,0:0:0:0:
472,70,4906,1,0,0:0:0:0:
383,338,4907,1,0,0:0:0:0:
0,0,4908,6,0,B|502:-7|502:-7|-4:220|-4:220|450:99|450:99|-5:346|144:44|144:44|474:312|28:113|420:199|198:305|198:305|260:43|114:315,1,2699.99992847443
7,84,4909,1,0,0:0:0:0:
358,43,4910,1,0,0:0:0:0:
57,83,4911,1,0,0:0:0:0:
0,0,4912,6,0,B|502:-7|502:-7|-4:220|-4:220|450:99|450:99|-5:346|144:44|144:44|474:312|28:113|420:199|198:305|198:305|260:43|114:315,1,2699.99992847443
451,182,4913,1,0,0:0:0:0:
40,360,4914,1,0,0:0:0:0:
281,52,4915,1,0,0:0:0:0:
184,138,4916,1,0,0:0:0:0:
107,47,4917,5,0,0:0:0:0:
256,365,4918,1,0,0:0:0:0:
459,140,4919,1,0,0:0:0:0:
125,191,4920,1,0,0:0:0:0:
118,127,4921,1,0,0:0:0:0:
32,292,4922,1,0,0:0:0:0:
364,113,4923,1,0,0:0:0:0:
194,282,4924,1,0,0:0:0:0:
145,101,4925,1,0,0:0:0:0:
223,245,4926,1,0,0:0:0:0:
366,102,4927,1,0,0:0:0:0:
245,121,4928,1,0,0:0:0:0:
336,139,4929,1,0,0:0:0:0:
208,166,4930,1,0,0:0:0:0:
296,73,4931,1,0,0:0:0:0:
286,65,4932,1,0,0:0:0:0:
349,57,4933,1,0,0:0:0:0:
60,107,4934,1,0,0:0:0:0:
249,327,4935,1,0,0:0:0:0:
7,200,4936,1,0,0:0:0:0:
375,147,4937,1,0,0:0:0:0:
77,118,4938,1,0,0:0:0:0:
285,88,4940,1,0,0:0:0:0:
117,234,4941,1,0,0:0:0:0:
169,111,4942,1,0,0:0:0:0:
301,173,4944,1,0,0:0:0:0:
99,202,4945,1,0,0:0:0:0:
146,112,4946,1,0,0:0:0:0:
376,178,4948,1,0,0:0:0:0:
379,288,4949,1,0,0:0:0:0:
184,285,4950,1,0,0:0:0:0:
138,185,4952,1,0,0:0:0:0:
199,53,4954,5,0,0:0:0:0:
423,138,4956,1,0,0:0:0:0:
150,88,4958,1,0,0:0:0:0:
396,158,4960,1,0,0:0:0:0:
174,263,4961,1,0,0:0:0:0:
149,116,4962,1,0,0:0:0:0:
507,1,4965,1,0,0:0:0:0:
4,381,4966,1,0,0:0:0:0:
500,373,4968,1,0,0:0:0:0:
280,143,4969,1,0,0:0:0:0:
24,87,4970,1,0,0:0:0:0:
406,129,4972,1,0,0:0:0:0:
435,263,4973,1,0,0:0:0:0:
352,186,4974,1,0,0:0:0:0:
251,44,4989,1,0,0:0:0:0:
251,44,4990,1,0,0:0:0:0:
251,44,4991,1,0,0:0:0:0:
36,175,4992,1,0,0:0:0:0:
251,44,4993,1,0,0:0:0:0:
251,44,4994,1,0,0:0:0:0:
251,44,4995,1,0,0:0:0:0:
36,175,4996,1,0,0:0:0:0:
36,175,4997,1,0,0:0:0:0:
472,70,4998,1,0,0:0:0:0:
383,338,4999,1,0,0:0:0:0:
7,84,5000,1,0,0:0:0:0:
7,84,5001,1,0,0:0:0:0:
358,43,5002,1,0,0:0:0:0:
57,83,5003,1,0,0:0:0:0:
151,212,5004,6,0,B|462:32|48:367|48:367|113:71|113:71|484:303|484:303|-2:123|-2:123|334:29|334:29|170:332|170:332|31:246|31:246|362:197|362:196|205:58|141:367,1,3127.49991714955
451,182,5005,1,0,0:0:0:0:
40,360,5006,1,0,0:0:0:0:
281,52,5007,1,0,0:0:0:0:
107,47,5008,5,0,0:0:0:0:
107,47,5009,5,0,0:0:0:0:
256,365,5010,1,0,0:0:0:0:
459,140,5011,1,0,0:0:0:0:
118,127,5012,1,0,0:0:0:0:
118,127,5013,1,0,0:0:0:0:
32,292,5014,1,0,0:0:0:0:
364,113,5015,1,0,0:0:0:0:
145,101,5016,1,0,0:0:0:0:
145,101,5017,1,0,0:0:0:0:
223,245,5018,1,0,0:0:0:0:
366,102,5019,1,0,0:0:0:0:
208,166,5020,1,0,0:0:0:0:
208,166,5021,1,0,0:0:0:0:
208,166,5022,1,0,0:0:0:0:
349,57,5023,1,0,0:0:0:0:
349,57,5024,1,0,0:0:0:0:
349,57,5025,1,0,0:0:0:0:
60,107,5026,1,0,0:0:0:0:
192,71,5027,5,0,0:0:0:0:
61,209,5028,1,0,0:0:0:0:
341,245,5029,1,0,0:0:0:0:
77,118,5030,1,0,0:0:0:0:
184,66,5031,1,0,0:0:0:0:
367,54,5032,1,0,0:0:0:0:
117,234,5033,1,0,0:0:0:0:
169,111,5034,1,0,0:0:0:0:
371,226,5035,1,0,0:0:0:0:
258,121,5036,1,0,0:0:0:0:
182,268,5037,1,0,0:0:0:0:
146,112,5038,1,0,0:0:0:0:
376,178,5039,1,0,0:0:0:0:
376,178,5040,1,0,0:0:0:0:
365,202,5041,1,0,0:0:0:0:
184,285,5042,1,0,0:0:0:0:
478,302,5043,1,0,0:0:0:0:
431,184,5044,1,0,0:0:0:0:
286,268,5045,1,0,0:0:0:0:
199,53,5046,5,0,0:0:0:0:
389,303,5047,1,0,0:0:0:0:
402,192,5048,1,0,0:0:0:0:
388,182,5049,1,0,0:0:0:0:
150,88,5050,1,0,0:0:0:0:
336,196,5051,1,0,0:0:0:0:
321,181,5052,1,0,0:0:0:0:
149,31,5053,1,0,0:0:0:0:
149,116,5054,1,0,0:0:0:0:
200,134,5055,1,0,0:0:0:0:
251,224,5056,1,0,0:0:0:0:
175,273,5057,1,0,0:0:0:0:
4,381,5058,1,0,0:0:0:0:
108,250,5059,1,0,0:0:0:0:
236,56,5060,1,0,0:0:0:0:
414,88,5061,1,0,0:0:0:0:
24,87,5062,1,0,0:0:0:0:
406,129,5063,1,0,0:0:0:0:
146,162,5064,1,0,0:0:0:0:
136,64,5065,1,0,0:0:0:0:
352,186,5066,1,0,0:0:0:0:
86,171,5067,1,0,0:0:0:0:
329,233,5068,1,0,0:0:0:0:
330,177,5071,1,0,0:0:0:0:
151,212,5090,6,0,B|462:32|48:367|48:367|113:71|113:71|484:303|484:303|-2:123|-2:123|334:29|334:29|170:332|170:332|31:246|31:246|362:197|362:196|205:58|141:367,1,3127.49991714955
151,212,5091,6,0,B|462:32|48:367|48:367|113:71|113:71|484:303|484:303|-2:123|-2:123|334:29|334:29|170:332|170:332|31:246|31:246|362:197|362:196|205:58|141:367,1,3127.49991714955
151,212,5092,6,0,B|462:32|48:367|48:367|113:71|113:71|484:303|484:303|-2:123|-2:123|334:29|334:29|170:332|170:332|31:246|31:246|362:197|362:196|205:58|141:367,1,3127.49991714955
151,212,5094,6,0,B|462:32|48:367|48:367|113:71|113:71|484:303|484:303|-2:123|-2:123|334:29|334:29|170:332|170:332|31:246|31:246|362:197|362:196|205:58|141:367,1,3127.49991714955
151,212,5095,6,0,B|462:32|48:367|48:367|113:71|113:71|484:303|484:303|-2:123|-2:123|334:29|334:29|170:332|170:332|31:246|31:246|362:197|362:196|205:58|141:367,1,3127.49991714955
151,212,5096,6,0,B|462:32|48:367|48:367|113:71|113:71|484:303|484:303|-2:123|-2:123|334:29|334:29|170:332|170:332|31:246|31:246|362:197|362:196|205:58|141:367,1,3127.49991714955
192,71,5113,5,0,0:0:0:0:
192,71,5114,5,0,0:0:0:0:
192,71,5115,5,0,0:0:0:0:
61,209,5116,1,0,0:0:0:0:
192,71,5117,5,0,0:0:0:0:
192,71,5118,5,0,0:0:0:0:
192,71,5119,5,0,0:0:0:0:
61,209,5120,1,0,0:0:0:0:
341,245,5121,1,0,0:0:0:0:
184,66,5122,1,0,0:0:0:0:
184,66,5123,1,0,0:0:0:0:
367,54,5124,1,0,0:0:0:0:
371,226,5125,1,0,0:0:0:0:
371,226,5126,1,0,0:0:0:0:
371,226,5127,1,0,0:0:0:0:
258,121,5128,1,0,0:0:0:0:
182,268,5129,1,0,0:0:0:0:
478,302,5130,1,0,0:0:0:0:
365,202,5131,1,0,0:0:0:0:
365,202,5132,1,0,0:0:0:0:
365,202,5133,1,0,0:0:0:0:
478,302,5134,1,0,0:0:0:0:
478,302,5135,1,0,0:0:0:0:
431,184,5136,1,0,0:0:0:0:
286,268,5137,1,0,0:0:0:0:
389,303,5138,1,0,0:0:0:0:
389,303,5139,1,0,0:0:0:0:
402,192,5140,1,0,0:0:0:0:
388,182,5141,1,0,0:0:0:0:
336,196,5142,1,0,0:0:0:0:
336,196,5143,1,0,0:0:0:0:
321,181,5144,1,0,0:0:0:0:
149,31,5145,1,0,0:0:0:0:
200,134,5146,1,0,0:0:0:0:
200,134,5147,1,0,0:0:0:0:
251,224,5148,1,0,0:0:0:0:
175,273,5149,1,0,0:0:0:0:
108,250,5150,1,0,0:0:0:0:
108,250,5151,1,0,0:0:0:0:
236,56,5152,1,0,0:0:0:0:
414,88,5153,1,0,0:0:0:0:
146,162,5154,1,0,0:0:0:0:
146,162,5155,1,0,0:0:0:0:
146,162,5156,1,0,0:0:0:0:
136,64,5157,1,0,0:0:0:0:
86,171,5158,1,0,0:0:0:0:
86,171,5159,1,0,0:0:0:0:
329,233,5160,1,0,0:0:0:0:
330,177,5161,1,0,0:0:0:0:
330,177,5162,1,0,0:0:0:0:
330,177,5163,1,0,0:0:0:0:
0,0,5233,6,0,B|502:-7|502:-7|-4:220|-4:220|450:99|450:99|-5:346|144:44|144:44|474:312|28:113|420:199|198:305|198:305|260:43|114:315,1,2699.99992847443
184,138,5236,1,0,0:0:0:0:
369,221,5238,1,0,0:0:0:0:
5,318,5239,1,0,0:0:0:0:
125,191,5240,1,0,0:0:0:0:
257,174,5242,1,0,0:0:0:0:
419,212,5243,1,0,0:0:0:0:
194,282,5244,1,0,0:0:0:0:
151,159,5246,1,0,0:0:0:0:
245,121,5248,1,0,0:0:0:0:
336,139,5250,1,0,0:0:0:0:
296,73,5251,1,0,0:0:0:0:
286,65,5252,1,0,0:0:0:0:
133,149,5254,1,0,0:0:0:0:
7,200,5256,1,0,0:0:0:0:
251,44,5315,1,0,0:0:0:0:
36,175,5317,1,0,0:0:0:0:
472,70,5318,1,0,0:0:0:0:
383,338,5319,1,0,0:0:0:0:
7,84,5321,1,0,0:0:0:0:
358,43,5322,1,0,0:0:0:0:
57,83,5323,1,0,0:0:0:0:
451,182,5325,1,0,0:0:0:0:
40,360,5326,1,0,0:0:0:0:
281,52,5327,1,0,0:0:0:0:
107,47,5329,5,0,0:0:0:0:
256,365,5330,1,0,0:0:0:0:
459,140,5331,1,0,0:0:0:0:
118,127,5333,1,0,0:0:0:0:
32,292,5334,1,0,0:0:0:0:
364,113,5335,1,0,0:0:0:0:
145,101,5337,1,0,0:0:0:0:
223,245,5338,1,0,0:0:0:0:
366,102,5339,1,0,0:0:0:0:
208,166,5342,1,0,0:0:0:0:
349,57,5345,1,0,0:0:0:0:
60,107,5346,1,0,0:0:0:0:
249,327,5347,1,0,0:0:0:0:
375,147,5349,1,0,0:0:0:0:
77,118,5350,1,0,0:0:0:0:
285,88,5352,1,0,0:0:0:0:
117,234,5353,1,0,0:0:0:0:
169,111,5354,1,0,0:0:0:0:
301,173,5356,1,0,0:0:0:0:
99,202,5357,1,0,0:0:0:0:
146,112,5358,1,0,0:0:0:0:
376,178,5360,1,0,0:0:0:0:
379,288,5361,1,0,0:0:0:0:
184,285,5362,1,0,0:0:0:0:
138,185,5364,1,0,0:0:0:0:
199,53,5366,5,0,0:0:0:0:
423,138,5368,1,0,0:0:0:0:
150,88,5370,1,0,0:0:0:0:
396,158,5372,1,0,0:0:0:0:
174,263,5373,1,0,0:0:0:0:
149,116,5374,1,0,0:0:0:0:
507,1,5377,1,0,0:0:0:0:
4,381,5378,1,0,0:0:0:0:
500,373,5380,1,0,0:0:0:0:
280,143,5381,1,0,0:0:0:0:
24,87,5382,1,0,0:0:0:0:
406,129,5384,1,0,0:0:0:0:
435,263,5385,1,0,0:0:0:0:
352,186,5386,1,0,0:0:0:0:
151,212,5416,6,0,B|462:32|48:367|48:367|113:71|113:71|484:303|484:303|-2:123|-2:123|334:29|334:29|170:332|170:332|31:246|31:246|362:197|362:196|205:58|141:367,1,3127.49991714955
192,71,5439,5,0,0:0:0:0:
61,209,5440,1,0,0:0:0:0:
341,245,5441,1,0,0:0:0:0:
184,66,5443,1,0,0:0:0:0:
367,54,5444,1,0,0:0:0:0:
371,226,5447,1,0,0:0:0:0:
258,121,5448,1,0,0:0:0:0:
182,268,5449,1,0,0:0:0:0:
365,202,5453,1,0,0:0:0:0:
478,302,5455,1,0,0:0:0:0:
431,184,5456,1,0,0:0:0:0:
286,268,5457,1,0,0:0:0:0:
389,303,5459,1,0,0:0:0:0:
402,192,5460,1,0,0:0:0:0:
388,182,5461,1,0,0:0:0:0:
336,196,5463,1,0,0:0:0:0:
321,181,5464,1,0,0:0:0:0:
149,31,5465,1,0,0:0:0:0:
200,134,5467,1,0,0:0:0:0:
251,224,5468,1,0,0:0:0:0:
175,273,5469,1,0,0:0:0:0:
108,250,5471,1,0,0:0:0:0:
236,56,5472,1,0,0:0:0:0:
414,88,5473,1,0,0:0:0:0:
146,162,5476,1,0,0:0:0:0:
136,64,5477,1,0,0:0:0:0:
86,171,5479,1,0,0:0:0:0:
329,233,5480,1,0,0:0:0:0:
330,177,5483,1,0,0:0:0:0:
0,0,5797,6,0,B|502:-7|502:-7|-4:220|-4:220|450:99|450:99|-5:346|144:44|144:44|474:312|28:113|420:199|198:305|198:305|260:43|114:315,1,2699.99992847443
0,0,5798,6,0,B|502:-7|502:-7|-4:220|-4:220|450:99|450:99|-5:346|144:44|144:44|474:312|28:113|420:199|198:305|198:305|260:43|114:315,1,2699.99992847443
0,0,5799,6,0,B|502:-7|502:-7|-4:220|-4:220|450:99|450:99|-5:346|144:44|144:44|474:312|28:113|420:199|198:305|198:305|260:43|114:315,1,2699.99992847443
184,138,5800,1,0,0:0:0:0:
0,0,5801,6,0,B|502:-7|502:-7|-4:220|-4:220|450:99|450:99|-5:346|144:44|144:44|474:312|28:113|420:199|198:305|198:305|260:43|114:315,1,2699.99992847443
0,0,5802,6,0,B|502:-7|502:-7|-4:220|-4:220|450:99|450:99|-5:346|144:44|144:44|474:312|28:113|420:199|198:305|198:305|260:43|114:315,1,2699.99992847443
0,0,5803,6,0,B|502:-7|502:-7|-4:220|-4:220|450:99|450:99|-5:346|144:44|144:44|474:312|28:113|420:199|198:305|198:305|260:43|114:315,1,2699.99992847443
184,138,5804,1,0,0:0:0:0:
184,138,5805,1,0,0:0:0:0:
184,138,5806,1,0,0:0:0:0:
369,221,5807,1,0,0:0:0:0:
369,221,5808,1,0,0:0:0:0:
5,318,5809,1,0,0:0:0:0:
125,191,5810,1,0,0:0:0:0:
257,174,5811,1,0,0:0:0:0:
257,174,5812,1,0,0:0:0:0:
419,212,5813,1,0,0:0:0:0:
194,282,5814,1,0,0:0:0:0:
151,159,5815,1,0,0:0:0:0:
151,159,5816,1,0,0:0:0:0:
245,121,5817,1,0,0:0:0:0:
245,121,5818,1,0,0:0:0:0:
336,139,5819,1,0,0:0:0:0:
336,139,5820,1,0,0:0:0:0:
296,73,5821,1,0,0:0:0:0:
286,65,5822,1,0,0:0:0:0:
133,149,5823,1,0,0:0:0:0:
133,149,5824,1,0,0:0:0:0:
7,200,5825,1,0,0:0:0:0:
7,200,5826,1,0,0:0:0:0:
251,44,5879,1,0,0:0:0:0:
251,44,5880,1,0,0:0:0:0:
251,44,5881,1,0,0:0:0:0:
36,175,5882,1,0,0:0:0:0:
251,44,5883,1,0,0:0:0:0:
251,44,5884,1,0,0:0:0:0:
251,44,5885,1,0,0:0:0:0:
36,175,5886,1,0,0:0:0:0:
36,175,5887,1,0,0:0:0:0:
472,70,5888,1,0,0:0:0:0:
383,338,5889,1,0,0:0:0:0:
7,84,5890,1,0,0:0:0:0:
7,84,5891,1,0,0:0:0:0:
358,43,5892,1,0,0:0:0:0:
57,83,5893,1,0,0:0:0:0:
451,182,5894,1,0,0:0:0:0:
451,182,5895,1,0,0:0:0:0:
40,360,5896,1,0,0:0:0:0:
281,52,5897,1,0,0:0:0:0:
107,47,5898,5,0,0:0:0:0:
107,47,5899,5,0,0:0:0:0:
256,365,5900,1,0,0:0:0:0:
459,140,5901,1,0,0:0:0:0:
118,127,5902,1,0,0:0:0:0:
118,127,5903,1,0,0:0:0:0:
32,292,5904,1,0,0:0:0:0:
364,113,5905,1,0,0:0:0:0:
145,101,5906,1,0,0:0:0:0:
145,101,5907,1,0,0:0:0:0:
223,245,5908,1,0,0:0:0:0:
366,102,5909,1,0,0:0:0:0:
208,166,5910,1,0,0:0:0:0:
208,166,5911,1,0,0:0:0:0:
208,166,5912,1,0,0:0:0:0:
349,57,5913,1,0,0:0:0:0:
349,57,5914,1,0,0:0:0:0:
349,57,5915,1,0,0:0:0:0:
60,107,5916,1,0,0:0:0:0:
249,327,5917,1,0,0:0:0:0:
375,147,5918,1,0,0:0:0:0:
375,147,5919,1,0,0:0:0:0:
77,118,5920,1,0,0:0:0:0:
285,88,5921,1,0,0:0:0:0:
285,88,5922,1,0,0:0:0:0:
117,234,5923,1,0,0:0:0:0:
169,111,5924,1,0,0:0:0:0:
301,173,5925,1,0,0:0:0:0:
301,173,5926,1,0,0:0:0:0:
99,202,5927,1,0,0:0:0:0:
146,112,5928,1,0,0:0:0:0:
376,178,5929,1,0,0:0:0:0:
376,178,5930,1,0,0:0:0:0:
379,288,5931,1,0,0:0:0:0:
184,285,5932,1,0,0:0:0:0:
138,185,5933,1,0,0:0:0:0:
138,185,5934,1,0,0:0:0:0:
199,53,5935,5,0,0:0:0:0:
199,53,5936,5,0,0:0:0:0:
423,138,5937,1,0,0:0:0:0:
423,138,5938,1,0,0:0:0:0:
150,88,5939,1,0,0:0:0:0:
150,88,5940,1,0,0:0:0:0:
396,158,5941,1,0,0:0:0:0:
396,158,5942,1,0,0:0:0:0:
174,263,5943,1,0,0:0:0:0:
149,116,5944,1,0,0:0:0:0:
507,1,5945,1,0,0:0:0:0:
507,1,5946,1,0,0:0:0:0:
507,1,5947,1,0,0:0:0:0:
4,381,5948,1,0,0:0:0:0:
500,373,5949,1,0,0:0:0:0:
500,373,5950,1,0,0:0:0:0:
280,143,5951,1,0,0:0:0:0:
24,87,5952,1,0,0:0:0:0:
406,129,5953,1,0,0:0:0:0:
406,129,5954,1,0,0:0:0:0:
435,263,5955,1,0,0:0:0:0:
352,186,5956,1,0,0:0:0:0:
151,212,5980,6,0,B|462:32|48:367|48:367|113:71|113:71|484:303|484:303|-2:123|-2:123|334:29|334:29|170:332|170:332|31:246|31:246|362:197|362:196|205:58|141:367,1,3127.49991714955
151,212,5981,6,0,B|462:32|48:367|48:367|113:71|113:71|484:303|484:303|-2:123|-2:123|334:29|334:29|170:332|170:332|31:246|31:246|362:197|362:196|205:58|141:367,1,3127.49991714955
151,212,5982,6,0,B|462:32|48:367|48:367|113:71|113:71|484:303|484:303|-2:123|-2:123|334:29|334:29|170:332|170:332|31:246|31:246|362:197|362:196|205:58|141:367,1,3127.49991714955
151,212,5984,6,0,B|462:32|48:367|48:367|113:71|113:71|484:303|484:303|-2:123|-2:123|334:29|334:29|170:332|170:332|31:246|31:246|362:197|362:196|205:58|141:367,1,3127.49991714955
151,212,5985,6,0,B|462:32|48:367|48:367|113:71|113:71|484:303|484:303|-2:123|-2:123|334:29|334:29|170:332|170:332|31:246|31:246|362:197|362:196|205:58|141:367,1,3127.49991714955
151,212,5986,6,0,B|462:32|48:367|48:367|113:71|113:71|484:303|484:303|-2:123|-2:123|334:29|334:29|170:332|170:332|31:246|31:246|362:197|362:196|205:58|141:367,1,3127.49991714955
192,71,6003,5,0,0:0:0:0:
192,71,6004,5,0,0:0:0:0:
192,71,6005,5,0,0:0:0:0:
61,209,6006,1,0,0:0:0:0:
192,71,6007,5,0,0:0:0:0:
192,71,6008,5,0,0:0:0:0:
192,71,6009,5,0,0:0:0:0:
61,209,6010,1,0,0:0:0:0:
341,245,6011,1,0,0:0:0:0:
184,66,6012,1,0,0:0:0:0:
184,66,6013,1,0,0:0:0:0:
367,54,6014,1,0,0:0:0:0:
371,226,6015,1,0,0:0:0:0:
371,226,6016,1,0,0:0:0:0:
371,226,6017,1,0,0:0:0:0:
258,121,6018,1,0,0:0:0:0:
182,268,6019,1,0,0:0:0:0:
478,302,6020,1,0,0:0:0:0:
365,202,6021,1,0,0:0:0:0:
365,202,6022,1,0,0:0:0:0:
365,202,6023,1,0,0:0:0:0:
478,302,6024,1,0,0:0:0:0:
478,302,6025,1,0,0:0:0:0:
431,184,6026,1,0,0:0:0:0:
286,268,6027,1,0,0:0:0:0:
389,303,6028,1,0,0:0:0:0:
389,303,6029,1,0,0:0:0:0:
402,192,6030,1,0,0:0:0:0:
388,182,6031,1,0,0:0:0:0:
336,196,6032,1,0,0:0:0:0:
336,196,6033,1,0,0:0:0:0:
321,181,6034,1,0,0:0:0:0:
149,31,6035,1,0,0:0:0:0:
200,134,6036,1,0,0:0:0:0:
200,134,6037,1,0,0:0:0:0:
251,224,6038,1,0,0:0:0:0:
175,273,6039,1,0,0:0:0:0:
108,250,6040,1,0,0:0:0:0:
108,250,6041,1,0,0:0:0:0:
236,56,6042,1,0,0:0:0:0:
414,88,6043,1,0,0:0:0:0:
146,162,6044,1,0,0:0:0:0:
146,162,6045,1,0,0:0:0:0:
146,162,6046,1,0,0:0:0:0:
136,64,6047,1,0,0:0:0:0:
86,171,6048,1,0,0:0:0:0:
86,171,6049,1,0,0:0:0:0:
329,233,6050,1,0,0:0:0:0:
330,177,6051,1,0,0:0:0:0:
330,177,6052,1,0,0:0:0:0:
330,177,6053,1,0,0:0:0:0:
