osu file format v14

[General]
AudioFilename: audio.mp3
AudioLeadIn: 0
PreviewTime: 203344
Countdown: 0
SampleSet: Soft
StackLeniency: 0.3
Mode: 0
LetterboxInBreaks: 0
WidescreenStoryboard: 0

[Editor]
Bookmarks: 94553,95871,126366,127685,159333,160652,164608,165761,201531,202849,204003,225267,226586,231860,238289,239772,242245,247685,250157,259882,260707,270102,271421,281970,283124,292355,324168,326805,330761,331915,342630,347904
DistanceSpacing: 0.7
BeatDivisor: 4
GridSize: 8
TimelineZoom: 0.9999999

[Metadata]
Title:Ideal -tRuE blooD-
TitleUnicode:Ideal -tRuE blooD-
Artist:Nelga
ArtistUnicode:Nelga
Creator:Fushimi Rio
Version:tRuE exTrA
Source:快盗天使ツインエンジェル
Tags:ave;new feat. 佐倉紗織 syameimaru-aya pop japanese j-pop Enlever アンルヴェ ave;new feat. sakura saori 佐倉紗織 avenew a.k.a.dress aka 放送紳士ツインマスクr
BeatmapID:941114
BeatmapSetID:437014

[Difficulty]
HPDrainRate:9
CircleSize:4
OverallDifficulty:9.1
ApproachRate:9.4
SliderMultiplier:2
SliderTickRate:1

[Events]
//Background and Video events
0,0,"bg.jpg",0,0
//Break Periods
2,226786,231306
2,236016,236911
2,283324,287859
//Storyboard Layer 0 (Background)
//Storyboard Layer 1 (Fail)
//Storyboard Layer 2 (Pass)
//Storyboard Layer 3 (Foreground)
//Storyboard Layer 4 (Overlay)
//Storyboard Sound Samples

[TimingPoints]
36696,659.340659340659,4,2,1,80,1,0
38509,-100,4,2,1,10,0,0
38674,-100,4,2,1,80,0,0
61585,-100,4,2,1,10,0,0
61751,329.67032967033,4,2,1,80,1,0
106421,-133.333333333333,4,2,1,100,0,0
106586,-133.333333333333,4,2,1,80,0,0
138234,-100,4,2,1,80,0,0
138564,-66.6666666666667,4,2,1,80,0,0
139388,-100,4,2,1,80,0,1
139882,-66.6666666666667,4,2,1,80,0,1
140212,-100,4,2,1,80,0,1
141201,-66.6666666666667,4,2,1,80,0,1
144992,-100,4,2,1,80,0,1
145981,-66.6666666666667,4,2,1,80,0,1
146641,-100,4,2,1,80,0,1
147300,-83.3333333333333,4,2,1,80,0,1
147794,-66.6666666666667,4,2,1,80,0,1
149937,-100,4,2,1,80,0,1
150432,-66.6666666666667,4,2,1,80,0,1
151256,-100,4,2,1,80,0,1
151751,-66.6666666666667,4,2,1,80,0,1
153893,-100,4,2,1,80,0,1
159333,-66.6666666666667,4,2,1,80,0,1
160652,-66.6666666666667,4,2,1,80,0,0
171036,-133.333333333333,4,2,1,80,0,0
201531,-133.333333333333,4,2,1,60,0,0
202190,-133.333333333333,4,2,1,80,0,0
202849,-100,4,2,1,80,0,0
203179,-66.6666666666667,4,2,1,80,0,0
204003,-100,4,2,1,80,0,1
204498,-66.6666666666667,4,2,1,80,0,1
205322,-100,4,2,1,80,0,1
205816,-66.6666666666667,4,2,1,80,0,1
206558,-100,4,2,1,80,0,1
210597,-66.6666666666667,4,2,1,80,0,1
211256,-100,4,2,1,80,0,1
211915,-83.3333333333333,4,2,1,80,0,1
212410,-66.6666666666667,4,2,1,80,0,1
214388,-100,4,2,1,80,0,1
214553,-66.6666666666667,4,2,1,80,0,1
215048,-66.6666666666667,4,2,1,80,0,1
216366,-66.6666666666667,4,2,1,80,0,1
218509,-100,4,2,1,80,0,1
226586,-200,4,2,1,80,0,0
237465,-66.6666666666667,4,2,1,80,0,0
237877,-100,4,2,1,80,0,0
239608,-71.4285714285714,4,2,1,80,0,0
239772,-66.6666666666667,4,2,1,80,0,0
252794,-100,4,2,1,80,0,0
255432,-66.6666666666667,4,2,1,80,0,0
259882,-66.6666666666667,4,2,1,80,0,0
260707,-133.333333333333,4,2,1,80,0,0
270102,-133.333333333333,4,2,1,80,0,0
271421,-100,4,2,1,80,0,0
282630,-200,4,2,1,60,0,0
303069,-66.6666666666667,4,2,1,80,0,0
304223,-100,4,2,1,80,0,1
304718,-66.6666666666667,4,2,1,80,0,1
305542,-100,4,2,1,80,0,1
306036,-66.6666666666667,4,2,1,80,0,1
309498,-100,4,2,1,80,0,1
309992,-66.6666666666667,4,2,1,80,0,1
312135,-83.3333333333333,4,2,1,80,0,1
312630,-66.6666666666667,4,2,1,80,0,1
314772,-100,4,2,1,80,0,1
315267,-66.6666666666667,4,2,1,80,0,1
316091,-100,4,2,1,80,0,1
316586,-66.6666666666667,4,2,1,80,0,1
320047,-100,4,2,1,80,0,1
324168,-66.6666666666667,4,2,1,80,0,1
326805,-100,4,2,1,80,0,0
330597,-66.6666666666667,4,2,1,80,0,0
331915,-100,4,2,1,80,0,0
341311,-83.3333333333333,4,2,1,80,0,0
341641,-100,4,2,1,80,0,0
345102,-100,4,2,1,100,0,0
348069,-100,4,2,1,80,0,0

[Colours]
Combo1 : 255,233,128
Combo2 : 255,128,255
Combo3 : 255,128,128

[HitObjects]
256,192,36036,12,0,38509,0:0:0:0:
48,344,38674,6,0,P|96:304|112:268,1,100
112,192,39333,6,0,B|108:164|88:136|88:136|64:212|104:304|188:324,1,300,8|0,0:3|0:0,0:0:0:0:
192,208,40652,2,0,P|236:172|240:264,1,200,0|2,0:0|0:0,0:0:0:0:
168,116,41641,1,0,0:0:0:0:
428,164,41971,6,0,B|480:132|480:132|244:96,1,300,8|0,0:3|0:0,0:0:0:0:
352,208,43290,1,2,0:0:0:0:
394,58,43619,1,0,0:0:0:0:
243,95,43949,1,0,0:0:0:0:
352,208,44279,1,0,0:0:0:0:
212,120,44608,6,0,B|102:73|-22:96|-22:96|24:135,1,300,8|0,0:3|0:0,0:0:0:0:
121,274,45927,2,0,B|126:295|110:321|110:321|74:242|100:176,1,200,0|2,0:0|0:0,0:0:0:0:
172,36,46916,1,0,0:0:0:0:
216,248,47246,6,0,B|245:313|326:343|326:343|319:313|300:302,1,200
295,207,48235,1,0,0:0:0:0:
368,105,48564,1,0,0:0:0:0:
295,4,48894,1,0,0:0:0:0:
176,43,49224,1,2,0:0:0:0:
176,168,49553,1,0,0:0:0:0:
176,168,49883,6,0,B|111:139|81:58|81:58|111:65|122:84,1,200,8|0,0:3|0:0,0:0:0:0:
116,228,50872,1,0,0:0:0:0:
200,88,51202,2,0,B|268:36|360:56|360:56|308:84,1,200,0|2,0:0|0:0,0:0:0:0:
192,0,52191,1,0,0:0:0:0:
288,140,52520,6,0,P|344:188|468:208,1,200,0|2,0:0|0:0,0:0:0:0:
416,340,53509,1,0,0:0:0:0:
416,340,53839,2,0,P|360:292|236:272,1,200,0|2,0:0|0:0,0:0:0:0:
288,140,54828,1,0,0:0:0:0:
238,271,55158,6,0,B|196:334|102:342|102:342|132:292,1,200,8|0,0:3|0:0,0:0:0:0:
180,192,56147,1,0,0:0:0:0:
180,192,56476,2,0,B|222:129|316:121|316:121|286:171,1,200
238,271,57465,1,0,0:0:0:0:
336,312,57795,6,0,P|400:328|512:264,1,200,2|0,0:0|0:0,0:0:0:0:
248,112,59114,6,0,P|184:96|72:160,1,200
256,200,60432,6,0,B|316:197|396:136|376:52|376:52|320:120|352:176,1,350
392,236,61751,5,4,0:3:0:0:
264,120,61998,1,0,0:0:0:0:
264,120,62081,1,0,1:0:0:0:
428,67,62246,5,0,0:3:0:0:
168,40,62410,1,4,0:3:0:0:
376,124,62575,5,0,0:3:0:0:
164,192,62740,1,0,1:0:0:0:
283,48,62905,6,0,P|260:142|312:220,1,150,4|0,0:0|0:0,0:0:0:0:
292,204,63235,1,0,0:0:0:0:
168,84,63399,2,0,P|107:100|77:128,1,100,0|0,1:0|0:0,0:0:0:0:
44,268,63729,1,0,0:0:0:0:
171,87,63894,1,0,0:0:0:0:
204,344,64059,1,0,1:0:0:0:
324,208,64224,6,0,P|418:184|495:236,1,150,4|0,0:0|0:0,0:0:0:0:
479,216,64553,1,0,0:0:0:0:
359,92,64718,2,0,P|375:31|403:1,1,100,0|0,1:0|0:0,0:0:0:0:
396,304,65048,1,0,0:0:0:0:
468,92,65213,1,0,0:0:0:0:
324,208,65377,1,0,1:0:0:0:
180,68,65542,6,0,B|124:32|58:54|58:54|99:70,1,150,4|0,0:0|0:0,0:0:0:0:
180,68,65872,1,0,0:0:0:0:
84,176,66037,1,0,1:0:0:0:
79,63,66202,5,0,0:0:0:0:
188,208,66366,1,0,0:0:0:0:
184,72,66531,5,0,0:0:0:0:
72,256,66696,1,0,1:0:0:0:
304,124,66861,6,0,B|340:68|316:4|316:4|302:43,1,150,8|0,0:3|0:0,0:0:0:0:
304,124,67191,1,0,0:0:0:0:
228,0,67355,1,0,1:0:0:0:
384,148,67520,2,0,P|340:196|300:208,1,100
307,27,67850,5,0,0:0:0:0:
212,240,68014,1,0,1:0:0:0:
392,56,68180,6,0,P|460:100|452:208,1,200,4|0,0:0|0:0,0:0:0:0:
244,36,68674,2,0,P|192:44|152:76,1,100,0|0,1:0|0:0,0:0:0:0:
280,256,69004,1,0,0:0:0:0:
308,96,69169,5,0,0:0:0:0:
272,296,69333,1,0,1:0:0:0:
155,72,69498,2,0,P|112:40|61:35,1,100,4|0,1:2|0:0,0:0:0:0:
128,288,69828,5,0,0:0:0:0:
164,88,69993,1,0,1:0:0:0:
279,309,70158,2,0,P|319:339|368:347,1,100,4|0,1:2|0:0,0:0:0:0:
388,116,70487,2,0,P|335:110|288:130,1,100,0|0,1:0|0:0,0:0:0:0:
443,289,70816,6,0,P|449:240|432:194,1,100,0|0,1:0|0:0,0:0:0:0:
212,340,71147,1,0,0:0:0:0:
279,157,71311,2,0,P|270:205|241:245,1,100,0|0,1:0|0:0,0:0:0:0:
192,112,71641,5,0,0:0:0:0:
356,252,71806,1,0,0:3:0:0:
396,40,71971,1,0,1:0:0:0:
116,344,72136,5,4,0:0:0:0:
396,40,72465,5,2,0:0:0:0:
116,343,72795,5,2,0:0:0:0:
396,40,72960,1,0,1:3:0:0:
356,252,73124,1,4,0:3:0:0:
192,112,73290,1,0,0:0:0:0:
432,192,73454,6,0,P|449:239|412:335,1,150,4|0,0:2|0:0,0:0:0:0:
356,376,73784,1,0,0:0:0:0:
420,97,73949,2,0,P|414:146|432:193,1,100,0|0,1:0|0:0,0:0:0:0:
472,28,74279,1,0,0:0:0:0:
316,172,74443,1,0,0:0:0:0:
472,28,74608,1,0,1:0:0:0:
376,261,74773,6,0,P|329:278|233:241,1,150,4|0,0:0|0:0,0:0:0:0:
196,184,75103,1,0,0:0:0:0:
387,357,75268,2,0,P|392:308|376:262,1,100,0|0,1:0|0:0,0:0:0:0:
236,0,75597,1,0,0:0:0:0:
316,184,75762,1,0,0:0:0:0:
236,0,75927,1,0,1:0:0:0:
428,156,76092,6,0,B|464:212|442:278|442:278|425:237,1,150,4|0,0:0|0:0,0:0:0:0:
428,156,76421,1,0,0:0:0:0:
384,332,76586,1,0,1:0:0:0:
428,156,76751,5,0,0:0:0:0:
288,299,76916,1,0,0:0:0:0:
428,156,77081,5,0,0:0:0:0:
218,214,77246,1,0,1:0:0:0:
432,160,77410,6,0,B|472:116|460:52|460:52|448:84,1,150,4|0,0:0|0:0,0:0:0:0:
432,160,77740,1,0,0:0:0:0:
321,43,77905,1,0,1:3:0:0:
233,210,78070,6,0,B|177:174|111:196|111:196|152:212,1,150,4|0,1:0|0:0,0:0:0:0:
233,210,78399,1,0,1:0:0:0:
283,50,78564,1,0,0:0:0:0:
238,214,78729,6,0,P|292:172|420:184,1,200,4|0,0:0|0:0,0:0:0:0:
220,320,79224,2,0,B|175:259|64:272|64:272|103:287,1,200,0|0,1:0|0:0,0:0:0:0:
224,324,79718,1,0,0:0:0:0:
417,182,79883,1,0,1:0:0:0:
348,304,80048,1,0,0:0:0:0:
176,180,80213,6,0,P|156:88|224:12,1,200,8|0,0:3|1:0,0:0:0:0:
308,282,80707,2,0,P|327:188|264:116,1,200
376,344,81202,1,0,1:0:0:0:
235,212,81366,6,0,B|207:185|207:185|303:204|355:136,1,200,4|0,0:0|0:0,0:0:0:0:
283,0,81861,2,0,P|270:93|353:139,1,200,0|0,1:0|0:0,0:0:0:0:
472,108,82355,1,0,0:0:0:0:
235,141,82520,1,0,1:0:0:0:
344,56,82685,1,0,0:0:0:0:
253,277,82850,5,4,0:0:0:0:
344,56,83015,1,0,0:0:0:0:
253,277,83344,5,4,0:3:0:0:
344,56,83509,2,0,B|312:31|312:31|264:98|287:182,1,200,4|0,1:0|0:0,0:0:0:0:
382,330,84003,1,4,0:0:0:0:
401,134,84168,5,2,0:0:0:0:
376,191,84278,1,2,0:0:0:0:
438,182,84388,1,2,0:0:0:0:
354,128,84498,5,0,0:0:0:0:
347,190,84608,1,2,0:0:0:0:
405,167,84718,1,2,0:0:0:0:
306,133,84827,5,0,0:0:0:0:
315,195,84937,1,2,0:0:0:0:
365,156,85047,1,2,0:0:0:0:
264,152,85157,5,2,0:0:0:0:
289,210,85267,1,0,0:0:0:0:
328,160,85377,1,0,0:0:0:0:
264,152,85487,5,4,1:2:0:0:
332,0,85652,1,0,0:0:0:0:
253,171,85816,5,4,0:3:0:0:
398,63,85982,1,0,0:0:0:0:
222,178,86147,5,0,1:0:0:0:
418,155,86312,1,0,0:0:0:0:
212,168,86476,5,0,0:0:0:0:
363,234,86641,1,4,3:0:0:0:
195,150,86806,5,4,3:3:0:0:
282,269,86971,1,0,0:0:0:0:
190,118,87136,5,0,0:3:0:0:
204,249,87301,1,4,3:0:0:0:
208,72,87465,5,0,1:0:0:0:
148,207,87630,1,4,0:0:0:0:
258,44,87795,5,4,0:3:0:0:
125,141,87960,2,0,L|9:226,1,100,4|0,1:2|2:0,2:0:0:0:
152,24,88290,1,0,0:0:0:0:
176,212,88454,5,4,3:3:0:0:
100,90,88619,1,0,0:0:0:0:
202,225,88784,5,0,1:0:0:0:
94,169,88949,1,0,0:0:0:0:
233,227,89114,5,0,0:0:0:0:
135,229,89279,1,4,1:2:0:0:
266,212,89443,5,0,1:3:0:0:
172,264,89608,1,0,3:3:0:0:
307,160,89773,5,0,0:0:0:0:
232,278,89938,1,4,3:3:0:0:
312,85,90103,5,4,0:0:0:0:
290,263,90268,1,4,0:3:0:0:
258,18,90432,5,0,1:0:0:0:
340,218,90597,2,0,L|392:344,1,100,4|0,1:2|0:0,0:0:0:0:
224,112,90927,1,0,0:0:0:0:
456,92,91092,5,4,3:0:0:0:
276,100,91257,1,0,0:0:0:0:
465,188,91421,5,0,1:0:0:0:
287,107,91586,1,0,0:0:0:0:
393,259,91751,5,0,0:0:0:0:
285,86,91915,1,4,3:3:0:0:
299,248,92080,5,0,0:3:0:0:
332,32,92246,1,4,3:0:0:0:
253,200,92410,5,0,0:0:0:0:
332,40,92575,1,0,0:0:0:0:
160,159,92740,5,0,1:0:0:0:
332,132,92905,1,4,0:0:0:0:
100,152,93070,5,0,0:0:0:0:
360,236,93235,2,0,L|492:278,1,100,4|0,1:2|0:0,0:0:0:0:
160,260,93564,1,0,0:0:0:0:
384,144,93729,5,4,3:0:0:0:
172,248,93894,1,0,0:0:0:0:
373,257,94059,5,0,1:0:0:0:
156,180,94224,1,0,0:0:0:0:
304,275,94388,5,4,3:0:0:0:
184,88,94553,1,4,1:3:0:0:
276,267,94718,5,0,3:3:0:0:
252,247,94801,1,0,3:0:0:0:
240,218,94883,1,0,3:0:0:0:
244,187,94965,1,0,3:0:0:0:
261,162,95048,1,4,1:3:0:0:
289,148,95130,1,0,3:0:0:0:
320,150,95213,1,0,3:0:0:0:
347,165,95295,1,0,3:0:0:0:
362,192,95377,5,4,1:3:0:0:
394,217,95460,1,0,0:0:0:0:
435,215,95542,1,0,1:0:0:0:
463,185,95625,1,0,1:0:0:0:
466,145,95707,1,0,1:0:0:0:
440,113,95790,1,0,1:0:0:0:
399,104,95872,6,0,P|359:192|439:212,1,200,4|0,1:2|0:0,0:0:0:0:
503,34,96366,2,0,L|480:132,1,100,0|0,1:0|0:0,0:0:0:0:
304,8,96696,2,0,L|344:124,1,100
396,280,97025,1,0,1:0:0:0:
192,184,97191,6,0,P|126:203|87:254,1,100
264,128,97520,2,0,P|204:96|140:104,1,100,0|0,0:0|1:0,0:0:0:0:
184,276,97850,2,0,P|244:308|308:300,1,100
472,236,98180,1,0,1:0:0:0:
274,308,98344,1,0,0:0:0:0:
310,102,98509,6,0,P|406:89|477:154,1,200,4|0,0:0|0:0,0:0:0:0:
398,300,99004,2,0,L|372:204,1,100,0|0,1:0|0:0,0:0:0:0:
256,384,99333,2,0,L|305:296,1,100
95,342,99663,2,0,L|191:315,1,100,0|0,1:0|0:0,0:0:0:0:
62,267,99992,6,0,P|76:173|165:149,1,150,8|0,0:3|0:0,0:0:0:0:
150,138,100322,2,0,P|89:110|68:84,1,100,0|0,1:0|0:0,0:0:0:0:
31,254,100652,1,0,0:0:0:0:
179,116,100817,1,4,0:0:0:0:
57,57,100982,1,0,0:0:0:0:
124,220,101147,6,0,P|198:230|291:157,1,200,4|0,1:2|0:0,0:0:0:0:
224,264,101641,2,0,P|227:317|251:359,1,100,0|0,1:0|0:0,0:0:0:0:
181,117,101971,2,0,P|133:93|85:93,1,100
124,220,102301,1,0,1:0:0:0:
300,109,102465,6,0,B|340:88|400:96|400:96|372:144|332:164,1,200
192,120,102960,1,0,1:0:0:0:
385,222,103125,1,0,0:0:0:0:
300,109,103290,1,0,1:0:0:0:
241,244,103454,1,4,0:0:0:0:
294,26,103619,1,0,1:0:0:0:
310,295,103784,6,0,P|370:323|478:259,1,200,4|0,0:0|0:0,0:0:0:0:
349,75,104279,1,0,1:0:0:0:
385,222,104443,1,0,0:3:0:0:
452,72,104608,1,0,0:0:0:0:
283,224,104773,1,0,0:0:0:0:
56,48,104938,1,0,1:0:0:0:
160,276,105103,6,0,B|168:316|160:348|160:348|96:308|92:244,1,200,8|0,0:3|0:0,0:0:0:0:
92,120,105597,1,0,1:0:0:0:
244,256,105762,1,0,0:0:0:0:
448,98,105927,1,4,1:0:0:0:
344,292,106092,1,4,0:0:0:0:
180,100,106256,1,0,1:0:0:0:
488,24,106421,5,4,0:2:0:0:
344,292,106916,5,0,1:0:0:0:
312,128,107410,5,0,0:0:0:0:
312,128,107575,2,0,P|344:148|404:152,1,75.0000028610231,0|0,1:0|0:0,0:0:0:0:
464,148,107905,1,0,0:0:0:0:
256,192,108070,2,0,P|222:209|189:259,1,75.0000028610231,0|0,0:0|1:0,0:0:0:0:
411,244,108399,2,0,P|352:287|280:280,1,150.000005722046
328,192,108894,1,0,1:0:0:0:
374,376,109058,6,0,P|417:317|411:244,1,150.000005722046,8|0,0:3|0:0,0:0:0:0:
328,191,109553,1,0,1:0:0:0:
88,320,110048,1,0,0:0:0:0:
40,252,110213,1,0,1:0:0:0:
64,172,110377,1,0,0:0:0:0:
120,244,110542,1,0,0:0:0:0:
120,244,110707,2,0,P|176:268|208:264,1,75.0000028610231,0|0,0:0|1:0,0:0:0:0:
175,196,111037,2,0,P|174:233|188:267,1,75.0000028610231
328,205,111366,2,0,L|256:220,1,75.0000028610231,0|0,0:0|1:0,0:0:0:0:
168,116,111696,5,4,0:0:0:0:
360,336,112191,5,0,1:0:0:0:
392,80,112685,5,0,0:0:0:0:
360,152,112850,1,0,1:0:0:0:
440,144,113015,1,0,0:0:0:0:
392,80,113180,1,0,0:0:0:0:
408,216,113344,2,0,P|396:256|364:284,1,75.0000028610231,0|0,0:0|1:0,0:0:0:0:
256,212,113674,2,0,P|296:202|336:216,1,75.0000028610231
329,346,114003,2,0,P|300:315|292:273,1,75.0000028610231,0|0,0:0|1:0,0:0:0:0:
288,120,114333,6,0,P|272:76|224:140,1,150.000005722046,8|0,0:3|0:0,0:0:0:0:
256,212,114828,1,0,1:0:0:0:
368,84,115158,1,0,0:0:0:0:
256,212,115323,1,0,0:0:0:0:
211,122,115487,2,0,P|172:108|140:112,1,75.0000028610231,0|0,1:0|0:0,0:0:0:0:
132,276,115817,5,0,1:0:0:0:
164,196,115982,1,0,3:0:0:0:
84,164,116147,1,0,1:0:0:0:
52,244,116312,1,0,3:0:0:0:
278,242,116476,5,0,1:0:0:0:
244,162,116641,1,0,0:0:0:0:
164,196,116806,1,0,0:0:0:0:
198,275,116971,6,0,P|240:320|324:316,1,150.000005722046,4|0,0:0|0:0,0:0:0:0:
323,316,117465,1,0,0:0:0:0:
392,100,117795,2,0,L|328:160,1,75.0000028610231,0|0,1:0|0:0,0:0:0:0:
416,192,118125,2,0,L|352:252,1,75.0000028610231
252,208,118454,6,0,P|236:140|280:68,2,150.000005722046,0|0|0,0:0|0:0|1:0,0:0:0:0:
337,151,119279,1,0,0:0:0:0:
152,104,119443,1,0,0:0:0:0:
187,295,119608,6,0,P|255:277|252:208,1,150.000005722046,4|0,0:0|0:0,0:0:0:0:
168,184,120103,1,0,0:0:0:0:
32,328,120432,2,0,L|96:268,1,75.0000028610231,0|0,1:0|0:0,0:0:0:0:
8,236,120762,2,0,L|72:176,1,75.0000028610231
166,244,121092,5,8,1:3:0:0:
198,324,121257,1,0,3:0:0:0:
118,356,121421,1,0,1:0:0:0:
86,276,121586,1,0,0:0:0:0:
312,278,121751,5,0,1:0:0:0:
278,358,121916,1,0,3:0:0:0:
198,324,122081,1,0,0:0:0:0:
232,245,122246,6,0,P|274:200|358:204,1,150.000005722046,4|0,0:0|0:0,0:0:0:0:
357,203,122740,1,0,0:0:0:0:
304,24,123070,2,0,P|316:68|344:104,1,75.0000028610231,0|0,1:0|0:0,0:0:0:0:
416,132,123399,1,0,0:0:0:0:
400,24,123564,1,0,0:0:0:0:
340,184,123729,2,0,P|404:224|488:188,1,150.000005722046,8|0,0:3|0:0,0:0:0:0:
432,60,124224,2,0,P|368:19|284:55,1,150.000005722046
340,184,124718,2,0,P|356:144|356:112,1,75.0000028610231,0|0,1:0|0:0,0:0:0:0:
140,152,125048,6,0,P|204:111|288:147,1,150.000005722046,0|0,1:0|0:0,0:0:0:0:
232,276,125542,1,0,0:0:0:0:
232,276,125707,2,0,P|216:236|216:204,2,75.0000028610231,0|0|0,1:0|0:0|0:0,0:0:0:0:
304,316,126202,1,0,0:0:0:0:
305,40,126366,6,0,P|277:81|276:132,1,100.000003814697,4|0,0:0|0:0,0:0:0:0:
388,148,126696,1,0,0:0:0:0:
388,148,126805,2,0,L|358:107,1,50.0000019073487
305,40,127026,5,0,1:0:0:0:
264,33,127135,1,0,3:0:0:0:
224,45,127245,1,0,3:0:0:0:
192,72,127355,5,0,3:0:0:0:
175,109,127465,1,0,3:0:0:0:
175,151,127575,1,0,0:0:0:0:
192,188,127685,6,0,P|244:168|328:200,1,150.000005722046,4|0,0:0|1:0,0:0:0:0:
247,337,128180,1,0,0:0:0:0:
247,337,128344,2,0,P|243:300|252:264,1,75.0000028610231
406,331,128674,2,0,P|369:328|336:312,1,75.0000028610231,0|0,1:0|0:0,0:0:0:0:
132,172,129004,5,4,0:3:0:0:
24,212,129169,1,0,0:0:0:0:
160,248,129333,1,0,1:0:0:0:
268,208,129498,1,0,0:0:0:0:
132,172,129663,2,0,P|112:128|112:88,1,75.0000028610231
240,52,129993,2,0,P|235:100|215:134,1,75.0000028610231,0|0,1:0|0:0,0:0:0:0:
92,308,130323,6,0,P|132:260|228:272,1,150.000005722046,4|0,0:0|1:0,0:0:0:0:
341,367,130817,1,0,0:0:0:0:
341,367,130982,2,0,P|307:352|284:324,1,75.0000028610231
239,191,131312,2,0,L|213:261,1,75.0000028610231,0|0,1:0|0:0,0:0:0:0:
468,146,131641,5,4,0:0:0:0:
467,251,131806,1,0,1:0:0:0:
368,284,131971,1,0,0:0:0:0:
307,199,132136,1,0,1:0:0:0:
368,114,132301,5,0,0:0:0:0:
307,29,132465,1,0,0:0:0:0:
207,62,132630,1,0,1:0:0:0:
207,167,132795,1,0,0:0:0:0:
124,60,132960,5,8,0:3:0:0:
100,144,133125,2,0,P|96:188|116:240,1,75.0000028610231,0|0,0:0|1:0,0:0:0:0:
124,60,133454,2,0,P|87:34|32:25,1,75.0000028610231
184,176,133784,1,0,0:0:0:0:
264,80,133949,1,0,1:0:0:0:
328,264,134114,6,0,P|368:284|408:284,1,75.0000028610231,4|0,0:0|0:0,0:0:0:0:
416,28,134443,1,0,0:0:0:0:
440,136,134608,2,0,P|369:119|313:164,1,150.000005722046,0|0,1:0|0:0,0:0:0:0:
397,285,135103,2,0,P|439:270|467:242,2,75.0000028610231,0|0|0,0:0|1:0|0:0,0:0:0:0:
212,140,135597,5,4,1:0:0:0:
397,285,135761,2,0,L|467:339,1,75.0000028610231,0|0,0:0|1:0,0:0:0:0:
360,156,136092,2,0,L|259:267,1,150.000005722046,4|0,0:0|0:0,0:0:0:0:
397,285,136586,5,0,1:0:0:0:
212,140,136751,2,0,L|141:85,1,75.0000028610231,4|0,0:0|0:0,0:0:0:0:
268,224,137081,5,0,3:0:0:0:
126,115,137246,2,0,L|56:60,1,75.0000028610231,0|0,1:0|0:0,0:0:0:0:
300,244,137575,5,0,0:0:0:0:
212,140,137740,1,0,0:0:0:0:
300,244,137904,5,0,1:0:0:0:
212,140,138069,1,0,0:0:0:0:
408,108,138235,6,0,L|364:132,1,50,8|0,1:3|0:0,0:0:0:0:
104,275,138399,2,0,L|148:251,1,50,0|0,3:0|0:0,0:0:0:0:
192,1,138564,6,0,L|215:72,1,75.0000028610231,0|0,3:0|0:0,0:0:0:0:
320,382,138729,2,0,L|295:311,1,75.0000028610231,0|0,3:0|0:0,0:0:0:0:
133,130,138894,5,0,0:3:0:0:
378,253,139059,1,0,0:3:0:0:
296,36,139224,1,0,0:3:0:0:
208,352,139388,6,0,P|260:312|260:200,1,150,4|0,1:2|0:0,0:0:0:0:
248,152,139718,1,0,0:0:0:0:
216,356,139883,6,0,P|268:316|268:204,1,150,0|0,1:0|0:0,0:0:0:0:
56,88,140213,1,0,0:0:0:0:
176,256,140377,1,0,0:0:0:0:
257,20,140542,1,0,0:0:0:0:
232,196,140707,6,0,B|296:228|360:208|360:208|343:197,1,150,4|0,0:2|0:0,0:0:0:0:
360,110,141037,1,0,0:0:0:0:
414,289,141202,6,0,P|455:213|443:153,1,150.000005722046,0|0,1:0|0:0,0:0:0:0:
275,320,141531,1,0,0:0:0:0:
336,48,141696,1,0,0:0:0:0:
432,256,141861,1,0,0:0:0:0:
131,87,142026,6,0,P|64:150|154:171,1,225.000008583069,4|0,1:2|0:0,0:0:0:0:
131,87,142355,1,0,0:0:0:0:
24,236,142520,1,0,1:0:0:0:
3,69,142685,5,0,0:0:0:0:
154,171,142850,1,0,0:0:0:0:
232,40,143015,5,0,0:0:0:0:
52,140,143180,1,0,1:0:0:0:
128,8,143344,6,0,L|184:236,1,225.000008583069,4|0,0:0|0:0,0:0:0:0:
146,316,143674,1,0,0:0:0:0:
159,132,143839,1,0,1:0:0:0:
256,288,144004,1,0,0:0:0:0:
85,220,144169,1,0,1:0:0:0:
263,174,144333,1,0,1:0:0:0:
181,226,144498,5,0,3:0:0:0:
275,58,144663,6,0,P|377:126|263:173,1,300.000011444092,4|0,1:2|0:0,0:0:0:0:
340,34,145158,6,0,P|340:83|308:120,1,100,0|0,1:0|0:0,0:0:0:0:
88,70,145487,1,0,0:0:0:0:
233,190,145652,1,0,1:0:0:0:
340,34,145817,1,0,0:0:0:0:
296,267,145982,6,0,B|296:323|332:355|332:355|400:231,1,225.000008583069,4|0,1:2|0:0,0:0:0:0:
432,176,146312,1,0,0:0:0:0:
174,298,146476,1,0,1:0:0:0:
393,244,146641,6,0,L|256:277,1,100,4|0,1:2|0:0,0:0:0:0:
163,178,146971,1,0,0:0:0:0:
393,244,147136,1,0,1:0:0:0:
163,178,147301,6,0,P|228:240|308:220,1,179.999994506836,4|0,1:2|0:0,0:0:0:0:
372,160,147630,1,0,0:0:0:0:
163,178,147795,6,0,L|306:220,1,150.000005722046,0|0,1:0|0:0,0:0:0:0:
148,283,148125,1,0,0:0:0:0:
237,52,148290,1,0,0:0:0:0:
393,244,148454,1,0,1:0:0:0:
36,108,148619,5,4,1:2:0:0:
476,276,148949,5,0,1:0:0:0:
36,108,149279,5,4,0:0:0:0:
379,130,149443,5,0,1:0:0:0:
134,253,149608,1,0,3:0:0:0:
216,36,149773,1,0,1:0:0:0:
304,352,149937,6,0,P|252:312|252:200,1,150,4|0,1:2|0:0,0:0:0:0:
264,148,150268,1,0,0:0:0:0:
296,356,150432,6,0,P|244:316|244:204,1,150,0|0,1:0|0:0,0:0:0:0:
456,88,150762,1,0,0:0:0:0:
336,256,150927,1,0,0:0:0:0:
240,72,151092,1,0,1:0:0:0:
409,325,151257,6,0,P|437:257|412:189,1,150,4|0,1:2|0:0,0:0:0:0:
352,124,151586,1,0,0:0:0:0:
419,325,151751,6,0,P|447:257|422:189,1,150,0|0,1:0|0:0,0:0:0:0:
170,95,152081,1,0,0:0:0:0:
336,256,152246,1,0,0:0:0:0:
392,32,152410,1,0,1:0:0:0:
174,333,152575,6,0,P|160:243|240:288,1,225.000008583069,4|0,1:2|0:0,0:0:0:0:
174,333,152905,1,0,0:0:0:0:
232,152,153070,1,0,1:0:0:0:
46,193,153235,1,0,0:0:0:0:
236,284,153399,5,0,0:0:0:0:
91,191,153564,1,0,0:0:0:0:
243,112,153729,1,0,1:0:0:0:
297,234,153894,6,0,P|354:226|390:202,1,100,4|0,1:2|0:0,0:0:0:0:
242,156,154224,1,0,1:0:0:0:
355,54,154388,1,0,3:0:0:0:
370,266,154553,6,0,P|415:230|434:191,1,100,4|0,1:2|0:0,0:0:0:0:
270,185,154883,1,0,1:0:0:0:
342,72,155048,1,0,3:0:0:0:
443,299,155213,6,0,P|472:248|444:112,1,200,4|0,1:0|0:0,0:0:0:0:
340,352,155707,2,0,P|289:322|245:190,1,200,0|0,1:0|0:0,0:0:0:0:
168,340,156202,1,0,0:0:0:0:
380,220,156366,1,0,1:0:0:0:
424,384,156531,1,0,0:0:0:0:
348,243,156696,6,0,P|345:183|432:75,1,200,4|0,0:0|1:0,0:0:0:0:
244,194,157191,2,0,P|231:136|119:53,1,200
104,328,157685,1,0,1:0:0:0:
108,192,157850,6,0,P|135:139|264:88,1,200,4|0,0:0|0:0,0:0:0:0:
315,382,158344,2,0,P|306:284|236:216,1,200,0|0,1:0|0:0,0:0:0:0:
108,192,158839,1,0,0:0:0:0:
236,216,159004,2,0,L|380:176,1,150,4|0,1:0|0:0,0:0:0:0:
480,147,159333,6,0,L|408:168,1,75.0000028610231,4|0,1:2|0:0,0:0:0:0:
288,172,159498,1,0,0:0:0:0:
253,151,159581,1,0,0:0:0:0:
241,112,159663,1,0,3:0:0:0:
258,75,159746,1,0,3:0:0:0:
295,59,159828,1,0,3:0:0:0:
334,72,159910,1,0,3:0:0:0:
353,108,159993,5,0,1:0:0:0:
392,148,160075,1,0,1:0:0:0:
448,153,160158,1,0,1:0:0:0:
493,120,160240,1,0,1:0:0:0:
505,65,160323,1,0,1:0:0:0:
477,16,160405,1,0,1:0:0:0:
424,0,160487,2,0,P|396:4|364:36,1,75.0000028610231,0|0,1:0|1:0,0:0:0:0:
288,172,160652,5,4,1:2:0:0:
168,88,160817,1,0,0:0:0:0:
392,176,160982,5,0,1:0:0:0:
146,133,161147,1,0,0:0:0:0:
336,104,161312,5,0,0:0:0:0:
145,197,161476,1,4,0:3:0:0:
276,92,161641,5,0,1:0:0:0:
192,252,161806,1,4,3:0:0:0:
244,117,161971,5,0,0:0:0:0:
233,285,162136,1,4,0:3:0:0:
215,166,162301,5,0,1:0:0:0:
240,308,162465,1,4,0:3:0:0:
150,195,162630,5,0,1:3:0:0:
234,268,162795,1,4,0:0:0:0:
77,206,162959,5,0,0:0:0:0:
242,183,163125,2,0,L|441:154,1,150.000005722046,4|0,1:2|0:0,0:0:0:0:
51,212,163454,1,0,0:3:0:0:
239,62,163619,5,0,1:3:0:0:
78,253,163784,1,0,0:3:0:0:
148,74,163949,5,4,0:3:0:0:
133,286,164114,1,4,0:3:0:0:
108,120,164279,5,0,1:3:0:0:
205,273,164443,1,4,0:0:0:0:
112,160,164608,5,4,0:1:0:0:
137,140,164690,1,0,0:0:0:0:
169,130,164772,1,0,0:0:0:0:
201,131,164855,1,0,0:0:0:0:
231,144,164937,1,0,3:0:0:0:
256,166,165020,1,0,3:0:0:0:
271,195,165102,1,0,3:0:0:0:
275,227,165184,1,0,3:0:0:0:
268,259,165267,5,0,1:0:0:0:
230,244,165350,1,0,1:0:0:0:
213,206,165432,1,0,1:0:0:0:
228,168,165515,1,0,1:0:0:0:
266,151,165597,1,0,1:0:0:0:
304,166,165680,1,0,1:0:0:0:
321,204,165762,6,0,P|336:148|300:64,1,150.000005722046,4|0,1:2|0:0,0:0:0:0:
152,0,166092,1,0,0:3:0:0:
384,32,166257,5,0,1:3:0:0:
164,144,166421,1,0,0:3:0:0:
313,30,166586,5,4,0:3:0:0:
297,203,166751,1,0,0:3:0:0:
319,40,166916,5,0,1:0:0:0:
378,97,167081,1,4,0:3:0:0:
308,4,167246,5,4,0:3:0:0:
490,95,167410,1,0,0:3:0:0:
327,72,167575,5,0,1:0:0:0:
451,95,167740,1,0,3:0:0:0:
302,208,167905,5,4,0:3:0:0:
321,16,168070,1,4,0:0:0:0:
292,224,168235,5,0,3:0:0:0:
180,14,168399,2,0,L|268:136,1,150.000005722046,4|0,1:2|0:0,0:0:0:0:
372,268,168729,1,0,0:0:0:0:
136,228,168894,5,0,1:0:0:0:
296,172,169059,1,0,0:0:0:0:
120,296,169224,5,4,0:3:0:0:
225,95,169388,1,0,0:0:0:0:
193,283,169553,5,0,1:0:0:0:
204,105,169718,1,4,0:3:0:0:
301,241,169883,5,0,0:0:0:0:
182,154,170048,1,0,0:3:0:0:
371,186,170213,5,4,1:3:0:0:
233,261,170377,1,0,0:0:0:0:
409,135,170542,5,4,1:0:0:0:
301,269,170707,1,4,0:0:0:0:
341,33,170872,5,0,1:0:0:0:
456,332,171037,1,4,1:2:0:0:
448,316,171531,5,4,0:3:0:0:
416,332,171861,5,0,1:0:0:0:
257,170,172026,5,0,0:0:0:0:
329,189,172191,1,0,0:0:0:0:
276,241,172355,1,0,0:0:0:0:
388,96,172520,5,4,0:3:0:0:
388,96,172685,2,0,B|460:88|508:116|508:116|460:132,1,150.000005722046,4|0,0:3|0:0,0:0:0:0:
388,96,173179,1,0,1:0:0:0:
483,124,173344,1,0,0:0:0:0:
424,16,173509,1,0,0:0:0:0:
356,184,173674,5,4,3:0:0:0:
348,200,174169,5,4,0:3:0:0:
316,184,174498,5,0,1:0:0:0:
160,110,174663,5,0,0:0:0:0:
88,91,174828,1,0,0:0:0:0:
108,168,174993,1,0,0:0:0:0:
212,52,175157,5,4,3:0:0:0:
212,52,175322,2,0,P|243:29|288:15,1,75.0000028610231,4|0,0:3|0:0,0:0:0:0:
200,217,175652,2,0,P|193:253|198:290,1,75.0000028610231,0|0,0:0|1:0,0:0:0:0:
171,118,175982,2,0,P|137:102|101:97,1,75.0000028610231,0|0,0:0|1:0,0:0:0:0:
320,257,176311,5,4,0:0:0:0:
328,273,176805,5,4,0:3:0:0:
360,257,177136,5,0,1:3:0:0:
110,371,177301,5,0,0:0:0:0:
58,313,177465,1,0,0:0:0:0:
130,294,177630,1,0,0:0:0:0:
276,383,177795,5,4,0:3:0:0:
276,383,177960,2,0,P|311:360|330:281,1,112.500004291535,4|0,0:3|0:0,0:0:0:0:
332,295,178290,2,0,P|345:241|388:207,1,112.500004291535,2|0,0:0|0:0,0:0:0:0:
512,289,178619,2,0,P|458:304|407:283,1,112.500004291535
379,133,178949,6,0,P|446:159|464:229,1,150.000005722046,8|0,0:3|0:0,0:0:0:0:
361,131,179443,5,4,0:3:0:0:
359,167,179773,5,0,1:3:0:0:
329,143,180103,6,0,P|317:109|322:71,1,75.0000028610231
311,230,180432,5,4,0:3:0:0:
394,100,180597,1,0,0:0:0:0:
240,93,180762,1,0,1:3:0:0:
390,188,180927,1,0,3:0:0:0:
402,144,181009,1,0,3:0:0:0:
394,100,181092,1,4,0:3:0:0:
295,257,181257,1,4,0:3:0:0:
209,92,181421,1,0,1:0:0:0:
367,224,181586,6,0,P|370:286|292:336,1,150.000005722046,4|0,0:0|0:0,0:0:0:0:
320,164,182081,2,0,P|354:148|391:152,1,75.0000028610231,0|0,1:0|0:0,0:0:0:0:
296,258,182410,1,0,0:0:0:0:
434,81,182575,1,0,0:0:0:0:
444,212,182740,2,0,L|453:313,1,75.0000028610231,0|0,1:0|0:0,0:0:0:0:
294,75,183070,6,0,P|258:65|221:67,1,75.0000028610231
76,128,183399,2,0,P|113:131|143:153,1,75.0000028610231,0|0,1:0|0:0,0:0:0:0:
167,308,183729,1,0,0:0:0:0:
216,184,183894,1,0,1:0:0:0:
84,204,184059,1,0,0:0:0:0:
316,345,184224,6,0,B|336:380|336:380|368:324|329:277,1,150.000005722046,4|0,0:0|0:0,0:0:0:0:
152,244,184718,2,0,P|191:268|235:271,1,75.0000028610231,0|0,1:0|0:0,0:0:0:0:
446,178,185048,2,0,P|400:176|360:196,1,75.0000028610231
329,277,185377,2,0,L|280:204,1,75.0000028610231,0|0,1:0|0:0,0:0:0:0:
144,72,185707,5,8,0:3:0:0:
208,176,185872,1,0,0:0:0:0:
267,69,186037,2,0,P|312:48|360:48,1,75.0000028610231,0|0,1:0|0:0,0:0:0:0:
192,204,186366,1,0,0:0:0:0:
267,69,186531,1,0,1:1:0:0:
328,268,186696,2,0,P|366:299|412:312,1,75.0000028610231,0|4,0:0|0:0,0:0:0:0:
368,180,187026,6,0,P|280:180|240:224,1,150.000005722046,0|0,0:0|1:0,0:0:0:0:
252,72,187520,1,0,0:0:0:0:
252,72,187685,2,0,P|272:112|276:152,1,75.0000028610231
265,291,188015,2,0,P|245:251|241:211,1,75.0000028610231,0|0,1:0|0:0,0:0:0:0:
441,194,188344,6,0,L|368:180,1,75.0000028610231
108,120,188674,2,0,L|181:134,1,75.0000028610231,0|0,1:0|0:0,0:0:0:0:
305,255,189003,1,0,0:0:0:0:
308,258,189169,1,0,0:0:0:0:
136,216,189333,1,0,1:0:0:0:
320,84,189498,1,0,0:0:0:0:
273,331,189663,6,0,B|265:359|241:379|241:379|217:339|249:267,1,150.000005722046,8|0,0:3|1:0,0:0:0:0:
448,122,190158,1,0,0:0:0:0:
348,259,190323,1,0,0:0:0:0:
509,207,190487,1,0,0:0:0:0:
348,154,190652,1,0,1:0:0:0:
448,292,190817,1,0,0:0:0:0:
260,124,190982,5,4,0:0:0:0:
419,177,191147,2,0,L|348:154,1,75.0000028610231,0|0,1:0|0:0,0:0:0:0:
176,96,191476,5,0,0:0:0:0:
122,255,191641,2,0,L|145:183,1,75.0000028610231,0|0,1:0|0:0,0:0:0:0:
271,313,191970,2,0,L|248:385,1,75.0000028610231,0|0,1:0|0:0,0:0:0:0:
216,128,192301,6,0,B|204:64|232:24|232:24|244:50|240:72,1,150.000005722046,4|0,0:0|1:0,0:0:0:0:
236,208,192795,1,0,0:0:0:0:
328,116,192960,2,0,P|372:104|408:108,1,75.0000028610231
464,260,193290,2,0,P|428:271|391:269,1,75.0000028610231,0|0,1:0|0:0,0:0:0:0:
241,64,193619,5,4,0:3:0:0:
236,208,193783,1,0,0:0:0:0:
364,141,193949,1,0,1:0:0:0:
241,64,194114,2,4,P|201:76|177:104,1,75.0000028610231,4|0,0:3|0:3,0:3:0:0:
364,141,194443,1,0,0:0:0:0:
236,208,194608,2,0,P|226:248|236:284,1,75.0000028610231,0|0,1:0|0:0,0:0:0:0:
432,272,194938,6,0,P|376:225|306:243,1,150.000005722046,4|0,0:0|1:0,0:0:0:0:
284,344,195432,1,0,0:0:0:0:
424,160,195597,1,4,0:3:0:0:
360,304,195761,1,0,0:3:0:0:
252,176,195926,2,0,P|208:160|176:160,1,75.0000028610231,0|4,1:0|0:3,0:0:0:0:
152,300,196256,6,0,P|185:233|180:159,1,150.000005722046,4|0,0:0|0:0,0:0:0:0:
73,65,196751,2,0,P|114:127|181:160,1,150.000005722046,0|0,1:0|0:0,0:0:0:0:
276,124,197245,2,0,P|328:112|368:120,1,75.0000028610231
472,200,197575,5,4,0:0:0:0:
320,200,197740,2,0,P|257:241|224:308,1,150.000005722046
397,331,198234,1,0,1:0:0:0:
320,200,198399,2,0,P|253:166|178:171,2,150.000005722046,0|2|0,0:0|0:0|0:0,0:0:0:0:
376,276,199224,1,0,0:0:0:0:
132,104,199553,1,0,1:0:0:0:
376,276,199883,1,0,0:0:0:0:
256,192,200048,1,0,0:0:0:0:
388,130,200213,5,4,0:0:0:0:
132,104,200377,2,0,P|94:107|59:119,1,75.0000028610231
288,64,200707,2,0,P|244:132|240:208,1,150.000005722046,0|0,1:0|0:0,0:0:0:0:
188,24,201202,1,0,0:0:0:0:
344,181,201366,6,0,P|356:217|355:254,1,75.0000028610231,4|0,1:2|3:0,0:0:0:0:
337,286,201614,1,0,3:0:0:0:
307,308,201696,1,0,3:0:0:0:
270,313,201779,1,0,3:0:0:0:
235,302,201861,1,0,3:0:0:0:
209,275,201943,1,0,3:0:0:0:
197,240,202026,1,0,3:0:0:0:
203,203,202108,1,0,3:0:0:0:
224,173,202191,5,0,3:0:0:0:
241,145,202273,1,0,3:0:0:0:
244,113,202355,1,0,3:0:0:0:
231,83,202438,1,0,3:0:0:0:
207,61,202520,1,0,1:0:0:0:
176,52,202603,1,0,1:0:0:0:
144,58,202685,1,0,1:0:0:0:
118,78,202768,1,0,1:0:0:0:
104,108,202850,6,0,L|148:132,1,50,8|0,1:3|0:0,0:0:0:0:
408,275,203015,2,0,L|364:251,1,50,0|0,3:0|0:0,0:0:0:0:
320,1,203180,6,0,L|297:72,1,75.0000028610231,0|0,3:0|0:0,0:0:0:0:
192,382,203344,2,0,L|217:311,1,75.0000028610231,0|0,3:0|0:0,0:0:0:0:
379,130,203509,5,0,0:0:0:0:
134,253,203674,1,0,0:0:0:0:
216,36,203839,1,0,0:0:0:0:
304,352,204004,6,0,P|252:312|252:200,1,150,4|0,1:2|0:0,0:0:0:0:
256,152,204333,1,0,0:0:0:0:
295,356,204498,6,0,P|243:316|243:204,1,150,0|0,1:0|0:0,0:0:0:0:
468,99,204827,1,0,0:0:0:0:
332,256,204992,1,0,0:0:0:0:
264,67,205157,1,0,1:0:0:0:
132,328,205322,6,0,P|184:288|184:176,1,150,4|0,0:2|0:0,0:0:0:0:
168,128,205652,1,0,0:0:0:0:
140,333,205816,6,0,P|192:293|192:181,1,150,0|0,1:0|0:0,0:0:0:0:
44,336,206146,1,0,0:0:0:0:
292,180,206311,1,0,0:0:0:0:
243,368,206476,1,0,1:0:0:0:
91,94,206641,6,0,P|72:165|104:232,1,150,4|0,1:2|0:0,0:0:0:0:
91,94,206970,1,0,0:0:0:0:
265,208,207135,1,0,1:0:0:0:
277,0,207300,1,0,0:0:0:0:
168,160,207465,5,0,0:0:0:0:
382,175,207630,1,0,0:0:0:0:
172,163,207794,1,0,1:0:0:0:
361,0,207959,6,0,P|397:36|416:82,1,100,8|0,0:3|0:0,1:0:0:0:
303,304,208289,1,0,0:0:0:0:
165,79,208453,1,0,1:0:0:0:
395,272,208618,6,0,P|399:321|384:368,1,100
99,152,208948,1,2,0:0:0:0:
214,331,209112,1,0,1:0:0:0:
405,178,209278,6,0,P|376:216|232:240,1,200,4|0,1:0|0:0,0:0:0:0:
411,363,209772,2,0,P|396:317|359:283,1,100,0|0,1:0|0:0,0:0:0:0:
128,216,210102,1,0,0:0:0:0:
292,128,210267,1,0,1:0:0:0:
192,376,210432,1,0,0:0:0:0:
107,113,210597,6,0,B|107:57|143:25|143:25|211:149,1,225.000008583069,4|0,1:2|0:0,0:0:0:0:
244,205,210927,1,0,0:0:0:0:
22,92,211091,1,0,1:0:0:0:
205,137,211256,6,0,L|68:104,1,100,4|0,1:2|0:0,0:0:0:0:
315,167,211586,1,0,0:0:0:0:
352,32,211751,1,0,1:0:0:0:
299,259,211915,6,0,P|364:321|444:301,1,179.999994506836,4|0,1:2|0:0,0:0:0:0:
408,152,212245,1,0,0:0:0:0:
299,259,212410,6,0,L|444:301,1,150.000005722046,0|0,1:0|0:0,0:0:0:0:
214,235,212740,1,0,0:0:0:0:
385,69,212904,1,0,0:0:0:0:
443,300,213069,1,0,1:0:0:0:
145,189,213234,6,0,P|107:201|36:286,1,150.000005722046,6|0,0:0|3:2,3:2:0:0:
109,62,213563,1,0,3:0:0:0:
146,57,213645,1,0,3:0:0:0:
183,63,213728,1,0,3:0:0:0:
216,79,213810,1,0,3:0:0:0:
249,107,213893,1,0,3:0:0:0:
270,151,213975,1,0,3:0:0:0:
278,187,214058,6,0,P|282:220|270:269,1,75.0000028610231,0|0,1:0|0:0,0:0:0:0:
129,236,214223,2,0,P|164:221|201:218,1,75.0000028610231,0|0,0:3|0:0,0:0:0:0:
412,282,214388,1,0,1:0:0:0:
400,204,214470,1,0,1:0:0:0:
390,125,214553,6,0,P|312:142|400:192,1,225.000008583069,4|0,1:2|0:0,0:0:0:0:
450,166,214882,1,0,0:0:0:0:
251,96,215047,6,0,P|231:166|254:237,1,150.000005722046,0|0,1:0|0:0,0:0:0:0:
346,63,215377,1,0,0:0:0:0:
139,203,215542,1,0,0:0:0:0:
171,24,215707,1,0,1:0:0:0:
326,200,215871,6,0,P|272:140|273:241,1,225.000008583069,4|0,0:0|0:0,0:0:0:0:
318,273,216200,1,0,0:0:0:0:
282,65,216366,6,0,P|223:75|157:145,1,150.000005722046,0|0,1:0|0:0,0:0:0:0:
419,259,216696,1,0,0:0:0:0:
272,188,216860,1,0,0:0:0:0:
304,384,217025,1,0,1:0:0:0:
368,132,217190,6,0,B|392:48|464:12|464:12|468:44|440:72,1,225.000008583069,4|0,0:2|0:0,0:0:0:0:
368,132,217520,1,0,0:0:0:0:
172,48,217685,1,0,1:0:0:0:
180,216,217849,5,0,0:0:0:0:
356,140,218014,1,0,0:0:0:0:
346,295,218179,5,0,0:0:0:0:
189,228,218344,1,0,1:0:0:0:
247,364,218509,6,0,P|264:303|256:255,1,100,4|0,0:0|0:0,0:0:0:0:
81,297,218838,1,0,0:0:0:0:
247,364,219003,1,0,1:0:0:0:
218,181,219168,6,0,P|172:135|127:118,1,100,4|0,0:0|0:0,0:0:0:0:
81,297,219498,1,0,0:0:0:0:
218,181,219663,1,0,1:0:0:0:
1,191,219827,6,0,B|51:166|51:166|21:246|80:296,1,200,4|0,0:1|0:0,0:0:0:0:
111,294,220240,1,0,3:0:0:0:
139,282,220322,2,0,P|186:264|254:272,1,100,0|0,1:0|0:0,0:0:0:0:
296,368,220652,1,0,0:0:0:0:
176,176,220816,1,0,0:0:0:0:
375,124,220981,1,0,1:0:0:0:
200,356,221146,1,0,0:0:0:0:
86,88,221311,6,0,P|151:157|125:249,1,200,8|0,0:3|1:0,0:0:0:0:
64,180,221805,2,0,P|147:141|261:143,1,200
328,316,222300,1,0,1:0:0:0:
442,106,222465,6,0,P|343:100|253:141,1,200,4|0,0:0|0:0,0:0:0:0:
319,209,222959,2,0,P|345:117|280:48,1,200,0|0,1:0|0:0,0:0:0:0:
219,242,223454,1,0,0:0:0:0:
372,98,223619,1,0,1:0:0:0:
172,36,223783,1,0,0:0:0:0:
340,348,223948,5,4,0:0:0:0:
172,36,224113,1,0,1:0:0:0:
340,348,224443,5,0,0:0:0:0:
172,36,224608,2,0,P|164:124|264:192,1,200,0|0,1:0|0:0,0:0:0:0:
416,200,225102,1,4,0:0:0:0:
138,191,225267,5,0,0:0:0:0:
178,241,225377,1,0,1:0:0:0:
204,184,225487,1,0,1:0:0:0:
110,166,225596,5,0,1:0:0:0:
136,224,225707,1,0,3:3:0:0:
172,174,225817,1,0,3:3:0:0:
89,131,225926,5,0,3:0:0:0:
98,194,226036,1,0,1:0:0:0:
147,155,226146,1,0,1:0:0:0:
77,96,226256,5,0,1:0:0:0:
69,159,226366,1,0,1:0:0:0:
127,134,226476,1,0,3:0:0:0:
65,56,226586,5,4,1:2:0:0:
256,192,231860,12,0,235816,0:0:0:0:
162,216,237465,6,0,P|234:184|114:128,1,300.000011444092,8|0,0:3|0:0,0:0:0:0:
176,152,237877,6,0,P|248:120|174:23,1,200
153,57,238289,6,0,P|168:77|191:87,4,50
212,24,238701,5,0,3:0:0:0:
249,56,238783,1,0,3:0:0:0:
253,105,238865,1,0,3:0:0:0:
224,144,238948,1,0,3:0:0:0:
176,152,239030,1,0,3:0:0:0:
114,124,239113,5,0,3:0:0:0:
148,90,239195,1,0,3:0:0:0:
197,88,239277,1,0,3:0:0:0:
234,120,239360,1,0,3:0:0:0:
238,169,239442,1,0,1:0:0:0:
209,208,239525,1,0,1:0:0:0:
161,217,239608,2,0,P|131:201|112:171,1,69.9999978637696,0|0,1:0|3:0,0:0:0:0:
169,46,239772,5,4,0:0:0:0:
205,11,239855,1,0,0:0:0:0:
254,0,239937,1,0,0:0:0:0:
300,18,240019,1,0,0:0:0:0:
331,57,240102,1,0,1:0:0:0:
336,107,240184,1,0,0:0:0:0:
314,152,240267,1,0,0:0:0:0:
271,177,240349,1,0,0:0:0:0:
228,200,240432,5,4,0:3:0:0:
212,243,240514,1,0,0:0:0:0:
225,288,240596,1,4,0:3:0:0:
260,317,240679,1,0,0:0:0:0:
306,321,240761,1,0,1:0:0:0:
346,298,240844,1,0,0:0:0:0:
366,257,240926,1,4,0:3:0:0:
359,211,241008,1,0,0:0:0:0:
326,177,241091,5,0,0:0:0:0:
284,141,241173,1,0,0:0:0:0:
272,87,241255,1,4,0:3:0:0:
293,37,241338,1,0,0:0:0:0:
341,8,241420,1,0,1:0:0:0:
396,14,241503,1,0,0:0:0:0:
437,51,241585,1,0,0:0:0:0:
448,105,241667,1,0,0:0:0:0:
426,155,241751,5,4,0:3:0:0:
409,123,241833,1,2,0:0:0:0:
374,110,241915,1,2,0:0:0:0:
340,122,241998,1,2,0:0:0:0:
323,155,242080,1,2,1:2:0:0:
331,190,242163,1,2,0:0:0:0:
361,212,242245,6,0,P|430:160|332:191,1,300.000011444092,4|0,0:0|0:0,0:0:0:0:
512,262,242740,1,0,1:0:0:0:
194,224,242904,1,0,0:0:0:0:
151,218,242987,1,0,0:0:0:0:
108,212,243069,2,0,B|122:230|122:230|259:251,1,150.000005722046,4|4,0:3|0:3,0:0:0:0:
161,75,243399,1,0,1:0:0:0:
186,336,243564,6,0,P|236:218|109:212,1,300.000011444092,4|4,1:2|0:3,0:0:0:0:
312,241,244058,2,0,B|206:236|206:236|170:260,1,150.000005722046,0|0,1:0|0:0,0:0:0:0:
346,167,244388,1,4,0:3:0:0:
263,384,244553,1,0,1:0:0:0:
107,211,244718,1,0,1:0:0:0:
333,65,244882,6,0,P|423:101|357:268,1,300.000011444092,4|0,1:2|0:0,0:0:0:0:
170,42,245377,2,0,P|238:72|257:142,1,150.000005722046,0|0,1:0|0:0,0:0:0:0:
73,219,245707,2,0,P|103:150|173:131,2,150.000005722046,4|4|0,0:3|0:3|1:0,0:0:0:0:
209,346,246201,1,0,0:0:0:0:
185,205,246366,6,0,L|157:53,1,150.000005722046,4|0,0:3|0:0,0:0:0:0:
309,270,246696,2,0,L|397:122,1,150.000005722046,0|4,1:3|0:3,0:0:0:0:
99,311,247025,2,0,P|187:204|309:271,1,300.000011444092,0|0,1:3|0:0,0:0:0:0:
157,57,247520,1,0,0:0:0:0:
304,122,247685,5,4,0:3:0:0:
340,118,247767,1,0,0:0:0:0:
367,93,247849,2,0,P|353:58|332:74,1,75.0000028610231,4|0,0:3|0:0,0:0:0:0:
405,159,248014,1,0,1:0:0:0:
446,166,248096,1,0,0:0:0:0:
484,147,248178,1,0,0:0:0:0:
502,110,248261,1,0,0:0:0:0:
494,68,248343,5,4,0:3:0:0:
463,40,248426,1,0,0:0:0:0:
421,37,248508,1,0,0:0:0:0:
386,59,248590,1,0,0:0:0:0:
367,93,248674,1,0,1:0:0:0:
332,115,248756,1,0,0:0:0:0:
290,112,248838,1,4,0:3:0:0:
259,84,248921,1,0,0:0:0:0:
317,25,249003,5,0,0:0:0:0:
346,61,249085,1,4,0:3:0:0:
355,106,249167,1,4,1:3:0:0:
343,151,249250,1,0,0:0:0:0:
312,186,249333,1,0,1:0:0:0:
284,223,249415,1,0,0:0:0:0:
283,269,249497,1,4,1:3:0:0:
308,307,249580,1,0,0:0:0:0:
351,324,249662,5,4,1:3:0:0:
396,313,249745,1,0,0:0:0:0:
426,278,249827,1,4,1:3:0:0:
431,224,249909,1,0,1:0:0:0:
409,192,249992,2,0,P|378:170|343:168,1,75.0000028610231,0|0,1:0|0:0,0:0:0:0:
237,304,250157,6,0,B|165:270|126:136|203:67|203:67|195:127|226:160|226:160|275:89|366:70|428:105,1,600.000022888185,4|0,1:2|0:0,0:0:0:0:
272,15,250981,1,0,1:0:0:0:
357,239,251311,6,0,P|338:271|308:293,1,75.0000028610231
218,164,251476,1,0,0:0:0:0:
218,164,251558,1,0,0:0:0:0:
218,164,251641,5,8,0:3:0:0:
338,129,251805,1,0,0:0:0:0:
230,296,251970,5,0,0:0:0:0:
366,304,252135,1,0,0:0:0:0:
155,108,252300,5,0,1:0:0:0:
338,129,252465,1,0,0:0:0:0:
199,370,252630,5,0,0:0:0:0:
366,304,252794,2,0,P|392:224|338:129,1,200,4|0,0:0|0:0,0:0:0:0:
246,164,253289,2,0,L|216:58,1,100
199,370,253619,5,0,1:0:0:0:
64,331,253783,1,0,0:0:0:0:
285,269,253948,1,0,0:0:0:0:
58,187,254113,2,0,P|82:103|180:59,1,200,4|0,0:3|0:0,0:0:0:0:
79,0,254608,5,0,1:0:0:0:
178,58,254772,1,0,0:0:0:0:
278,0,254937,5,8,1:3:0:0:
178,58,255102,1,0,0:0:0:0:
333,145,255267,1,0,1:0:0:0:
147,170,255432,6,0,P|146:300|273:269,1,300.000011444092,4|0,0:0|0:0,0:0:0:0:
385,206,255926,2,0,P|289:230|273:270,1,150.000005722046,0|0,1:0|0:0,0:0:0:0:
123,272,256256,2,0,L|307:268,1,150.000005722046,4|0,0:3|0:0,0:0:0:0:
195,141,256586,1,0,1:0:0:0:
56,322,256751,6,0,P|60:182|195:141,1,300.000011444092,4|0,0:3|1:0,0:0:0:0:
290,289,257245,2,0,P|221:296|134:229,1,150.000005722046,0|0,0:3|0:0,0:0:0:0:
116,22,257575,2,0,P|78:85|84:159,1,150.000005722046,0|4,1:0|0:2,0:0:0:0:
237,70,257904,1,0,0:0:0:0:
278,267,258069,6,0,P|376:176|393:295,1,300.000011444092,4|4,1:2|3:0,3:0:0:0:
220,173,258564,2,0,P|292:192|346:243,1,150.000005722046,0|0,1:0|0:0,0:0:0:0:
218,30,258893,1,0,0:0:0:0:
218,30,259058,2,0,P|238:100|221:172,1,150.000005722046,0|0,1:0|0:0,0:0:0:0:
128,40,259388,6,0,P|122:174|9:129,1,300.000011444092,12|4,0:3|0:3,0:0:0:0:
253,219,259882,5,0,3:0:0:0:
289,171,259965,1,0,3:0:0:0:
289,112,260047,5,0,3:0:0:0:
268,194,260129,5,0,3:0:0:0:
314,265,260211,5,0,1:0:0:0:
398,280,260294,5,0,1:0:0:0:
465,228,260376,5,0,1:0:0:0:
473,144,260459,5,0,1:0:0:0:
416,81,260541,5,0,1:0:0:0:
392,363,260707,6,0,P|315:358|210:262,1,225.000008583069,4|0,0:0|0:0,0:0:0:0:
176,167,261531,1,0,1:0:0:0:
123,288,261860,1,0,0:0:0:0:
209,261,262190,6,0,P|236:198|175:166,1,150.000005722046
327,267,262849,2,0,P|383:263|444:181,1,150.000005722046,0|0,1:0|0:0,0:0:0:0:
491,343,263344,6,0,P|386:357|327:267,1,225.000008583069,4|0,0:0|0:0,0:0:0:0:
349,174,264168,1,0,1:0:0:0:
422,235,264498,1,0,0:0:0:0:
284,323,264827,5,4,1:0:0:0:
327,267,264992,1,0,0:0:0:0:
383,310,265157,1,0,0:0:0:0:
338,365,265322,1,0,0:0:0:0:
249,207,265486,5,0,1:0:0:0:
318,199,265651,1,0,0:0:0:0:
327,267,265816,1,0,0:0:0:0:
258,276,265981,6,0,P|210:264|246:138,1,225.000008583069,4|0,0:0|0:0,0:0:0:0:
109,82,266805,1,0,1:0:0:0:
246,137,267135,1,0,0:0:0:0:
370,42,267465,6,0,P|347:108|381:178,1,150.000005722046
451,239,267959,2,0,P|474:173|440:103,1,150.000005722046,0|0,1:0|0:0,0:0:0:0:
379,176,268454,2,0,P|339:204|302:208,1,75.0000028610231
314,208,268783,6,0,P|252:167|181:182,1,150.000005722046
101,240,269278,2,0,P|162:280|233:265,1,150.000005722046
314,208,269772,1,0,1:0:0:0:
314,208,269937,1,0,0:0:0:0:
367,289,270102,6,0,P|405:250|418:166,1,100.000003814697,4|0,0:0|0:0,0:0:0:0:
397,127,270432,2,0,P|415:110|437:98,1,50.0000019073487,0|0,1:0|0:0,0:0:0:0:
437,97,270597,1,0,0:0:0:0:
314,208,270761,6,0,P|261:193|208:126,1,100.000003814697,4|0,0:0|0:0,0:0:0:0:
229,83,271091,2,0,L|181:50,2,50.0000019073487,0|0|0,1:0|0:0|0:0,0:0:0:0:
180,268,271421,6,0,P|216:242|343:333,1,200,4|0,0:0|1:0,0:0:0:0:
252,327,271915,1,0,0:0:0:0:
259,122,272080,2,0,L|256:240,1,100
436,194,272410,2,0,L|344:156,1,100,0|0,1:0|0:0,0:0:0:0:
478,304,272740,5,0,0:0:0:0:
492,144,272904,1,0,0:0:0:0:
347,212,273069,1,0,1:0:0:0:
492,144,273234,1,0,0:0:0:0:
368,48,273398,5,0,0:0:0:0:
276,179,273563,1,0,0:0:0:0:
212,26,273729,5,0,1:0:0:0:
344,119,273893,1,0,0:0:0:0:
197,186,274058,6,0,P|92:176|51:100,1,200,4|0,0:0|1:0,0:0:0:0:
201,189,274553,1,0,0:0:0:0:
251,90,274718,2,0,P|203:77|156:91,1,100
254,274,275047,2,0,P|288:238|301:191,1,100,0|0,1:0|0:0,0:0:0:0:
188,342,275377,5,4,0:0:0:0:
56,369,275542,1,0,1:0:0:0:
29,237,275707,1,0,0:0:0:0:
161,210,275872,1,0,1:0:0:0:
111,284,276036,5,0,0:0:0:0:
84,152,276201,1,0,1:0:0:0:
216,125,276366,1,0,3:0:0:0:
243,256,276531,1,0,0:0:0:0:
285,48,276696,5,0,0:0:0:0:
312,178,276860,2,0,P|360:148|424:152,1,100,0|0,0:0|1:0,0:0:0:0:
360,343,277190,2,0,P|294:273|312:179,1,200
492,206,277685,1,0,1:0:0:0:
388,124,277849,6,0,P|351:91|302:79,1,100,8|0,0:3|0:0,0:0:0:0:
385,243,278179,1,0,0:0:0:0:
303,79,278344,2,0,P|220:119|194:220,1,200,0|0,1:0|0:0,0:0:0:0:
437,229,278838,1,0,0:0:0:0:
308,196,279003,1,0,1:0:0:0:
344,325,279168,1,0,0:0:0:0:
388,126,279333,5,4,0:0:0:0:
201,217,279498,2,0,P|135:220|101:205,1,100
336,219,279827,2,0,P|282:128|316:45,1,200,4|0,1:0|0:0,0:0:0:0:
264,291,280322,1,0,0:0:0:0:
206,50,280487,6,0,P|125:48|200:114,1,200,4|0,0:0|0:0,0:0:0:0:
96,42,280981,2,0,P|56:25|1:26,1,100,0|0,1:0|0:0,0:0:0:0:
239,140,281311,2,0,P|273:113|300:65,1,100
82,214,281641,2,0,P|87:257|115:304,1,100,0|0,1:0|0:0,0:0:0:0:
196,84,281970,6,0,L|172:40,1,50,8|0,1:3|0:0,0:0:0:0:
315,300,282135,2,0,L|339:344,1,50,0|0,3:0|0:0,0:0:0:0:
88,248,282300,6,0,L|136:233,1,50,0|0,3:0|3:0,0:0:0:0:
422,136,282464,2,0,L|375:153,1,50,0|0,3:0|0:0,0:0:0:0:
226,209,282630,5,0,0:0:0:0:
239,161,282794,1,0,3:0:0:0:
287,174,282959,1,2,3:2:0:0:
274,222,283124,1,12,1:3:0:0:
256,192,288399,5,4,1:0:0:0:
256,192,288564,12,2,291036,0:0:0:0:
24,187,291366,5,0,0:0:0:0:
43,183,291531,1,2,0:0:0:0:
76,193,291696,1,0,0:0:0:0:
115,238,291860,1,2,0:0:0:0:
192,218,292025,1,0,0:0:0:0:
229,124,292190,1,0,0:0:0:0:
244,291,292355,5,2,0:0:0:0:
312,175,292685,5,2,0:0:0:0:
244,291,293014,5,0,0:0:0:0:
238,137,293179,1,2,0:0:0:0:
312,175,293344,1,0,0:3:0:0:
308,92,293509,1,0,0:0:0:0:
244,291,293674,6,0,P|286:329|336:336,1,100,8|0,1:3|0:0,0:0:0:0:
327,336,294168,1,0,0:0:0:0:
414,177,294498,6,0,P|372:139|322:131,1,100,2|0,0:0|0:0,0:0:0:0:
231,322,294992,2,0,P|269:280|276:230,1,100,0|0,1:0|0:0,0:0:0:0:
257,156,295487,1,2,0:0:0:0:
84,204,295817,6,0,P|46:246|38:296,1,100,2|0,0:0|0:0,0:0:0:0:
158,156,296311,2,0,P|116:118|66:110,1,100,0|0,1:0|0:0,0:0:0:0:
0,126,296805,1,2,0:0:0:0:
211,212,297136,6,0,P|253:250|303:257,1,100,2|0,0:0|0:0,0:0:0:0:
299,6,297630,2,0,P|261:48|253:98,1,100,0|0,1:0|0:0,0:0:0:0:
288,168,298124,1,2,0:0:0:0:
404,170,298289,6,0,P|442:128|449:78,1,100,0|0,0:0|1:0,0:0:0:0:
396,23,298783,1,0,0:0:0:0:
323,128,298948,6,0,P|314:176|330:223,1,100,4|0,0:0|0:0,0:0:0:0:
408,261,299443,1,4,0:3:0:0:
83,103,299772,1,0,1:0:0:0:
207,275,300101,1,0,0:0:0:0:
215,196,300267,1,0,0:0:0:0:
280,240,300432,6,0,P|284:305|267:338,1,100,4|0,0:3|0:0,0:0:0:0:
215,196,301091,2,0,P|270:161|310:168,1,100,0|0,1:0|0:0,0:0:0:0:
370,209,301586,1,0,0:0:0:0:
370,209,301751,6,2,P|396:158|302:166,1,200,4|0,0:3|0:3,0:3:0:0:
159,360,302740,2,0,P|135:331|104:312,1,75.0000028610231,2|0,0:0|0:0,0:0:0:0:
104,312,303069,6,0,P|126:340|169:363,1,75.0000028610231,4|0,1:0|0:0,0:0:0:0:
236,385,303234,6,0,P|271:389|318:375,1,75.0000028610231,0|0,0:3|0:0,0:0:0:0:
378,342,303399,6,0,P|405:320|428:277,1,75.0000028610231,4|0,3:3|3:0,0:0:0:0:
448,210,303564,6,0,P|452:174|438:127,1,75.0000028610231,4|0,3:3|3:0,0:0:0:0:
406,68,303729,5,0,1:0:0:0:
105,314,303893,1,0,0:0:0:0:
179,0,304058,1,0,1:0:0:0:
332,383,304223,6,0,P|336:303|293:238,1,150,4|0,1:2|0:0,0:0:0:0:
110,194,304553,1,0,0:0:0:0:
342,361,304718,6,0,P|333:281|280:223,1,150,0|0,1:0|0:3,0:3:0:0:
16,335,305047,1,2,0:0:0:0:
48,80,305212,1,0,0:0:0:0:
16,335,305377,1,0,1:2:0:0:
319,154,305542,6,0,P|362:221|357:299,1,150,4|0,0:0|0:0,0:0:0:0:
87,98,305871,1,0,0:0:0:0:
339,166,306036,6,0,P|370:238|353:315,1,150,0|0,1:0|0:0,0:0:0:0:
222,49,306366,1,2,0:0:0:0:
174,327,306531,1,0,0:3:0:0:
222,49,306696,1,0,1:3:0:0:
74,374,306860,6,0,P|69:294|181:214,1,225.000008583069,4|0,1:2|0:0,0:0:0:0:
379,369,307190,5,0,0:0:0:0:
174,327,307355,1,0,1:0:0:0:
281,101,307520,5,0,0:0:0:0:
272,348,307685,1,2,0:0:0:0:
134,80,307849,5,0,0:0:0:0:
400,117,308014,1,0,1:0:0:0:
173,291,308179,6,0,B|90:340|1:304|1:304|73:249,1,225.000008583069,4|0,0:0|0:0,0:0:0:0:
233,361,308509,1,0,0:3:0:0:
151,203,308674,1,0,1:3:0:0:
329,211,308838,1,0,0:0:0:0:
228,0,309003,5,0,1:0:0:0:
239,262,309168,1,0,1:0:0:0:
460,120,309333,1,0,0:0:0:0:
370,332,309498,6,0,P|331:230|397:147,1,200,4|0,0:0|0:0,0:0:0:0:
457,73,309992,2,0,P|444:143|375:159,1,150.000005722046,0|0,1:0|0:0,0:0:0:0:
179,6,310322,1,0,0:0:0:0:
399,100,310487,1,0,0:0:0:0:
253,194,310652,1,0,1:0:0:0:
302,39,310816,6,0,L|285:264,1,225.000008583069,4|0,1:2|0:0,0:0:0:0:
276,360,311146,1,0,0:0:0:0:
176,60,311311,1,0,1:0:0:0:
413,301,311476,6,0,P|357:254|285:263,1,150.000005722046,4|0,0:0|0:0,0:0:0:0:
113,212,311805,1,0,0:0:0:0:
413,301,311970,1,0,1:0:0:0:
244,116,312135,6,0,P|304:178|285:262,1,179.999994506836,4|0,1:2|0:0,0:0:0:0:
213,0,312465,1,0,0:0:0:0:
285,260,312630,6,0,L|244:116,1,150.000005722046,0|0,1:0|0:0,0:0:0:0:
384,68,312959,5,0,0:0:0:0:
192,252,313124,1,0,0:0:0:0:
464,356,313289,1,0,1:0:0:0:
404,140,313454,5,4,1:0:0:0:
424,212,313536,1,0,3:0:0:0:
444,284,313619,1,0,3:0:0:0:
236,116,313783,5,0,1:0:0:0:
256,188,313866,1,0,3:0:0:0:
276,260,313948,1,0,3:0:0:0:
68,100,314113,5,4,1:2:0:0:
88,172,314196,1,0,3:0:0:0:
108,244,314278,1,0,3:0:0:0:
404,140,314443,1,0,1:0:0:0:
308,366,314608,1,0,1:0:0:0:
204,18,314772,6,0,P|247:85|242:163,1,150,4|0,1:2|0:0,0:0:0:0:
152,304,315102,1,0,0:0:0:0:
193,3,315267,6,0,P|245:62|253:140,1,150,0|0,1:2|0:0,0:0:0:0:
93,128,315597,1,2,0:0:0:0:
357,20,315761,1,0,0:0:0:0:
155,306,315926,1,0,1:0:0:0:
276,53,316091,6,0,P|356:50|421:93,1,150,4|0,0:0|0:0,0:0:0:0:
384,272,316421,1,0,0:0:0:0:
258,53,316586,6,0,P|336:37|407:69,1,150,0|0,1:0|0:0,0:0:0:0:
180,320,316915,1,2,0:0:0:0:
252,76,317080,1,0,0:0:0:0:
57,188,317245,1,0,1:0:0:0:
420,320,317410,6,0,P|501:250|489:143,1,225.000008583069,4|0,1:2|0:0,0:0:0:0:
195,157,317740,1,0,0:0:0:0:
392,206,317904,1,0,1:0:0:0:
336,11,318069,1,0,0:0:0:0:
276,249,318234,5,2,0:0:0:0:
431,89,318398,1,0,1:0:0:0:
214,35,318564,1,0,1:0:0:0:
213,321,318729,6,0,P|278:354|351:344,1,150.000005722046,4|0,0:0|0:0,0:0:0:0:
279,95,319058,1,0,1:0:0:0:
217,324,319223,1,0,1:0:0:0:
446,264,319388,6,0,P|442:189|397:130,1,150.000005722046,4|0,0:0|0:0,0:0:0:0:
221,327,319718,1,0,1:0:0:0:
450,267,319882,1,0,1:0:0:0:
275,92,320047,5,4,1:0:0:0:
275,92,320130,1,0,3:0:0:0:
276,91,320212,2,0,P|233:118|215:162,1,100
304,352,320542,2,0,P|330:257|292:167,1,200,0|0,1:0|0:0,0:0:0:0:
128,239,321036,2,0,P|166:270|215:274,1,100,0|0,0:0|1:0,0:0:0:0:
319,88,321366,1,0,0:0:0:0:
215,274,321531,6,0,P|188:179|226:89,1,200,8|0,0:3|1:0,0:0:0:0:
445,0,322025,2,0,P|445:99|386:177,1,200
304,56,322520,1,0,1:0:0:0:
392,299,322685,6,0,P|298:326|208:288,1,200,4|0,0:0|0:0,0:0:0:0:
119,43,323179,2,0,P|213:16|304:55,1,200,0|0,1:0|0:0,0:0:0:0:
207,287,323674,1,0,0:0:0:0:
303,55,323838,6,0,P|344:128|340:192,1,150,4|0,1:0|0:0,0:0:0:0:
315,259,324168,6,0,P|319:222|339:192,1,75.0000028610231,8|0,1:3|0:0,0:0:0:0:
424,175,324333,1,0,0:0:0:0:
457,211,324415,1,0,0:0:0:0:
462,260,324498,1,0,3:0:0:0:
435,301,324580,1,0,3:0:0:0:
389,317,324663,1,0,3:0:0:0:
342,301,324745,1,0,3:0:0:0:
315,260,324827,5,4,1:2:0:0:
281,195,324910,1,0,1:0:0:0:
213,167,324992,1,0,1:0:0:0:
143,189,325075,1,0,1:0:0:0:
103,250,325157,1,0,1:0:0:0:
112,323,325240,1,0,1:0:0:0:
166,374,325322,1,0,1:0:0:0:
239,378,325404,1,0,1:0:0:0:
298,335,325487,5,4,1:0:0:0:
307,298,325569,1,0,3:0:0:0:
315,261,325652,1,0,3:0:0:0:
324,225,325734,1,0,3:0:0:0:
332,188,325816,1,0,3:0:0:0:
341,152,325899,1,0,3:0:0:0:
350,115,325981,1,0,3:0:0:0:
358,79,326064,1,0,3:0:0:0:
367,42,326146,5,2,3:2:0:0:
393,68,326229,1,2,3:2:0:0:
419,94,326311,1,2,3:2:0:0:
445,119,326393,1,2,3:2:0:0:
454,82,326476,5,2,3:2:0:0:
408,131,326558,5,2,0:2:0:0:
347,135,326641,5,2,0:2:0:0:
300,110,326723,5,2,0:2:0:0:
273,74,326805,6,0,P|333:135|293:267,1,200,4|0,1:2|1:0,0:0:0:0:
172,100,327300,2,0,P|112:88|72:96,1,100
116,224,327630,1,0,0:0:0:0:
273,74,327794,2,0,P|318:54|369:59,1,100,0|0,1:0|0:0,0:0:0:0:
337,163,328124,1,0,0:0:0:0:
192,8,328289,5,0,0:0:0:0:
116,224,328454,1,0,1:0:0:0:
132,56,328619,5,0,0:0:0:0:
221,241,328783,1,0,1:0:0:0:
68,96,328948,5,0,0:0:0:0:
240,156,329113,1,0,1:0:0:0:
80,304,329278,6,0,P|168:268|264:304,1,200,4|0,0:0|0:0,0:0:0:0:
404,384,329772,2,0,P|366:351|347:305,1,100,0|0,1:0|0:0,0:0:0:0:
434,100,330102,1,0,0:0:0:0:
308,220,330267,1,0,0:0:0:0:
266,50,330432,1,0,1:0:0:0:
206,302,330597,6,0,P|154:269|211:247,1,150.000005722046,4|0,0:0|0:0,0:0:0:0:
229,278,330844,1,0,0:0:0:0:
259,300,330926,1,0,0:0:0:0:
296,306,331009,1,0,0:0:0:0:
331,297,331091,1,0,3:0:0:0:
360,273,331174,1,0,3:0:0:0:
376,239,331256,1,0,3:0:0:0:
376,202,331338,1,0,3:0:0:0:
349,248,331421,5,0,1:3:0:0:
303,273,331503,1,0,1:3:0:0:
251,279,331586,1,0,1:3:0:0:
203,261,331668,1,0,1:3:0:0:
165,225,331751,1,0,1:3:0:0:
145,178,331833,1,0,1:3:0:0:
148,124,331915,6,0,P|176:200|112:292,1,200,4|0,1:2|0:0,0:0:0:0:
80,68,332410,2,0,P|116:44|172:40,1,100,0|0,1:0|0:0,0:0:0:0:
384,196,332740,2,0,P|340:198|290:174,1,100
252,64,333069,1,0,1:0:0:0:
324,280,333234,6,0,B|328:316|316:348|316:348|284:300|284:212,1,200,8|0,0:3|0:0,0:0:0:0:
441,90,333729,2,0,L|344:112,1,100,0|0,1:0|0:0,0:0:0:0:
88,195,334058,2,0,L|185:173,1,100
368,196,334388,1,0,1:0:0:0:
119,70,334553,6,0,P|42:118|87:195,1,200,4|0,0:0|0:0,0:0:0:0:
182,212,334965,1,0,0:0:0:0:
182,212,335047,2,0,P|138:191|89:195,1,100,0|0,1:0|0:0,0:0:0:0:
216,328,335377,1,0,0:0:0:0:
328,64,335542,1,0,0:0:0:0:
418,249,335707,1,0,1:0:0:0:
216,72,335871,6,0,B|192:60|164:64|164:64|220:104|228:192,1,200,4|0,0:1|0:0,0:0:0:0:
192,348,336366,1,0,1:0:0:0:
316,252,336531,1,0,0:0:0:0:
41,217,336696,5,0,1:0:0:0:
227,190,336860,1,0,1:0:0:0:
111,43,337025,1,0,1:0:0:0:
134,229,337190,6,0,P|140:139|236:88,1,200,4|0,1:2|0:0,0:0:0:0:
432,216,337685,2,0,P|373:203|340:162,1,100,0|0,1:0|0:0,0:0:0:0:
268,4,338014,2,0,P|312:44|320:96,1,100
216,240,338344,1,0,1:0:0:0:
420,132,338509,6,0,L|528:76,1,100
340,320,338838,2,0,L|448:264,1,100,0|0,0:0|1:0,0:0:0:0:
128,148,339168,2,0,B|277:71|277:71|260:104,1,200
200,232,339663,1,0,1:0:0:0:
368,48,339827,6,0,B|396:33|396:33|319:182,1,200,4|0,1:2|0:0,0:0:0:0:
216,296,340322,2,0,L|172:200,1,100,0|0,1:0|0:0,0:0:0:0:
31,62,340652,2,0,L|21:161,1,100
247,70,340981,2,0,L|165:12,1,100,0|0,1:0|0:0,0:0:0:0:
229,289,341311,6,0,P|222:202|153:149,1,179.999994506836,8|0,0:3|0:0,0:0:0:0:
153,149,341641,2,0,P|143:206|159:250,1,100,0|0,1:0|0:0,0:0:0:0:
271,76,341970,5,0,1:0:0:0:
376,177,342135,1,0,1:0:0:0:
414,184,342218,1,0,1:0:0:0:
441,155,342301,1,0,1:0:0:0:
428,116,342383,1,0,1:0:0:0:
389,107,342465,2,0,P|375:127|369:151,1,50,0|0,3:0|0:0,0:0:0:0:
351,253,342630,5,4,3:1:0:0:
343,260,342712,1,0,0:0:0:0:
329,264,342794,1,0,3:0:0:0:
310,264,342877,1,0,3:0:0:0:
288,255,342959,1,0,1:0:0:0:
265,229,343042,1,0,3:0:0:0:
249,193,343124,5,0,3:0:0:0:
217,162,343207,1,0,3:0:0:0:
170,149,343289,1,0,3:0:0:0:
117,164,343371,1,0,3:0:0:0:
81,206,343454,1,0,3:0:0:0:
74,261,343536,1,0,3:0:0:0:
100,310,343619,1,0,1:0:0:0:
149,336,343701,1,0,3:0:0:0:
204,331,343783,1,0,3:0:0:0:
246,295,343866,1,0,3:0:0:0:
261,242,343948,5,0,3:0:0:0:
277,202,344031,1,0,3:0:0:0:
314,181,344113,1,0,3:0:0:0:
356,188,344196,1,0,3:0:0:0:
384,221,344278,1,0,1:0:0:0:
384,264,344360,1,0,3:0:0:0:
356,297,344443,1,0,3:0:0:0:
314,305,344525,1,0,3:0:0:0:
277,284,344608,5,0,1:0:0:0:
252,214,344690,1,0,3:0:0:0:
269,142,344772,1,0,1:0:0:0:
322,90,344855,1,0,1:0:0:0:
395,76,344937,1,0,1:0:0:0:
464,103,345020,1,0,1:0:0:0:
507,163,345102,5,4,1:0:0:0:
489,145,345185,1,0,3:0:0:0:
466,138,345267,1,0,3:0:0:0:
442,143,345349,1,0,3:0:0:0:
422,159,345432,1,0,3:0:0:0:
413,181,345514,1,0,3:0:0:0:
415,206,345597,1,0,1:0:0:0:
429,226,345679,1,0,3:0:0:0:
451,238,345761,1,0,3:0:0:0:
476,238,345844,1,0,3:0:0:0:
496,225,345926,5,0,1:0:0:0:
466,185,346009,1,0,3:0:0:0:
418,173,346091,1,0,3:0:0:0:
373,192,346174,1,0,3:0:0:0:
349,235,346256,1,0,1:0:0:0:
357,283,346338,1,0,3:0:0:0:
393,317,346421,1,4,0:0:0:0:
442,321,346503,1,0,3:0:0:0:
483,295,346586,5,0,1:0:0:0:
493,253,346668,1,0,3:0:0:0:
476,216,346751,1,0,3:0:0:0:
447,190,346833,1,0,3:0:0:0:
429,156,346915,1,0,1:0:0:0:
425,121,346998,1,0,3:0:0:0:
431,93,347080,1,0,3:0:0:0:
443,75,347163,1,0,3:0:0:0:
456,65,347245,5,0,1:3:0:0:
441,85,347327,1,0,0:0:0:0:
413,102,347410,1,0,1:0:0:0:
373,105,347492,1,0,1:0:0:0:
328,86,347575,1,0,1:0:0:0:
286,50,347657,1,0,1:0:0:0:
230,19,347740,1,0,1:0:0:0:
160,18,347822,1,0,1:0:0:0:
99,65,347904,5,4,1:2:0:0:
413,337,348069,1,0,1:0:0:0:
208,81,348399,5,8,1:3:0:0:
304,321,348729,5,0,0:0:0:0:
428,45,349058,5,4,0:0:0:0:
84,357,349388,5,0,1:0:0:0:
163,149,349553,1,0,1:0:0:0:
304,321,349718,1,0,1:0:0:0:
512,88,350047,5,0,1:3:0:0:
324,345,350212,1,0,1:0:0:0:
183,56,350377,1,4,1:2:0:0:
