osu file format v14

[General]
AudioFilename: audio.mp3
AudioLeadIn: 0
PreviewTime: 87330
Countdown: 0
SampleSet: Normal
StackLeniency: 0.7
Mode: 1
LetterboxInBreaks: 0
WidescreenStoryboard: 0

[Editor]
Bookmarks: 9312,15572,34355,46876,60440,77136,89657,102179,127222,139744,153831,178875
DistanceSpacing: 0.8
BeatDivisor: 4
GridSize: 8
TimelineZoom: 5.999997

[Metadata]
Title:The Skin Thief
TitleUnicode:The Skin Thief
Artist:Nekrogoblikon
ArtistUnicode:Nekrogoblikon
Creator:radar
Version:Torture
Source:osu!
Tags:greenshell grĂ¼nschale goblin melodic death metal melodeath welcome to bonkers featured artist mappers guild english
BeatmapID:2359000
BeatmapSetID:1129186

[Difficulty]
HPDrainRate:6
CircleSize:5
OverallDifficulty:7.5
ApproachRate:5
SliderMultiplier:1.4
SliderTickRate:1

[Events]
//Background and Video events
0,0,"skinthief_bg.jpg",0,0
//Break Periods
//Storyboard Layer 0 (Background)
//Storyboard Layer 1 (Fail)
//Storyboard Layer 2 (Pass)
//Storyboard Layer 3 (Foreground)
//Storyboard Layer 4 (Overlay)
//Storyboard Sound Samples

[TimingPoints]
205,291.26213592233,4,1,0,90,1,0
1673,291.26213592233,4,1,0,90,1,8
2546,291.26213592233,4,1,0,90,1,0
5749,283.018867924528,4,1,0,90,1,8
6032,283.018867924528,4,1,0,90,1,0
6881,283.018867924528,4,1,0,90,1,8
7164,270.00027000027,4,1,0,90,1,0
9323,260.869565217391,4,1,0,90,1,0
34366,260.869565217391,3,1,0,90,1,0
46887,-90.9090909090909,3,1,0,90,0,1
59408,260.869565217391,4,1,0,90,1,0
59408,-90.9090909090909,4,1,0,90,0,0
59603,-100,4,1,0,90,0,0
77147,260.869565217391,3,1,0,90,1,8
77157,260.869565217391,3,1,0,90,1,0
89678,-90.9090909090909,3,1,0,90,0,1
102200,-90.9090909090909,3,1,0,90,0,0
102461,-100,3,1,0,90,0,0
152287,-133.333333333333,3,1,0,90,0,0
153070,-153.846153846154,3,1,0,90,0,0
153852,-90.9090909090909,3,1,0,90,0,1
178896,-90.9090909090909,3,1,0,90,0,0
179026,-90.9090909090909,3,1,0,50,0,0
179678,-100,3,1,0,50,0,0

[HitObjects]
101,31,9323,5,12,0:0:0:0:
120,306,9583,1,0,0:0:0:0:
120,306,9844,1,0,0:0:0:0:
120,306,9975,1,8,0:0:0:0:
120,306,10105,1,0,0:0:0:0:
120,306,10236,1,0,0:0:0:0:
90,32,10366,1,12,0:0:0:0:
124,318,10627,1,0,0:0:0:0:
123,313,10888,1,8,0:0:0:0:
123,313,11018,1,0,0:0:0:0:
124,318,11149,1,8,0:0:0:0:
124,318,11279,1,0,0:0:0:0:
94,27,11409,1,12,0:0:0:0:
110,318,11670,1,0,0:0:0:0:
101,316,11931,1,0,0:0:0:0:
104,315,12062,1,0,0:0:0:0:
104,312,12192,1,8,0:0:0:0:
104,312,12322,1,0,0:0:0:0:
87,42,12453,1,12,0:0:0:0:
103,310,12714,1,0,0:0:0:0:
104,315,12844,1,0,0:0:0:0:
104,312,12975,1,8,0:0:0:0:
104,312,13105,1,0,0:0:0:0:
109,305,13236,1,8,0:0:0:0:
109,301,13366,1,8,0:0:0:0:
75,20,13496,1,4,0:0:0:0:
256,192,13627,12,0,15453,0:0:0:0:
71,290,15583,5,0,0:0:0:0:
71,290,15714,1,8,0:0:0:0:
71,290,15779,1,8,0:0:0:0:
71,290,15844,1,8,0:0:0:0:
71,290,15975,1,8,0:0:0:0:
71,290,16105,1,0,0:0:0:0:
71,290,16236,1,8,0:0:0:0:
71,290,16301,1,8,0:0:0:0:
71,290,16366,1,8,0:0:0:0:
71,290,16496,1,0,0:0:0:0:
71,290,16627,1,8,0:0:0:0:
71,303,16757,1,0,0:0:0:0:
71,303,16822,1,0,0:0:0:0:
71,303,16888,1,8,0:0:0:0:
71,303,16953,1,0,0:0:0:0:
71,303,17018,1,0,0:0:0:0:
71,303,17083,1,0,0:0:0:0:
71,303,17149,1,8,0:0:0:0:
71,303,17214,1,8,0:0:0:0:
71,303,17279,1,0,0:0:0:0:
71,303,17344,1,0,0:0:0:0:
71,303,17409,1,8,0:0:0:0:
71,303,17475,1,8,0:0:0:0:
71,303,17540,1,8,0:0:0:0:
71,303,17605,1,8,0:0:0:0:
104,42,17670,1,4,0:0:0:0:
86,303,17801,1,8,0:0:0:0:
81,311,17931,1,0,0:0:0:0:
81,311,17996,1,0,0:0:0:0:
81,310,18062,1,8,0:0:0:0:
81,310,18192,1,0,0:0:0:0:
81,310,18322,1,8,0:0:0:0:
82,312,18453,1,8,0:0:0:0:
82,312,18518,1,8,0:0:0:0:
79,313,18583,1,0,0:0:0:0:
91,296,18649,1,0,0:0:0:0:
81,305,18714,1,8,0:0:0:0:
81,310,18844,1,0,0:0:0:0:
81,310,18975,1,0,0:0:0:0:
74,295,19040,1,0,0:0:0:0:
81,310,19105,1,8,0:0:0:0:
80,307,19236,1,0,0:0:0:0:
82,303,19366,1,8,0:0:0:0:
81,305,19496,1,0,0:0:0:0:
81,304,19562,1,8,0:0:0:0:
81,304,19627,1,8,0:0:0:0:
87,300,19692,1,0,0:0:0:0:
78,302,19757,1,8,0:0:0:0:
78,302,19888,1,0,0:0:0:0:
80,307,20018,1,8,0:0:0:0:
82,303,20083,1,8,0:0:0:0:
82,303,20149,1,0,0:0:0:0:
83,278,20279,1,0,0:0:0:0:
83,278,20344,1,0,0:0:0:0:
83,277,20409,1,8,0:0:0:0:
83,277,20475,1,8,0:0:0:0:
83,277,20540,1,0,0:0:0:0:
83,277,20670,1,0,0:0:0:0:
83,278,20801,1,8,0:0:0:0:
85,294,20866,1,0,0:0:0:0:
83,278,20931,1,0,0:0:0:0:
83,278,21062,1,0,0:0:0:0:
80,282,21127,1,8,0:0:0:0:
83,277,21192,1,8,0:0:0:0:
84,283,21322,1,0,0:0:0:0:
84,283,21453,1,8,0:0:0:0:
89,285,21583,1,8,0:0:0:0:
81,294,21649,1,8,0:0:0:0:
89,285,21714,1,0,0:0:0:0:
92,307,21779,1,0,0:0:0:0:
75,27,21844,1,12,0:0:0:0:
98,302,21975,1,0,0:0:0:0:
102,296,22105,1,8,0:0:0:0:
99,298,22170,1,0,0:0:0:0:
99,297,22236,1,8,0:0:0:0:
115,284,22366,1,0,0:0:0:0:
116,283,22496,1,8,0:0:0:0:
116,283,22627,1,0,0:0:0:0:
116,283,22692,1,0,0:0:0:0:
116,283,22757,1,8,0:0:0:0:
116,283,22822,1,8,0:0:0:0:
116,284,22888,1,0,0:0:0:0:
116,284,23018,1,0,0:0:0:0:
115,284,23149,1,8,0:0:0:0:
123,285,23214,1,8,0:0:0:0:
116,283,23279,1,0,0:0:0:0:
119,289,23409,1,0,0:0:0:0:
120,285,23540,1,8,0:0:0:0:
116,284,23670,1,0,0:0:0:0:
116,284,23736,1,0,0:0:0:0:
116,284,23801,1,8,0:0:0:0:
112,277,23931,1,8,0:0:0:0:
112,277,24062,1,0,0:0:0:0:
112,277,24127,1,8,0:0:0:0:
112,277,24192,1,0,0:0:0:0:
112,277,24257,1,0,0:0:0:0:
112,277,24322,1,8,0:0:0:0:
112,277,24453,1,8,0:0:0:0:
112,277,24583,1,0,0:0:0:0:
112,277,24714,1,8,0:0:0:0:
112,277,24779,1,8,0:0:0:0:
112,277,24844,1,8,0:0:0:0:
112,277,24909,1,8,0:0:0:0:
112,277,24975,1,0,0:0:0:0:
107,295,25040,1,0,0:0:0:0:
95,290,25105,1,0,0:0:0:0:
116,280,25170,1,0,0:0:0:0:
116,274,25236,1,8,0:0:0:0:
116,274,25301,1,8,0:0:0:0:
116,273,25366,1,8,0:0:0:0:
116,273,25431,1,8,0:0:0:0:
116,273,25496,1,0,0:0:0:0:
116,273,25562,1,0,0:0:0:0:
116,273,25627,1,0,0:0:0:0:
116,273,25692,1,0,0:0:0:0:
112,12,25757,1,12,0:0:0:0:
111,279,25888,1,0,0:0:0:0:
118,31,26018,1,12,0:0:0:0:
108,280,26149,1,0,0:0:0:0:
108,280,26214,1,0,0:0:0:0:
108,280,26279,1,8,0:0:0:0:
108,280,26344,1,0,0:0:0:0:
108,280,26409,1,0,0:0:0:0:
111,279,26475,1,0,0:0:0:0:
111,279,26540,1,8,0:0:0:0:
111,279,26605,1,8,0:0:0:0:
111,279,26670,1,0,0:0:0:0:
108,280,26736,1,0,0:0:0:0:
108,280,26801,1,8,0:0:0:0:
108,280,26866,1,0,0:0:0:0:
108,280,26931,1,8,0:0:0:0:
108,280,26996,1,0,0:0:0:0:
108,280,27062,1,8,0:0:0:0:
108,280,27127,1,0,0:0:0:0:
108,280,27192,1,0,0:0:0:0:
111,279,27257,1,0,0:0:0:0:
111,279,27322,1,8,0:0:0:0:
111,279,27388,1,0,0:0:0:0:
111,279,27453,1,0,0:0:0:0:
108,280,27518,1,0,0:0:0:0:
108,280,27583,1,8,0:0:0:0:
108,280,27649,1,8,0:0:0:0:
108,280,27714,1,0,0:0:0:0:
108,280,27779,1,0,0:0:0:0:
108,280,27844,1,8,0:0:0:0:
108,280,27909,1,0,0:0:0:0:
108,280,27975,1,8,0:0:0:0:
109,291,28040,1,0,0:0:0:0:
111,279,28105,1,8,0:0:0:0:
111,279,28170,1,8,0:0:0:0:
109,291,28236,1,8,0:0:0:0:
109,291,28301,1,0,0:0:0:0:
108,280,28366,1,8,0:0:0:0:
108,280,28431,1,8,0:0:0:0:
109,291,28496,1,0,0:0:0:0:
116,269,28562,1,0,0:0:0:0:
116,269,28627,1,8,0:0:0:0:
116,269,28692,1,0,0:0:0:0:
116,269,28757,1,8,0:0:0:0:
116,269,28822,1,0,0:0:0:0:
116,269,28888,1,8,0:0:0:0:
116,269,28953,1,0,0:0:0:0:
116,269,29018,1,8,0:0:0:0:
116,269,29083,1,8,0:0:0:0:
116,269,29149,1,0,0:0:0:0:
106,278,29279,1,0,0:0:0:0:
106,278,29344,1,0,0:0:0:0:
106,278,29409,1,8,0:0:0:0:
106,278,29475,1,0,0:0:0:0:
106,278,29540,1,0,0:0:0:0:
106,280,29605,1,0,0:0:0:0:
106,278,29670,1,8,0:0:0:0:
111,284,29736,1,8,0:0:0:0:
111,284,29801,1,8,0:0:0:0:
111,284,29866,1,8,0:0:0:0:
109,284,29931,1,0,0:0:0:0:
109,284,29996,1,0,0:0:0:0:
109,284,30062,1,0,0:0:0:0:
109,284,30127,1,0,0:0:0:0:
109,16,30192,1,12,0:0:0:0:
117,293,30322,1,0,0:0:0:0:
117,293,30388,1,0,0:0:0:0:
117,291,30453,1,8,0:0:0:0:
113,289,30518,1,8,0:0:0:0:
117,291,30583,1,0,0:0:0:0:
117,291,30649,1,0,0:0:0:0:
117,291,30714,1,8,0:0:0:0:
117,291,30779,1,0,0:0:0:0:
118,291,30844,1,8,0:0:0:0:
118,291,30909,1,8,0:0:0:0:
117,293,30975,1,0,0:0:0:0:
117,293,31040,1,0,0:0:0:0:
117,293,31105,1,8,0:0:0:0:
117,293,31170,1,8,0:0:0:0:
117,291,31236,1,0,0:0:0:0:
119,291,31301,1,8,0:0:0:0:
117,291,31366,1,0,0:0:0:0:
117,291,31431,1,0,0:0:0:0:
117,291,31496,1,8,0:0:0:0:
117,291,31562,1,8,0:0:0:0:
118,291,31627,1,0,0:0:0:0:
118,291,31692,1,8,0:0:0:0:
117,293,31757,1,0,0:0:0:0:
117,293,31822,1,0,0:0:0:0:
117,293,31888,1,8,0:0:0:0:
117,293,31953,1,0,0:0:0:0:
117,291,32018,1,8,0:0:0:0:
119,291,32083,1,8,0:0:0:0:
117,291,32149,1,0,0:0:0:0:
117,291,32214,1,0,0:0:0:0:
117,291,32279,1,8,0:0:0:0:
117,291,32344,1,0,0:0:0:0:
118,291,32409,1,8,0:0:0:0:
118,291,32475,1,8,0:0:0:0:
117,293,32540,1,0,0:0:0:0:
117,293,32605,1,0,0:0:0:0:
117,293,32670,1,8,0:0:0:0:
117,293,32736,1,0,0:0:0:0:
117,291,32801,1,8,0:0:0:0:
117,291,32866,1,8,0:0:0:0:
117,291,32931,1,0,0:0:0:0:
117,291,32996,1,0,0:0:0:0:
117,282,33062,1,8,0:0:0:0:
117,282,33127,1,8,0:0:0:0:
117,282,33192,1,8,0:0:0:0:
117,282,33257,1,8,0:0:0:0:
117,282,33322,1,0,0:0:0:0:
120,286,33388,1,0,0:0:0:0:
120,286,33453,1,8,0:0:0:0:
120,286,33518,1,8,0:0:0:0:
127,281,33583,1,8,0:0:0:0:
127,281,33649,1,8,0:0:0:0:
111,291,33714,1,0,0:0:0:0:
88,287,33779,1,0,0:0:0:0:
111,291,33844,1,8,0:0:0:0:
112,286,33909,1,8,0:0:0:0:
112,287,33975,1,8,0:0:0:0:
104,322,34040,1,8,0:0:0:0:
104,0,34105,1,4,0:0:0:0:
109,297,34236,1,0,0:0:0:0:
112,291,34301,1,8,0:0:0:0:
126,10,34366,1,4,0:0:0:0:
108,32,34626,1,12,0:0:0:0:
120,266,34887,1,0,0:0:0:0:
117,286,35018,1,0,0:0:0:0:
108,52,35148,1,12,0:0:0:0:
88,31,35931,1,12,0:0:0:0:
115,302,36192,1,0,0:0:0:0:
90,287,36322,1,0,0:0:0:0:
88,31,36452,1,12,0:0:0:0:
96,270,36713,1,8,0:0:0:0:
98,289,36779,1,8,0:0:0:0:
98,289,36844,1,0,0:0:0:0:
98,289,36909,1,0,0:0:0:0:
98,289,36974,1,8,0:0:0:0:
98,289,37039,1,8,0:0:0:0:
98,289,37105,1,8,0:0:0:0:
98,289,37170,1,0,0:0:0:0:
98,289,37235,1,8,0:0:0:0:
98,289,37300,1,8,0:0:0:0:
98,289,37366,1,0,0:0:0:0:
98,289,37431,1,0,0:0:0:0:
114,25,37496,1,12,0:0:0:0:
124,28,37757,1,12,0:0:0:0:
94,282,38018,1,0,0:0:0:0:
94,282,38083,1,0,0:0:0:0:
94,282,38148,1,8,0:0:0:0:
94,282,38213,1,0,0:0:0:0:
85,18,38279,1,12,0:0:0:0:
81,295,38539,1,0,0:0:0:0:
91,291,38670,1,0,0:0:0:0:
96,289,38735,1,0,0:0:0:0:
96,289,38800,1,0,0:0:0:0:
96,289,38865,1,0,0:0:0:0:
98,289,38931,1,0,0:0:0:0:
96,289,38996,1,0,0:0:0:0:
97,12,39061,1,12,0:0:0:0:
96,62,39322,1,4,0:0:0:0:
96,62,39583,1,12,0:0:0:0:
89,290,39713,1,0,0:0:0:0:
94,291,39844,1,0,0:0:0:0:
94,291,39909,1,8,0:0:0:0:
93,291,39974,1,8,0:0:0:0:
97,291,40039,1,0,0:0:0:0:
96,296,40105,1,8,0:0:0:0:
96,296,40170,1,0,0:0:0:0:
96,296,40235,1,0,0:0:0:0:
96,296,40300,1,0,0:0:0:0:
96,296,40365,1,8,0:0:0:0:
96,296,40431,1,8,0:0:0:0:
96,296,40496,1,8,0:0:0:0:
96,296,40561,1,8,0:0:0:0:
76,9,40626,1,4,0:0:0:0:
114,50,40887,1,12,0:0:0:0:
92,291,41148,1,0,0:0:0:0:
92,291,41279,1,0,0:0:0:0:
86,22,41409,1,12,0:0:0:0:
92,291,41539,1,0,0:0:0:0:
92,291,41605,1,0,0:0:0:0:
92,291,41670,1,0,0:0:0:0:
92,291,41735,1,0,0:0:0:0:
92,291,41800,1,8,0:0:0:0:
90,277,41865,1,8,0:0:0:0:
90,277,41931,1,0,0:0:0:0:
90,277,41996,1,0,0:0:0:0:
90,278,42061,1,0,0:0:0:0:
90,278,42126,1,0,0:0:0:0:
116,9,42192,1,12,0:0:0:0:
95,279,42322,1,0,0:0:0:0:
96,273,42452,1,8,0:0:0:0:
96,273,42583,1,8,0:0:0:0:
96,273,42713,1,0,0:0:0:0:
96,273,42844,1,0,0:0:0:0:
119,37,42974,1,12,0:0:0:0:
110,283,43105,1,8,0:0:0:0:
101,287,43170,1,0,0:0:0:0:
101,287,43235,1,8,0:0:0:0:
101,287,43300,1,0,0:0:0:0:
104,276,43365,1,8,0:0:0:0:
104,276,43431,1,0,0:0:0:0:
103,287,43496,1,8,0:0:0:0:
103,287,43561,1,8,0:0:0:0:
107,286,43626,1,0,0:0:0:0:
110,283,43692,1,0,0:0:0:0:
111,15,43757,1,12,0:0:0:0:
106,43,44018,1,12,0:0:0:0:
125,309,44279,1,0,0:0:0:0:
119,288,44409,1,0,0:0:0:0:
109,37,44539,1,12,0:0:0:0:
108,279,44670,1,0,0:0:0:0:
109,279,44735,1,0,0:0:0:0:
109,279,44800,1,8,0:0:0:0:
109,279,44865,1,8,0:0:0:0:
109,279,44931,1,0,0:0:0:0:
109,279,44996,1,0,0:0:0:0:
109,279,45061,1,8,0:0:0:0:
109,279,45126,1,0,0:0:0:0:
109,279,45192,1,0,0:0:0:0:
108,279,45257,1,0,0:0:0:0:
108,279,45322,1,8,0:0:0:0:
108,279,45387,1,8,0:0:0:0:
108,279,45452,1,8,0:0:0:0:
109,279,45518,1,8,0:0:0:0:
115,268,45583,1,0,0:0:0:0:
114,268,45648,1,0,0:0:0:0:
111,270,45713,1,0,0:0:0:0:
111,270,45779,1,0,0:0:0:0:
112,269,45844,1,0,0:0:0:0:
112,269,45909,1,0,0:0:0:0:
112,269,45974,1,0,0:0:0:0:
112,269,46039,1,0,0:0:0:0:
95,17,46105,1,12,0:0:0:0:
107,293,46887,1,8,0:0:0:0:
107,293,46952,1,0,0:0:0:0:
107,293,47018,1,8,0:0:0:0:
107,293,47083,1,8,0:0:0:0:
107,293,47148,1,0,0:0:0:0:
107,293,47213,1,0,0:0:0:0:
107,293,47279,1,0,0:0:0:0:
107,293,47344,1,0,0:0:0:0:
107,293,47409,1,8,0:0:0:0:
107,293,47474,1,8,0:0:0:0:
111,293,47539,1,0,0:0:0:0:
111,293,47605,1,0,0:0:0:0:
111,293,47670,1,8,0:0:0:0:
111,293,47735,1,8,0:0:0:0:
111,293,47800,1,8,0:0:0:0:
111,293,47865,1,8,0:0:0:0:
111,293,47931,1,8,0:0:0:0:
111,293,47996,1,8,0:0:0:0:
111,293,48061,1,8,0:0:0:0:
111,293,48126,1,8,0:0:0:0:
111,293,48192,1,0,0:0:0:0:
111,293,48257,1,0,0:0:0:0:
111,293,48322,1,0,0:0:0:0:
120,289,48387,1,0,0:0:0:0:
124,287,48452,1,0,0:0:0:0:
124,287,48518,1,0,0:0:0:0:
124,287,48583,1,0,0:0:0:0:
124,287,48648,1,0,0:0:0:0:
124,287,48713,1,8,0:0:0:0:
111,287,48779,1,8,0:0:0:0:
112,287,48844,1,0,0:0:0:0:
112,287,48909,1,0,0:0:0:0:
113,287,48974,1,8,0:0:0:0:
113,287,49039,1,8,0:0:0:0:
115,287,49105,1,8,0:0:0:0:
115,287,49170,1,0,0:0:0:0:
115,287,49235,1,8,0:0:0:0:
115,287,49300,1,8,0:0:0:0:
118,288,49365,1,8,0:0:0:0:
118,288,49431,1,0,0:0:0:0:
124,287,49496,1,8,0:0:0:0:
120,288,49561,1,8,0:0:0:0:
120,288,49626,1,0,0:0:0:0:
120,288,49692,1,0,0:0:0:0:
120,288,49757,1,8,0:0:0:0:
120,288,49822,1,0,0:0:0:0:
120,288,49887,1,8,0:0:0:0:
120,288,49952,1,0,0:0:0:0:
120,288,50018,1,8,0:0:0:0:
115,287,50083,1,8,0:0:0:0:
115,283,50148,1,8,0:0:0:0:
116,283,50213,1,8,0:0:0:0:
117,287,50279,1,0,0:0:0:0:
120,288,50344,1,0,0:0:0:0:
120,288,50409,1,0,0:0:0:0:
120,288,50474,1,0,0:0:0:0:
120,288,50539,1,8,0:0:0:0:
120,288,50605,1,8,0:0:0:0:
120,288,50670,1,0,0:0:0:0:
120,288,50735,1,0,0:0:0:0:
120,288,50800,1,8,0:0:0:0:
120,287,50865,1,8,0:0:0:0:
120,287,50931,1,8,0:0:0:0:
117,287,50996,1,8,0:0:0:0:
117,287,51061,1,0,0:0:0:0:
120,288,51126,1,0,0:0:0:0:
120,288,51192,1,0,0:0:0:0:
120,288,51257,1,0,0:0:0:0:
120,288,51322,1,8,0:0:0:0:
120,288,51387,1,8,0:0:0:0:
120,288,51452,1,0,0:0:0:0:
120,288,51518,1,0,0:0:0:0:
120,288,51583,1,8,0:0:0:0:
120,287,51648,1,8,0:0:0:0:
120,287,51713,1,0,0:0:0:0:
117,287,51779,1,0,0:0:0:0:
117,287,51844,1,8,0:0:0:0:
120,288,51909,1,0,0:0:0:0:
120,288,51974,1,8,0:0:0:0:
120,288,52039,1,0,0:0:0:0:
120,288,52105,1,8,0:0:0:0:
103,302,52170,1,0,0:0:0:0:
103,302,52235,1,0,0:0:0:0:
103,302,52300,1,0,0:0:0:0:
119,303,52365,1,8,0:0:0:0:
119,303,52431,1,8,0:0:0:0:
119,303,52496,1,8,0:0:0:0:
119,303,52561,1,8,0:0:0:0:
119,303,52626,1,0,0:0:0:0:
119,303,52692,1,0,0:0:0:0:
119,303,52757,1,0,0:0:0:0:
119,303,52822,1,0,0:0:0:0:
103,318,52887,1,8,0:0:0:0:
119,303,53018,1,8,0:0:0:0:
96,290,53148,1,8,0:0:0:0:
96,290,53213,1,8,0:0:0:0:
96,290,53279,1,8,0:0:0:0:
96,290,53344,1,8,0:0:0:0:
96,297,53409,1,0,0:0:0:0:
96,297,53474,1,0,0:0:0:0:
96,297,53539,1,0,0:0:0:0:
96,297,53605,1,0,0:0:0:0:
96,297,53670,1,8,0:0:0:0:
96,297,53735,1,8,0:0:0:0:
96,297,53800,1,8,0:0:0:0:
96,297,53865,1,8,0:0:0:0:
96,297,53931,1,0,0:0:0:0:
96,297,53996,1,0,0:0:0:0:
96,297,54061,1,0,0:0:0:0:
104,296,54126,1,0,0:0:0:0:
104,293,54192,1,8,0:0:0:0:
104,293,54257,1,8,0:0:0:0:
104,293,54322,1,8,0:0:0:0:
103,293,54387,1,8,0:0:0:0:
103,293,54452,1,0,0:0:0:0:
103,293,54518,1,0,0:0:0:0:
103,293,54583,1,0,0:0:0:0:
103,293,54648,1,0,0:0:0:0:
103,293,54713,1,8,0:0:0:0:
109,286,54779,1,8,0:0:0:0:
109,286,54844,1,8,0:0:0:0:
111,286,54909,1,8,0:0:0:0:
111,285,54974,1,8,0:0:0:0:
111,285,55039,1,8,0:0:0:0:
111,285,55105,1,8,0:0:0:0:
111,285,55170,1,8,0:0:0:0:
111,285,55235,1,0,0:0:0:0:
111,285,55300,1,0,0:0:0:0:
111,285,55365,1,0,0:0:0:0:
111,285,55431,1,0,0:0:0:0:
103,293,55496,1,8,0:0:0:0:
101,291,55561,1,0,0:0:0:0:
101,291,55626,1,8,0:0:0:0:
115,292,55692,1,0,0:0:0:0:
115,292,55757,1,8,0:0:0:0:
115,292,55822,1,8,0:0:0:0:
115,292,55887,1,0,0:0:0:0:
112,293,55952,1,0,0:0:0:0:
112,293,56018,1,8,0:0:0:0:
110,302,56083,1,8,0:0:0:0:
110,302,56148,1,0,0:0:0:0:
110,302,56213,1,0,0:0:0:0:
116,288,56279,1,8,0:0:0:0:
116,288,56344,1,8,0:0:0:0:
120,289,56409,1,8,0:0:0:0:
116,290,56474,1,8,0:0:0:0:
116,290,56539,1,8,0:0:0:0:
120,289,56605,1,8,0:0:0:0:
120,289,56670,1,8,0:0:0:0:
120,289,56735,1,8,0:0:0:0:
115,293,56800,1,0,0:0:0:0:
115,293,56865,1,0,0:0:0:0:
115,293,56931,1,0,0:0:0:0:
115,293,56996,1,0,0:0:0:0:
115,293,57061,1,8,0:0:0:0:
115,293,57126,1,8,0:0:0:0:
115,293,57192,1,8,0:0:0:0:
116,290,57257,1,8,0:0:0:0:
116,290,57322,1,8,0:0:0:0:
115,293,57387,1,8,0:0:0:0:
115,293,57452,1,0,0:0:0:0:
115,293,57518,1,0,0:0:0:0:
115,293,57583,1,8,0:0:0:0:
115,293,57648,1,8,0:0:0:0:
115,293,57713,1,8,0:0:0:0:
115,293,57779,1,0,0:0:0:0:
115,293,57844,1,8,0:0:0:0:
115,293,57909,1,8,0:0:0:0:
115,293,57974,1,8,0:0:0:0:
116,290,58039,1,8,0:0:0:0:
116,290,58105,1,0,0:0:0:0:
115,293,58170,1,0,0:0:0:0:
115,293,58235,1,0,0:0:0:0:
115,293,58300,1,0,0:0:0:0:
115,293,58365,1,8,0:0:0:0:
115,293,58431,1,8,0:0:0:0:
115,293,58496,1,8,0:0:0:0:
115,293,58561,1,0,0:0:0:0:
110,285,58626,1,8,0:0:0:0:
110,285,58692,1,8,0:0:0:0:
110,285,58757,1,8,0:0:0:0:
110,285,58822,1,8,0:0:0:0:
116,290,58887,1,0,0:0:0:0:
112,287,58952,1,0,0:0:0:0:
112,287,59018,1,0,0:0:0:0:
112,287,59083,1,0,0:0:0:0:
112,287,59148,1,8,0:0:0:0:
115,293,59213,1,8,0:0:0:0:
122,281,59279,1,0,0:0:0:0:
122,281,59344,1,0,0:0:0:0:
91,30,59408,1,12,0:0:0:0:
124,293,59603,1,0,0:0:0:0:
124,293,59668,1,0,0:0:0:0:
122,293,59799,1,0,0:0:0:0:
122,293,59929,1,0,0:0:0:0:
122,293,60060,1,0,0:0:0:0:
120,294,60125,1,0,0:0:0:0:
121,293,60190,1,0,0:0:0:0:
121,293,60321,1,0,0:0:0:0:
104,42,60451,1,12,0:0:0:0:
86,303,60582,1,0,0:0:0:0:
81,311,60712,1,0,0:0:0:0:
81,311,60777,1,8,0:0:0:0:
81,310,60843,1,8,0:0:0:0:
81,310,60973,1,8,0:0:0:0:
81,310,61103,1,0,0:0:0:0:
82,312,61234,1,8,0:0:0:0:
82,312,61299,1,0,0:0:0:0:
79,313,61364,1,8,0:0:0:0:
91,296,61429,1,8,0:0:0:0:
81,305,61494,1,0,0:0:0:0:
81,310,61625,1,0,0:0:0:0:
81,310,61756,1,0,0:0:0:0:
74,295,61821,1,0,0:0:0:0:
81,310,61886,1,8,0:0:0:0:
80,307,62017,1,0,0:0:0:0:
82,303,62147,1,8,0:0:0:0:
81,305,62277,1,0,0:0:0:0:
81,304,62343,1,8,0:0:0:0:
81,304,62408,1,8,0:0:0:0:
87,300,62473,1,0,0:0:0:0:
78,302,62538,1,8,0:0:0:0:
78,302,62669,1,0,0:0:0:0:
80,307,62799,1,8,0:0:0:0:
82,303,62864,1,8,0:0:0:0:
82,303,62930,1,0,0:0:0:0:
83,278,63060,1,0,0:0:0:0:
83,278,63125,1,8,0:0:0:0:
83,277,63190,1,8,0:0:0:0:
83,277,63256,1,0,0:0:0:0:
83,277,63321,1,8,0:0:0:0:
83,277,63451,1,0,0:0:0:0:
83,278,63582,1,8,0:0:0:0:
85,294,63647,1,0,0:0:0:0:
83,278,63712,1,0,0:0:0:0:
83,278,63843,1,0,0:0:0:0:
80,282,63908,1,8,0:0:0:0:
83,277,63973,1,8,0:0:0:0:
84,283,64103,1,0,0:0:0:0:
84,283,64234,1,8,0:0:0:0:
89,285,64364,1,8,0:0:0:0:
81,294,64430,1,8,0:0:0:0:
89,285,64495,1,0,0:0:0:0:
92,307,64560,1,0,0:0:0:0:
75,27,64625,1,12,0:0:0:0:
98,302,64756,1,0,0:0:0:0:
102,296,64886,1,8,0:0:0:0:
99,298,64951,1,0,0:0:0:0:
99,297,65017,1,8,0:0:0:0:
115,284,65147,1,0,0:0:0:0:
116,283,65277,1,8,0:0:0:0:
116,283,65408,1,0,0:0:0:0:
116,283,65473,1,0,0:0:0:0:
116,283,65538,1,8,0:0:0:0:
116,283,65603,1,8,0:0:0:0:
116,284,65669,1,0,0:0:0:0:
116,284,65799,1,0,0:0:0:0:
115,284,65930,1,8,0:0:0:0:
123,285,65995,1,8,0:0:0:0:
116,283,66060,1,0,0:0:0:0:
119,289,66190,1,0,0:0:0:0:
120,285,66321,1,8,0:0:0:0:
116,284,66451,1,0,0:0:0:0:
116,284,66517,1,0,0:0:0:0:
116,284,66582,1,8,0:0:0:0:
112,277,66712,1,8,0:0:0:0:
112,277,66843,1,0,0:0:0:0:
112,277,66908,1,8,0:0:0:0:
112,277,66973,1,0,0:0:0:0:
112,277,67038,1,0,0:0:0:0:
112,277,67103,1,8,0:0:0:0:
112,277,67234,1,8,0:0:0:0:
97,290,67299,1,0,0:0:0:0:
112,277,67364,1,0,0:0:0:0:
112,277,67494,1,8,0:0:0:0:
112,277,67560,1,8,0:0:0:0:
112,277,67625,1,8,0:0:0:0:
112,277,67690,1,8,0:0:0:0:
112,277,67755,1,0,0:0:0:0:
107,295,67821,1,0,0:0:0:0:
95,290,67886,1,0,0:0:0:0:
116,280,67951,1,0,0:0:0:0:
116,274,68016,1,8,0:0:0:0:
116,274,68081,1,8,0:0:0:0:
116,273,68147,1,8,0:0:0:0:
116,273,68212,1,8,0:0:0:0:
116,273,68277,1,0,0:0:0:0:
116,273,68342,1,0,0:0:0:0:
116,273,68407,1,0,0:0:0:0:
116,273,68473,1,0,0:0:0:0:
112,12,68538,1,12,0:0:0:0:
111,279,68669,1,0,0:0:0:0:
118,31,68799,1,12,0:0:0:0:
108,280,68930,1,0,0:0:0:0:
108,280,68995,1,0,0:0:0:0:
108,280,69060,1,8,0:0:0:0:
108,280,69125,1,0,0:0:0:0:
108,280,69190,1,0,0:0:0:0:
111,279,69256,1,0,0:0:0:0:
111,279,69321,1,8,0:0:0:0:
111,279,69386,1,8,0:0:0:0:
111,279,69451,1,0,0:0:0:0:
108,280,69517,1,0,0:0:0:0:
108,280,69582,1,8,0:0:0:0:
108,280,69647,1,0,0:0:0:0:
108,280,69712,1,8,0:0:0:0:
108,280,69777,1,0,0:0:0:0:
108,280,69843,1,8,0:0:0:0:
108,280,69908,1,0,0:0:0:0:
108,280,69973,1,0,0:0:0:0:
111,279,70038,1,0,0:0:0:0:
111,279,70103,1,8,0:0:0:0:
111,279,70169,1,0,0:0:0:0:
111,279,70234,1,0,0:0:0:0:
108,280,70299,1,0,0:0:0:0:
108,280,70364,1,8,0:0:0:0:
108,280,70430,1,8,0:0:0:0:
108,280,70495,1,0,0:0:0:0:
108,280,70560,1,0,0:0:0:0:
108,280,70625,1,8,0:0:0:0:
108,280,70690,1,0,0:0:0:0:
108,280,70756,1,8,0:0:0:0:
109,291,70821,1,0,0:0:0:0:
111,279,70886,1,8,0:0:0:0:
111,279,70951,1,8,0:0:0:0:
109,291,71017,1,8,0:0:0:0:
109,291,71082,1,0,0:0:0:0:
108,280,71147,1,8,0:0:0:0:
108,280,71212,1,8,0:0:0:0:
109,291,71277,1,0,0:0:0:0:
116,269,71343,1,0,0:0:0:0:
116,269,71408,1,8,0:0:0:0:
116,269,71473,1,0,0:0:0:0:
116,269,71538,1,8,0:0:0:0:
116,269,71603,1,0,0:0:0:0:
116,269,71669,1,8,0:0:0:0:
116,269,71734,1,0,0:0:0:0:
116,269,71799,1,8,0:0:0:0:
116,269,71864,1,8,0:0:0:0:
116,269,71930,1,0,0:0:0:0:
106,278,72060,1,0,0:0:0:0:
106,278,72125,1,0,0:0:0:0:
106,278,72190,1,8,0:0:0:0:
106,278,72255,1,8,0:0:0:0:
106,278,72321,1,0,0:0:0:0:
106,278,72451,1,0,0:0:0:0:
111,284,72517,1,0,0:0:0:0:
111,284,72582,1,0,0:0:0:0:
111,284,72647,1,0,0:0:0:0:
109,284,72712,1,8,0:0:0:0:
109,284,72777,1,8,0:0:0:0:
109,284,72843,1,0,0:0:0:0:
109,284,72908,1,0,0:0:0:0:
109,284,72973,1,8,0:0:0:0:
110,288,73038,1,8,0:0:0:0:
117,293,73103,1,8,0:0:0:0:
117,293,73169,1,0,0:0:0:0:
117,291,73234,1,8,0:0:0:0:
113,289,73299,1,8,0:0:0:0:
117,291,73364,1,8,0:0:0:0:
117,291,73430,1,0,0:0:0:0:
117,291,73495,1,8,0:0:0:0:
117,291,73560,1,0,0:0:0:0:
118,291,73625,1,8,0:0:0:0:
118,291,73690,1,0,0:0:0:0:
117,293,73756,1,8,0:0:0:0:
117,293,73821,1,8,0:0:0:0:
117,293,73886,1,0,0:0:0:0:
117,293,73951,1,0,0:0:0:0:
117,291,74016,1,8,0:0:0:0:
119,291,74082,1,8,0:0:0:0:
117,291,74147,1,0,0:0:0:0:
117,291,74212,1,0,0:0:0:0:
117,291,74277,1,8,0:0:0:0:
117,291,74343,1,8,0:0:0:0:
118,291,74408,1,8,0:0:0:0:
118,291,74473,1,0,0:0:0:0:
117,293,74538,1,8,0:0:0:0:
117,293,74603,1,8,0:0:0:0:
117,293,74669,1,0,0:0:0:0:
117,293,74734,1,0,0:0:0:0:
117,291,74799,1,8,0:0:0:0:
119,291,74864,1,8,0:0:0:0:
117,291,74930,1,0,0:0:0:0:
117,291,74995,1,0,0:0:0:0:
117,291,75060,1,8,0:0:0:0:
117,291,75125,1,0,0:0:0:0:
118,291,75190,1,8,0:0:0:0:
118,291,75256,1,8,0:0:0:0:
117,293,75321,1,0,0:0:0:0:
117,293,75386,1,0,0:0:0:0:
117,293,75451,1,8,0:0:0:0:
117,293,75517,1,0,0:0:0:0:
117,291,75582,1,8,0:0:0:0:
117,291,75647,1,8,0:0:0:0:
117,291,75712,1,8,0:0:0:0:
117,291,75777,1,0,0:0:0:0:
117,282,75843,1,8,0:0:0:0:
117,282,75908,1,8,0:0:0:0:
117,282,75973,1,8,0:0:0:0:
117,282,76038,1,8,0:0:0:0:
117,282,76103,1,0,0:0:0:0:
120,286,76169,1,0,0:0:0:0:
120,286,76234,1,8,0:0:0:0:
120,286,76299,1,8,0:0:0:0:
127,281,76364,1,8,0:0:0:0:
127,281,76430,1,8,0:0:0:0:
111,291,76495,1,0,0:0:0:0:
88,287,76560,1,0,0:0:0:0:
111,291,76625,1,8,0:0:0:0:
112,286,76690,1,8,0:0:0:0:
112,287,76756,1,8,0:0:0:0:
104,322,76821,1,8,0:0:0:0:
104,0,76886,1,4,0:0:0:0:
109,297,77016,1,0,0:0:0:0:
126,10,77157,1,4,0:0:0:0:
108,32,77417,1,12,0:0:0:0:
120,272,77678,1,0,0:0:0:0:
117,286,77809,1,0,0:0:0:0:
108,52,77939,1,12,0:0:0:0:
88,31,78722,1,12,0:0:0:0:
80,275,78983,1,0,0:0:0:0:
90,287,79113,1,0,0:0:0:0:
65,257,79243,1,8,0:0:0:0:
96,270,79504,1,8,0:0:0:0:
98,289,79570,1,8,0:0:0:0:
98,289,79635,1,0,0:0:0:0:
98,289,79700,1,0,0:0:0:0:
98,289,79765,1,8,0:0:0:0:
98,289,79830,1,8,0:0:0:0:
98,289,79896,1,8,0:0:0:0:
98,289,79961,1,0,0:0:0:0:
98,289,80026,1,8,0:0:0:0:
98,289,80091,1,8,0:0:0:0:
98,289,80157,1,0,0:0:0:0:
98,289,80222,1,0,0:0:0:0:
114,25,80287,1,12,0:0:0:0:
124,28,80548,1,12,0:0:0:0:
94,282,80809,1,0,0:0:0:0:
94,282,80874,1,0,0:0:0:0:
94,282,80939,1,8,0:0:0:0:
94,282,81004,1,0,0:0:0:0:
85,18,81070,1,12,0:0:0:0:
81,295,81330,1,0,0:0:0:0:
109,299,81396,1,0,0:0:0:0:
91,291,81461,1,0,0:0:0:0:
96,289,81526,1,0,0:0:0:0:
96,289,81591,1,0,0:0:0:0:
96,289,81656,1,0,0:0:0:0:
98,289,81722,1,0,0:0:0:0:
96,289,81787,1,0,0:0:0:0:
97,12,81852,1,12,0:0:0:0:
96,62,82113,1,4,0:0:0:0:
96,62,82374,1,12,0:0:0:0:
89,290,82504,1,0,0:0:0:0:
94,291,82635,1,0,0:0:0:0:
94,291,82700,1,8,0:0:0:0:
93,291,82765,1,8,0:0:0:0:
97,291,82830,1,0,0:0:0:0:
96,296,82896,1,8,0:0:0:0:
96,296,82961,1,0,0:0:0:0:
96,296,83026,1,0,0:0:0:0:
96,296,83091,1,0,0:0:0:0:
96,296,83156,1,8,0:0:0:0:
96,296,83222,1,8,0:0:0:0:
96,296,83287,1,8,0:0:0:0:
96,296,83352,1,8,0:0:0:0:
76,9,83417,1,4,0:0:0:0:
114,50,83678,1,12,0:0:0:0:
92,291,83939,1,0,0:0:0:0:
92,291,84070,1,0,0:0:0:0:
86,22,84200,1,12,0:0:0:0:
92,291,84330,1,0,0:0:0:0:
92,291,84396,1,0,0:0:0:0:
92,291,84461,1,0,0:0:0:0:
92,291,84526,1,0,0:0:0:0:
92,291,84591,1,8,0:0:0:0:
90,277,84656,1,8,0:0:0:0:
90,277,84722,1,0,0:0:0:0:
90,277,84787,1,0,0:0:0:0:
90,278,84852,1,0,0:0:0:0:
90,278,84917,1,0,0:0:0:0:
116,9,84983,1,12,0:0:0:0:
95,279,85113,1,0,0:0:0:0:
96,273,85243,1,8,0:0:0:0:
96,273,85374,1,8,0:0:0:0:
96,273,85504,1,0,0:0:0:0:
96,273,85635,1,0,0:0:0:0:
119,37,85765,1,12,0:0:0:0:
110,283,85896,1,8,0:0:0:0:
101,287,85961,1,0,0:0:0:0:
101,287,86026,1,8,0:0:0:0:
101,287,86091,1,0,0:0:0:0:
104,276,86156,1,8,0:0:0:0:
104,276,86222,1,0,0:0:0:0:
103,287,86287,1,8,0:0:0:0:
103,287,86352,1,8,0:0:0:0:
107,286,86417,1,8,0:0:0:0:
110,283,86483,1,0,0:0:0:0:
81,301,86548,1,8,0:0:0:0:
96,301,86613,1,0,0:0:0:0:
96,300,86678,1,0,0:0:0:0:
96,299,86743,1,0,0:0:0:0:
62,297,86809,1,8,0:0:0:0:
95,304,86874,1,0,0:0:0:0:
95,304,86939,1,0,0:0:0:0:
95,304,87004,1,0,0:0:0:0:
99,280,87070,1,8,0:0:0:0:
96,294,87135,1,0,0:0:0:0:
119,288,87200,1,8,0:0:0:0:
111,297,87265,1,0,0:0:0:0:
109,37,87330,1,12,0:0:0:0:
108,279,87461,1,0,0:0:0:0:
109,279,87526,1,0,0:0:0:0:
109,279,87591,1,8,0:0:0:0:
109,279,87656,1,8,0:0:0:0:
109,279,87722,1,0,0:0:0:0:
109,279,87787,1,0,0:0:0:0:
109,279,87852,1,8,0:0:0:0:
109,279,87917,1,0,0:0:0:0:
109,279,87983,1,0,0:0:0:0:
108,279,88048,1,0,0:0:0:0:
108,279,88113,1,8,0:0:0:0:
108,279,88178,1,8,0:0:0:0:
108,279,88243,1,8,0:0:0:0:
109,279,88309,1,8,0:0:0:0:
115,268,88374,1,0,0:0:0:0:
114,268,88439,1,0,0:0:0:0:
111,270,88504,1,0,0:0:0:0:
111,270,88570,1,0,0:0:0:0:
112,269,88635,1,8,0:0:0:0:
112,269,88700,1,8,0:0:0:0:
112,269,88765,1,0,0:0:0:0:
112,269,88830,1,0,0:0:0:0:
95,17,88896,1,12,0:0:0:0:
117,283,89678,1,8,0:0:0:0:
117,283,89743,1,0,0:0:0:0:
117,283,89809,1,8,0:0:0:0:
117,283,89874,1,8,0:0:0:0:
117,292,89939,1,0,0:0:0:0:
117,292,90004,1,0,0:0:0:0:
117,292,90070,1,0,0:0:0:0:
117,292,90135,1,0,0:0:0:0:
117,292,90200,1,8,0:0:0:0:
117,292,90265,1,8,0:0:0:0:
117,292,90330,1,0,0:0:0:0:
117,292,90396,1,0,0:0:0:0:
117,292,90461,1,8,0:0:0:0:
117,292,90526,1,8,0:0:0:0:
117,292,90591,1,8,0:0:0:0:
117,292,90656,1,8,0:0:0:0:
117,292,90722,1,8,0:0:0:0:
117,292,90787,1,8,0:0:0:0:
117,292,90852,1,8,0:0:0:0:
117,292,90917,1,8,0:0:0:0:
117,292,90983,1,0,0:0:0:0:
117,292,91048,1,0,0:0:0:0:
117,292,91113,1,0,0:0:0:0:
117,292,91178,1,0,0:0:0:0:
117,292,91243,1,0,0:0:0:0:
117,292,91309,1,0,0:0:0:0:
117,292,91374,1,0,0:0:0:0:
117,292,91439,1,0,0:0:0:0:
117,292,91504,1,8,0:0:0:0:
117,292,91570,1,8,0:0:0:0:
125,286,91635,1,0,0:0:0:0:
125,286,91700,1,0,0:0:0:0:
125,286,91765,1,8,0:0:0:0:
125,286,91830,1,8,0:0:0:0:
125,286,91896,1,0,0:0:0:0:
125,286,91961,1,0,0:0:0:0:
129,285,92026,1,8,0:0:0:0:
129,285,92091,1,8,0:0:0:0:
129,285,92156,1,8,0:0:0:0:
129,285,92222,1,0,0:0:0:0:
125,283,92287,1,8,0:0:0:0:
125,283,92352,1,8,0:0:0:0:
125,286,92417,1,8,0:0:0:0:
125,286,92483,1,0,0:0:0:0:
125,286,92548,1,8,0:0:0:0:
125,286,92613,1,8,0:0:0:0:
125,286,92678,1,0,0:0:0:0:
125,286,92743,1,0,0:0:0:0:
125,289,92809,1,8,0:0:0:0:
125,289,92874,1,8,0:0:0:0:
125,289,92939,1,8,0:0:0:0:
125,289,93004,1,8,0:0:0:0:
125,289,93070,1,8,0:0:0:0:
125,289,93135,1,8,0:0:0:0:
125,286,93200,1,0,0:0:0:0:
125,286,93265,1,0,0:0:0:0:
121,299,93330,1,8,0:0:0:0:
121,299,93396,1,8,0:0:0:0:
121,299,93461,1,0,0:0:0:0:
118,267,93526,1,0,0:0:0:0:
121,283,93591,1,8,0:0:0:0:
121,283,93656,1,8,0:0:0:0:
121,283,93722,1,8,0:0:0:0:
121,283,93787,1,8,0:0:0:0:
121,283,93852,1,0,0:0:0:0:
121,283,93917,1,0,0:0:0:0:
125,286,93983,1,0,0:0:0:0:
125,286,94048,1,0,0:0:0:0:
121,283,94113,1,8,0:0:0:0:
121,283,94178,1,8,0:0:0:0:
121,283,94243,1,8,0:0:0:0:
121,283,94309,1,8,0:0:0:0:
121,283,94374,1,0,0:0:0:0:
121,283,94439,1,0,0:0:0:0:
121,283,94504,1,8,0:0:0:0:
121,283,94570,1,0,0:0:0:0:
121,283,94635,1,8,0:0:0:0:
125,276,94700,1,8,0:0:0:0:
126,276,94765,1,8,0:0:0:0:
126,276,94830,1,8,0:0:0:0:
126,276,94896,1,0,0:0:0:0:
126,276,94961,1,0,0:0:0:0:
126,276,95026,1,0,0:0:0:0:
126,276,95091,1,0,0:0:0:0:
129,274,95156,1,8,0:0:0:0:
129,274,95222,1,8,0:0:0:0:
129,274,95287,1,8,0:0:0:0:
130,273,95352,1,8,0:0:0:0:
129,274,95417,1,0,0:0:0:0:
119,299,95483,1,0,0:0:0:0:
119,286,95548,1,0,0:0:0:0:
119,286,95613,1,0,0:0:0:0:
120,280,95678,1,8,0:0:0:0:
118,280,95809,1,8,0:0:0:0:
119,286,95939,1,8,0:0:0:0:
119,299,96004,1,8,0:0:0:0:
102,302,96070,1,8,0:0:0:0:
107,303,96135,1,8,0:0:0:0:
108,303,96200,1,8,0:0:0:0:
103,297,96265,1,8,0:0:0:0:
108,303,96330,1,0,0:0:0:0:
103,297,96396,1,0,0:0:0:0:
102,302,96461,1,8,0:0:0:0:
102,298,96526,1,8,0:0:0:0:
103,297,96591,1,0,0:0:0:0:
110,285,96656,1,0,0:0:0:0:
113,284,96722,1,8,0:0:0:0:
113,284,96787,1,0,0:0:0:0:
113,284,96852,1,8,0:0:0:0:
113,284,96917,1,0,0:0:0:0:
113,282,96983,1,8,0:0:0:0:
113,282,97048,1,8,0:0:0:0:
113,282,97113,1,8,0:0:0:0:
113,282,97178,1,0,0:0:0:0:
116,280,97243,1,8,0:0:0:0:
116,280,97309,1,8,0:0:0:0:
116,280,97374,1,8,0:0:0:0:
116,280,97439,1,0,0:0:0:0:
116,280,97504,1,8,0:0:0:0:
116,280,97570,1,8,0:0:0:0:
116,280,97635,1,8,0:0:0:0:
113,282,97700,1,8,0:0:0:0:
113,282,97765,1,8,0:0:0:0:
113,282,97830,1,8,0:0:0:0:
113,282,97896,1,8,0:0:0:0:
113,282,97961,1,8,0:0:0:0:
116,280,98026,1,0,0:0:0:0:
116,293,98091,1,0,0:0:0:0:
116,293,98156,1,0,0:0:0:0:
116,293,98222,1,0,0:0:0:0:
108,292,98287,1,8,0:0:0:0:
108,292,98352,1,8,0:0:0:0:
108,292,98417,1,0,0:0:0:0:
108,292,98483,1,0,0:0:0:0:
108,292,98548,1,8,0:0:0:0:
108,292,98613,1,0,0:0:0:0:
108,292,98678,1,0,0:0:0:0:
108,292,98743,1,0,0:0:0:0:
108,292,98809,1,8,0:0:0:0:
109,293,98874,1,0,0:0:0:0:
109,293,98939,1,8,0:0:0:0:
109,293,99004,1,0,0:0:0:0:
116,288,99070,1,8,0:0:0:0:
116,288,99135,1,8,0:0:0:0:
120,289,99200,1,8,0:0:0:0:
116,290,99265,1,8,0:0:0:0:
116,290,99330,1,8,0:0:0:0:
120,289,99396,1,8,0:0:0:0:
120,289,99461,1,8,0:0:0:0:
120,289,99526,1,8,0:0:0:0:
115,293,99591,1,0,0:0:0:0:
115,293,99656,1,0,0:0:0:0:
115,293,99722,1,0,0:0:0:0:
115,293,99787,1,0,0:0:0:0:
115,293,99852,1,8,0:0:0:0:
115,293,99917,1,8,0:0:0:0:
115,293,99983,1,8,0:0:0:0:
116,290,100048,1,8,0:0:0:0:
116,290,100113,1,8,0:0:0:0:
115,293,100178,1,8,0:0:0:0:
115,293,100243,1,0,0:0:0:0:
115,293,100309,1,0,0:0:0:0:
115,293,100374,1,8,0:0:0:0:
115,293,100439,1,8,0:0:0:0:
115,293,100504,1,8,0:0:0:0:
115,293,100570,1,0,0:0:0:0:
115,293,100635,1,8,0:0:0:0:
115,293,100700,1,8,0:0:0:0:
115,293,100765,1,8,0:0:0:0:
116,290,100830,1,8,0:0:0:0:
116,290,100896,1,0,0:0:0:0:
115,293,100961,1,0,0:0:0:0:
115,293,101026,1,0,0:0:0:0:
115,293,101091,1,0,0:0:0:0:
115,293,101156,1,8,0:0:0:0:
115,293,101222,1,8,0:0:0:0:
115,293,101287,1,8,0:0:0:0:
115,293,101352,1,8,0:0:0:0:
110,285,101417,1,8,0:0:0:0:
110,285,101483,1,8,0:0:0:0:
110,285,101548,1,8,0:0:0:0:
110,285,101613,1,8,0:0:0:0:
116,290,101678,1,0,0:0:0:0:
112,287,101743,1,0,0:0:0:0:
112,287,101809,1,0,0:0:0:0:
112,287,101874,1,0,0:0:0:0:
112,287,101939,1,8,0:0:0:0:
122,281,102070,1,0,0:0:0:0:
122,281,102135,1,0,0:0:0:0:
91,30,102200,1,12,0:0:0:0:
116,298,102461,1,0,0:0:0:0:
116,298,102722,1,0,0:0:0:0:
108,288,102983,1,8,0:0:0:0:
109,300,103113,1,0,0:0:0:0:
109,300,103178,1,0,0:0:0:0:
108,288,103243,1,0,0:0:0:0:
108,288,103504,1,0,0:0:0:0:
108,288,103635,1,0,0:0:0:0:
113,0,103765,1,12,0:0:0:0:
92,299,104026,1,8,0:0:0:0:
93,299,104287,1,0,0:0:0:0:
92,299,104548,1,8,0:0:0:0:
92,299,104809,1,0,0:0:0:0:
100,304,104874,1,0,0:0:0:0:
93,299,104939,1,0,0:0:0:0:
93,299,105004,1,0,0:0:0:0:
93,299,105070,1,0,0:0:0:0:
92,299,105135,1,0,0:0:0:0:
92,299,105200,1,0,0:0:0:0:
99,297,105265,1,0,0:0:0:0:
68,0,105330,1,12,0:0:0:0:
81,38,105591,1,12,0:0:0:0:
85,297,105852,1,0,0:0:0:0:
85,296,106113,1,8,0:0:0:0:
85,297,106374,1,0,0:0:0:0:
109,278,106439,1,0,0:0:0:0:
85,297,106504,1,0,0:0:0:0:
85,297,106570,1,0,0:0:0:0:
85,296,106635,1,0,0:0:0:0:
85,296,106700,1,0,0:0:0:0:
85,296,106765,1,0,0:0:0:0:
106,292,106830,1,0,0:0:0:0:
86,285,106896,1,8,0:0:0:0:
86,281,107156,1,0,0:0:0:0:
86,281,107287,1,8,0:0:0:0:
86,281,107548,1,0,0:0:0:0:
92,260,107678,1,8,0:0:0:0:
90,273,107809,1,0,0:0:0:0:
90,271,107874,1,8,0:0:0:0:
90,271,107939,1,8,0:0:0:0:
86,268,108004,1,0,0:0:0:0:
87,265,108070,1,8,0:0:0:0:
85,265,108200,1,8,0:0:0:0:
85,265,108330,1,0,0:0:0:0:
107,17,108461,1,12,0:0:0:0:
82,254,108722,1,8,0:0:0:0:
82,254,108983,1,0,0:0:0:0:
82,254,109243,1,8,0:0:0:0:
98,278,109374,1,0,0:0:0:0:
96,263,109504,1,0,0:0:0:0:
98,272,109765,1,0,0:0:0:0:
95,274,109896,1,0,0:0:0:0:
92,26,110026,1,12,0:0:0:0:
94,288,110287,1,8,0:0:0:0:
94,288,110548,1,0,0:0:0:0:
97,286,110678,1,0,0:0:0:0:
94,278,110809,1,8,0:0:0:0:
95,278,110939,1,0,0:0:0:0:
91,280,111200,1,0,0:0:0:0:
92,276,111330,1,8,0:0:0:0:
90,276,111461,1,8,0:0:0:0:
100,28,111591,1,4,0:0:0:0:
97,275,111852,1,8,0:0:0:0:
97,275,112113,1,0,0:0:0:0:
97,275,112243,1,0,0:0:0:0:
97,275,112374,1,8,0:0:0:0:
97,275,112635,1,0,0:0:0:0:
97,275,112765,1,8,0:0:0:0:
97,275,112896,1,0,0:0:0:0:
97,275,113026,1,0,0:0:0:0:
73,17,113156,1,12,0:0:0:0:
116,13,113417,1,12,0:0:0:0:
89,275,113678,1,0,0:0:0:0:
89,275,113809,1,0,0:0:0:0:
85,253,113939,1,8,0:0:0:0:
96,278,114200,1,0,0:0:0:0:
96,278,114330,1,0,0:0:0:0:
96,278,114396,1,0,0:0:0:0:
96,278,114461,1,8,0:0:0:0:
94,277,114591,1,0,0:0:0:0:
115,0,114722,1,12,0:0:0:0:
82,22,114983,1,12,0:0:0:0:
91,28,115243,1,12,0:0:0:0:
95,268,115504,1,8,0:0:0:0:
95,270,115635,1,0,0:0:0:0:
95,270,115765,1,0,0:0:0:0:
95,270,115896,1,8,0:0:0:0:
95,270,116026,1,0,0:0:0:0:
95,268,116156,1,0,0:0:0:0:
107,0,116287,1,12,0:0:0:0:
111,51,116548,1,12,0:0:0:0:
114,39,116809,1,12,0:0:0:0:
85,263,117070,1,8,0:0:0:0:
85,263,117200,1,0,0:0:0:0:
85,263,117330,1,0,0:0:0:0:
85,263,117461,1,8,0:0:0:0:
85,263,117591,1,0,0:0:0:0:
85,263,117722,1,0,0:0:0:0:
91,9,117852,1,12,0:0:0:0:
72,63,118113,1,12,0:0:0:0:
72,63,118374,1,12,0:0:0:0:
91,262,118635,1,8,0:0:0:0:
91,262,118896,1,0,0:0:0:0:
91,262,119026,1,8,0:0:0:0:
122,268,119156,1,0,0:0:0:0:
122,268,119287,1,0,0:0:0:0:
94,32,119417,1,12,0:0:0:0:
124,276,119678,1,8,0:0:0:0:
124,276,119743,1,8,0:0:0:0:
124,276,119809,1,8,0:0:0:0:
124,276,119874,1,8,0:0:0:0:
124,276,119939,1,0,0:0:0:0:
124,276,120004,1,0,0:0:0:0:
124,276,120070,1,0,0:0:0:0:
124,276,120135,1,0,0:0:0:0:
124,276,120200,1,8,0:0:0:0:
124,276,120265,1,8,0:0:0:0:
124,276,120330,1,8,0:0:0:0:
124,276,120396,1,8,0:0:0:0:
124,276,120461,1,0,0:0:0:0:
124,276,120722,1,8,0:0:0:0:
124,276,120787,1,8,0:0:0:0:
124,276,120852,1,8,0:0:0:0:
124,276,120917,1,8,0:0:0:0:
124,276,120983,1,0,0:0:0:0:
106,22,121243,1,12,0:0:0:0:
106,22,121504,1,12,0:0:0:0:
121,280,121765,1,8,0:0:0:0:
111,291,122026,1,0,0:0:0:0:
99,288,122157,1,0,0:0:0:0:
110,290,122287,1,8,0:0:0:0:
109,290,122417,1,0,0:0:0:0:
105,27,122548,1,12,0:0:0:0:
90,283,122809,1,8,0:0:0:0:
96,258,122939,1,8,0:0:0:0:
108,284,123070,1,0,0:0:0:0:
109,275,123200,1,0,0:0:0:0:
110,50,123330,1,12,0:0:0:0:
109,275,123461,1,0,0:0:0:0:
109,275,123591,1,8,0:0:0:0:
121,266,123722,1,8,0:0:0:0:
109,275,123852,1,0,0:0:0:0:
109,275,123983,1,0,0:0:0:0:
109,11,124113,1,12,0:0:0:0:
116,29,124374,1,12,0:0:0:0:
116,29,124635,1,12,0:0:0:0:
116,265,124765,1,0,0:0:0:0:
120,243,124896,1,8,0:0:0:0:
116,256,125026,1,0,0:0:0:0:
116,256,125156,1,0,0:0:0:0:
116,256,125287,1,8,0:0:0:0:
118,278,125417,1,0,0:0:0:0:
110,288,125548,1,0,0:0:0:0:
121,266,125678,1,8,0:0:0:0:
121,266,125743,1,8,0:0:0:0:
121,266,125809,1,0,0:0:0:0:
121,266,125874,1,0,0:0:0:0:
121,266,125939,1,8,0:0:0:0:
121,266,126070,1,8,0:0:0:0:
121,266,126200,1,8,0:0:0:0:
121,266,126265,1,8,0:0:0:0:
121,266,126330,1,0,0:0:0:0:
121,266,126396,1,0,0:0:0:0:
113,275,126461,1,8,0:0:0:0:
113,275,126591,1,0,0:0:0:0:
111,267,126722,1,0,0:0:0:0:
111,267,126852,1,0,0:0:0:0:
111,267,126983,1,8,0:0:0:0:
98,23,127243,1,12,0:0:0:0:
103,95,127504,1,12,0:0:0:0:
103,95,127765,1,12,0:0:0:0:
95,276,128026,1,0,0:0:0:0:
95,276,128156,1,0,0:0:0:0:
95,276,128287,1,8,0:0:0:0:
95,276,128417,1,0,0:0:0:0:
95,276,128548,1,8,0:0:0:0:
106,283,128678,1,0,0:0:0:0:
113,291,128809,1,0,0:0:0:0:
112,292,129070,1,8,0:0:0:0:
105,297,129200,1,8,0:0:0:0:
105,297,129330,1,0,0:0:0:0:
116,296,129591,1,8,0:0:0:0:
114,308,129722,1,0,0:0:0:0:
112,292,129852,1,8,0:0:0:0:
124,284,129983,1,8,0:0:0:0:
106,289,130113,1,0,0:0:0:0:
106,289,130243,1,0,0:0:0:0:
106,289,130374,1,8,0:0:0:0:
103,293,130635,1,8,0:0:0:0:
103,293,130765,1,0,0:0:0:0:
106,289,130896,1,8,0:0:0:0:
106,289,131026,1,8,0:0:0:0:
103,293,131156,1,8,0:0:0:0:
103,293,131287,1,0,0:0:0:0:
111,286,131417,1,8,0:0:0:0:
111,285,131548,1,0,0:0:0:0:
111,285,131678,1,0,0:0:0:0:
111,285,131809,1,8,0:0:0:0:
111,285,131939,1,0,0:0:0:0:
111,285,132070,1,0,0:0:0:0:
111,286,132200,1,8,0:0:0:0:
111,285,132330,1,8,0:0:0:0:
111,285,132461,1,8,0:0:0:0:
111,285,132591,1,0,0:0:0:0:
111,285,132722,1,8,0:0:0:0:
111,285,132787,1,8,0:0:0:0:
111,285,132852,1,8,0:0:0:0:
111,286,132917,1,8,0:0:0:0:
123,287,132983,1,0,0:0:0:0:
111,285,133113,1,8,0:0:0:0:
103,299,133243,1,0,0:0:0:0:
111,285,133374,1,8,0:0:0:0:
111,285,133504,1,8,0:0:0:0:
98,296,133635,1,0,0:0:0:0:
102,293,133765,1,8,0:0:0:0:
102,293,133896,1,8,0:0:0:0:
102,293,134026,1,0,0:0:0:0:
102,293,134156,1,0,0:0:0:0:
109,295,134287,1,8,0:0:0:0:
109,295,134417,1,8,0:0:0:0:
109,295,134548,1,8,0:0:0:0:
109,295,134678,1,0,0:0:0:0:
109,295,134809,1,8,0:0:0:0:
114,300,134939,1,0,0:0:0:0:
114,300,135070,1,0,0:0:0:0:
114,294,135200,1,8,0:0:0:0:
109,295,135330,1,0,0:0:0:0:
109,295,135461,1,8,0:0:0:0:
109,295,135591,1,0,0:0:0:0:
110,292,135722,1,0,0:0:0:0:
110,292,135852,1,8,0:0:0:0:
114,294,135983,1,0,0:0:0:0:
109,295,136113,1,8,0:0:0:0:
109,295,136243,1,8,0:0:0:0:
109,295,136374,1,0,0:0:0:0:
110,292,136504,1,0,0:0:0:0:
110,292,136635,1,8,0:0:0:0:
110,290,136765,1,0,0:0:0:0:
109,295,136896,1,8,0:0:0:0:
105,301,137026,1,0,0:0:0:0:
109,295,137156,1,8,0:0:0:0:
106,297,137287,1,8,0:0:0:0:
105,304,137417,1,0,0:0:0:0:
105,304,137548,1,0,0:0:0:0:
105,301,137678,1,8,0:0:0:0:
105,301,137809,1,0,0:0:0:0:
105,304,137939,1,8,0:0:0:0:
105,304,138070,1,8,0:0:0:0:
113,269,138200,1,0,0:0:0:0:
115,268,138265,1,8,0:0:0:0:
113,269,138396,1,0,0:0:0:0:
113,269,138461,1,8,0:0:0:0:
108,290,138591,1,8,0:0:0:0:
102,296,138722,1,0,0:0:0:0:
103,295,138852,1,0,0:0:0:0:
103,295,138917,1,0,0:0:0:0:
103,295,138983,1,8,0:0:0:0:
103,295,139113,1,0,0:0:0:0:
103,295,139243,1,8,0:0:0:0:
103,295,139374,1,8,0:0:0:0:
102,296,139504,1,0,0:0:0:0:
103,295,139635,1,8,0:0:0:0:
126,10,139765,1,4,0:0:0:0:
108,32,140025,1,12,0:0:0:0:
110,279,140286,1,0,0:0:0:0:
117,308,140352,1,0,0:0:0:0:
117,308,140417,1,0,0:0:0:0:
118,307,140483,1,0,0:0:0:0:
108,52,140547,1,12,0:0:0:0:
88,31,141330,1,4,0:0:0:0:
88,31,141591,1,12,0:0:0:0:
76,287,141852,1,0,0:0:0:0:
88,294,141983,1,0,0:0:0:0:
96,270,142112,1,8,0:0:0:0:
98,289,142178,1,8,0:0:0:0:
98,289,142243,1,0,0:0:0:0:
98,289,142308,1,0,0:0:0:0:
98,289,142373,1,8,0:0:0:0:
98,289,142438,1,8,0:0:0:0:
98,289,142504,1,8,0:0:0:0:
98,289,142569,1,0,0:0:0:0:
98,289,142634,1,8,0:0:0:0:
98,289,142699,1,8,0:0:0:0:
98,289,142765,1,8,0:0:0:0:
98,289,142830,1,0,0:0:0:0:
114,25,142895,1,12,0:0:0:0:
124,28,143156,1,12,0:0:0:0:
94,282,143417,1,0,0:0:0:0:
94,282,143548,1,0,0:0:0:0:
85,18,143678,1,12,0:0:0:0:
81,295,143939,1,0,0:0:0:0:
92,292,144004,1,0,0:0:0:0:
91,291,144070,1,0,0:0:0:0:
96,289,144135,1,0,0:0:0:0:
96,289,144200,1,0,0:0:0:0:
96,289,144265,1,0,0:0:0:0:
98,289,144330,1,0,0:0:0:0:
96,289,144396,1,0,0:0:0:0:
97,12,144460,1,12,0:0:0:0:
96,62,144721,1,4,0:0:0:0:
94,300,144983,1,8,0:0:0:0:
94,300,145048,1,0,0:0:0:0:
94,300,145113,1,8,0:0:0:0:
94,300,145178,1,0,0:0:0:0:
94,291,145243,1,8,0:0:0:0:
93,291,145374,1,8,0:0:0:0:
97,291,145439,1,8,0:0:0:0:
96,296,145504,1,8,0:0:0:0:
121,269,145635,1,8,0:0:0:0:
96,296,145700,1,0,0:0:0:0:
96,296,145764,1,8,0:0:0:0:
112,282,145830,1,0,0:0:0:0:
96,296,145895,1,8,0:0:0:0:
96,296,145960,1,8,0:0:0:0:
76,9,146025,1,4,0:0:0:0:
102,301,146222,1,0,0:0:0:0:
114,50,146286,1,12,0:0:0:0:
132,289,146417,1,0,0:0:0:0:
92,291,146548,1,0,0:0:0:0:
96,310,146678,1,0,0:0:0:0:
85,290,146809,1,8,0:0:0:0:
85,290,146874,1,8,0:0:0:0:
86,293,146939,1,8,0:0:0:0:
86,294,147004,1,8,0:0:0:0:
100,298,147070,1,0,0:0:0:0:
92,301,147200,1,0,0:0:0:0:
92,301,147265,1,0,0:0:0:0:
92,301,147330,1,8,0:0:0:0:
92,301,147396,1,8,0:0:0:0:
92,301,147461,1,8,0:0:0:0:
92,301,147526,1,8,0:0:0:0:
92,301,147591,1,0,0:0:0:0:
92,301,147656,1,8,0:0:0:0:
92,301,147722,1,8,0:0:0:0:
92,301,147787,1,8,0:0:0:0:
93,302,147852,1,0,0:0:0:0:
92,301,147917,1,8,0:0:0:0:
92,301,147983,1,8,0:0:0:0:
92,301,148048,1,0,0:0:0:0:
92,301,148113,1,8,0:0:0:0:
96,296,148178,1,8,0:0:0:0:
96,296,148243,1,0,0:0:0:0:
96,296,148309,1,0,0:0:0:0:
96,296,148374,1,8,0:0:0:0:
96,296,148439,1,0,0:0:0:0:
96,296,148504,1,8,0:0:0:0:
96,296,148570,1,8,0:0:0:0:
96,296,148635,1,0,0:0:0:0:
96,296,148700,1,0,0:0:0:0:
96,296,148765,1,8,0:0:0:0:
96,296,148830,1,0,0:0:0:0:
96,296,148896,1,8,0:0:0:0:
96,296,148961,1,8,0:0:0:0:
96,296,149026,1,0,0:0:0:0:
96,296,149091,1,0,0:0:0:0:
80,47,149156,1,12,0:0:0:0:
84,299,149287,1,0,0:0:0:0:
84,299,149352,1,0,0:0:0:0:
86,297,149417,1,8,0:0:0:0:
85,297,149483,1,8,0:0:0:0:
85,297,149548,1,0,0:0:0:0:
85,297,149613,1,0,0:0:0:0:
85,297,149678,1,0,0:0:0:0:
85,297,149743,1,0,0:0:0:0:
85,297,149809,1,0,0:0:0:0:
85,297,149874,1,0,0:0:0:0:
75,283,149939,1,8,0:0:0:0:
84,299,150004,1,8,0:0:0:0:
84,299,150070,1,8,0:0:0:0:
84,299,150135,1,8,0:0:0:0:
86,297,150200,1,0,0:0:0:0:
85,297,150265,1,0,0:0:0:0:
85,297,150330,1,0,0:0:0:0:
85,297,150396,1,0,0:0:0:0:
86,303,150461,1,8,0:0:0:0:
86,303,150526,1,8,0:0:0:0:
86,303,150591,1,0,0:0:0:0:
86,303,150656,1,0,0:0:0:0:
86,303,150722,1,8,0:0:0:0:
86,303,150787,1,8,0:0:0:0:
86,303,150852,1,8,0:0:0:0:
86,303,150917,1,8,0:0:0:0:
87,303,150983,1,0,0:0:0:0:
87,303,151048,1,0,0:0:0:0:
88,303,151113,1,0,0:0:0:0:
88,303,151178,1,0,0:0:0:0:
86,303,151243,1,8,0:0:0:0:
86,303,151309,1,8,0:0:0:0:
86,303,151374,1,0,0:0:0:0:
86,303,151439,1,0,0:0:0:0:
106,32,151504,1,12,0:0:0:0:
100,270,153852,1,8,0:0:0:0:
100,270,153917,1,0,0:0:0:0:
100,270,153983,1,8,0:0:0:0:
100,270,154048,1,8,0:0:0:0:
100,270,154113,1,0,0:0:0:0:
100,270,154178,1,0,0:0:0:0:
100,270,154243,1,0,0:0:0:0:
100,270,154309,1,0,0:0:0:0:
100,270,154374,1,8,0:0:0:0:
111,272,154439,1,8,0:0:0:0:
111,273,154504,1,0,0:0:0:0:
111,273,154570,1,0,0:0:0:0:
111,273,154635,1,8,0:0:0:0:
111,273,154700,1,8,0:0:0:0:
111,273,154765,1,8,0:0:0:0:
111,273,154830,1,8,0:0:0:0:
111,273,154896,1,8,0:0:0:0:
111,273,154961,1,8,0:0:0:0:
111,273,155026,1,8,0:0:0:0:
111,273,155091,1,8,0:0:0:0:
111,273,155156,1,0,0:0:0:0:
111,272,155222,1,0,0:0:0:0:
111,273,155287,1,0,0:0:0:0:
111,273,155352,1,0,0:0:0:0:
111,273,155417,1,0,0:0:0:0:
111,273,155483,1,0,0:0:0:0:
111,273,155548,1,0,0:0:0:0:
111,273,155613,1,0,0:0:0:0:
111,273,155678,1,8,0:0:0:0:
111,273,155743,1,8,0:0:0:0:
111,273,155809,1,0,0:0:0:0:
111,273,155874,1,0,0:0:0:0:
111,273,155939,1,8,0:0:0:0:
111,272,156004,1,8,0:0:0:0:
111,273,156070,1,8,0:0:0:0:
111,273,156135,1,0,0:0:0:0:
111,273,156200,1,8,0:0:0:0:
111,273,156265,1,8,0:0:0:0:
111,273,156330,1,8,0:0:0:0:
111,273,156396,1,0,0:0:0:0:
111,273,156461,1,8,0:0:0:0:
111,273,156526,1,8,0:0:0:0:
111,273,156591,1,8,0:0:0:0:
111,273,156656,1,0,0:0:0:0:
111,273,156722,1,8,0:0:0:0:
111,273,156787,1,8,0:0:0:0:
111,281,156852,1,0,0:0:0:0:
111,281,156917,1,0,0:0:0:0:
111,281,156983,1,8,0:0:0:0:
111,281,157048,1,8,0:0:0:0:
111,281,157113,1,8,0:0:0:0:
111,281,157178,1,8,0:0:0:0:
111,282,157243,1,0,0:0:0:0:
111,281,157309,1,0,0:0:0:0:
111,281,157374,1,0,0:0:0:0:
104,283,157439,1,0,0:0:0:0:
106,283,157504,1,8,0:0:0:0:
106,283,157570,1,8,0:0:0:0:
111,281,157635,1,0,0:0:0:0:
111,281,157700,1,0,0:0:0:0:
111,281,157765,1,8,0:0:0:0:
111,281,157830,1,8,0:0:0:0:
111,281,157896,1,8,0:0:0:0:
111,282,157961,1,8,0:0:0:0:
111,282,158026,1,0,0:0:0:0:
111,281,158091,1,0,0:0:0:0:
115,268,158156,1,0,0:0:0:0:
115,268,158222,1,0,0:0:0:0:
112,270,158287,1,8,0:0:0:0:
112,270,158352,1,8,0:0:0:0:
112,271,158417,1,0,0:0:0:0:
112,270,158483,1,0,0:0:0:0:
111,281,158548,1,8,0:0:0:0:
111,281,158613,1,8,0:0:0:0:
111,281,158678,1,8,0:0:0:0:
111,282,158743,1,8,0:0:0:0:
111,282,158809,1,0,0:0:0:0:
111,281,158874,1,0,0:0:0:0:
111,279,158939,1,8,0:0:0:0:
111,279,159004,1,0,0:0:0:0:
107,279,159070,1,8,0:0:0:0:
114,275,159135,1,8,0:0:0:0:
113,281,159200,1,0,0:0:0:0:
111,281,159265,1,0,0:0:0:0:
111,281,159330,1,8,0:0:0:0:
111,281,159396,1,0,0:0:0:0:
111,282,159461,1,8,0:0:0:0:
103,277,159526,1,8,0:0:0:0:
104,278,159591,1,0,0:0:0:0:
104,278,159656,1,0,0:0:0:0:
104,278,159722,1,0,0:0:0:0:
104,278,159787,1,0,0:0:0:0:
107,279,159852,1,8,0:0:0:0:
106,279,159983,1,8,0:0:0:0:
101,284,160113,1,8,0:0:0:0:
101,284,160178,1,8,0:0:0:0:
101,284,160243,1,8,0:0:0:0:
101,284,160309,1,8,0:0:0:0:
101,284,160374,1,0,0:0:0:0:
101,284,160439,1,0,0:0:0:0:
101,284,160504,1,0,0:0:0:0:
101,284,160570,1,0,0:0:0:0:
101,284,160635,1,8,0:0:0:0:
101,284,160700,1,8,0:0:0:0:
101,284,160765,1,8,0:0:0:0:
101,284,160830,1,8,0:0:0:0:
101,284,160896,1,0,0:0:0:0:
101,284,160961,1,0,0:0:0:0:
101,284,161026,1,0,0:0:0:0:
101,284,161091,1,0,0:0:0:0:
101,284,161156,1,8,0:0:0:0:
101,284,161222,1,8,0:0:0:0:
101,284,161287,1,8,0:0:0:0:
101,284,161352,1,8,0:0:0:0:
101,284,161417,1,0,0:0:0:0:
101,284,161483,1,0,0:0:0:0:
101,284,161548,1,0,0:0:0:0:
101,284,161613,1,0,0:0:0:0:
101,277,161678,1,8,0:0:0:0:
101,277,161743,1,8,0:0:0:0:
101,277,161809,1,8,0:0:0:0:
101,277,161874,1,8,0:0:0:0:
101,277,161939,1,8,0:0:0:0:
101,277,162004,1,8,0:0:0:0:
101,277,162070,1,8,0:0:0:0:
101,277,162135,1,8,0:0:0:0:
98,293,162200,1,0,0:0:0:0:
98,293,162265,1,0,0:0:0:0:
98,293,162330,1,0,0:0:0:0:
98,293,162396,1,0,0:0:0:0:
98,293,162461,1,8,0:0:0:0:
98,293,162526,1,0,0:0:0:0:
98,293,162591,1,8,0:0:0:0:
98,293,162656,1,8,0:0:0:0:
98,293,162722,1,0,0:0:0:0:
98,293,162787,1,0,0:0:0:0:
98,293,162852,1,8,0:0:0:0:
98,293,162917,1,0,0:0:0:0:
98,293,162983,1,8,0:0:0:0:
98,293,163048,1,8,0:0:0:0:
98,293,163113,1,8,0:0:0:0:
98,293,163178,1,0,0:0:0:0:
98,293,163243,1,8,0:0:0:0:
98,293,163309,1,8,0:0:0:0:
98,293,163374,1,8,0:0:0:0:
98,293,163439,1,8,0:0:0:0:
98,293,163504,1,8,0:0:0:0:
98,293,163570,1,8,0:0:0:0:
98,293,163635,1,8,0:0:0:0:
98,293,163700,1,8,0:0:0:0:
98,293,163765,1,0,0:0:0:0:
101,301,163830,1,0,0:0:0:0:
101,301,163896,1,0,0:0:0:0:
101,301,163961,1,0,0:0:0:0:
101,301,164026,1,8,0:0:0:0:
101,301,164091,1,8,0:0:0:0:
101,301,164156,1,8,0:0:0:0:
101,301,164222,1,8,0:0:0:0:
101,301,164287,1,8,0:0:0:0:
101,301,164352,1,8,0:0:0:0:
101,301,164417,1,0,0:0:0:0:
101,301,164483,1,0,0:0:0:0:
101,301,164548,1,8,0:0:0:0:
109,295,164613,1,8,0:0:0:0:
109,295,164678,1,8,0:0:0:0:
109,295,164743,1,0,0:0:0:0:
103,292,164809,1,8,0:0:0:0:
103,292,164874,1,8,0:0:0:0:
106,302,164939,1,8,0:0:0:0:
106,302,165004,1,8,0:0:0:0:
107,298,165070,1,0,0:0:0:0:
107,298,165135,1,0,0:0:0:0:
107,298,165200,1,0,0:0:0:0:
107,298,165265,1,0,0:0:0:0:
107,298,165330,1,8,0:0:0:0:
109,295,165396,1,8,0:0:0:0:
109,295,165461,1,0,0:0:0:0:
109,295,165526,1,0,0:0:0:0:
103,292,165591,1,8,0:0:0:0:
103,292,165656,1,8,0:0:0:0:
104,291,165722,1,8,0:0:0:0:
104,291,165787,1,8,0:0:0:0:
104,291,165852,1,0,0:0:0:0:
104,291,165917,1,0,0:0:0:0:
104,291,165983,1,0,0:0:0:0:
104,291,166048,1,0,0:0:0:0:
104,291,166113,1,8,0:0:0:0:
104,291,166178,1,8,0:0:0:0:
104,291,166243,1,8,0:0:0:0:
104,291,166309,1,0,0:0:0:0:
103,292,166374,1,8,0:0:0:0:
117,290,166439,1,8,0:0:0:0:
117,290,166504,1,8,0:0:0:0:
117,290,166570,1,8,0:0:0:0:
117,290,166635,1,0,0:0:0:0:
103,280,166700,1,0,0:0:0:0:
103,280,166765,1,0,0:0:0:0:
103,280,166830,1,0,0:0:0:0:
123,293,166896,1,8,0:0:0:0:
123,293,166961,1,8,0:0:0:0:
123,293,167026,1,0,0:0:0:0:
123,293,167091,1,0,0:0:0:0:
121,294,167156,1,8,0:0:0:0:
121,294,167222,1,8,0:0:0:0:
121,294,167287,1,8,0:0:0:0:
121,294,167352,1,8,0:0:0:0:
121,294,167417,1,8,0:0:0:0:
121,294,167483,1,8,0:0:0:0:
121,294,167548,1,8,0:0:0:0:
121,294,167613,1,8,0:0:0:0:
123,293,167678,1,0,0:0:0:0:
123,293,167743,1,0,0:0:0:0:
123,293,167809,1,0,0:0:0:0:
123,293,167874,1,0,0:0:0:0:
121,294,167939,1,0,0:0:0:0:
121,294,168004,1,0,0:0:0:0:
121,294,168070,1,0,0:0:0:0:
121,294,168135,1,0,0:0:0:0:
121,294,168200,1,8,0:0:0:0:
121,294,168265,1,8,0:0:0:0:
121,294,168330,1,0,0:0:0:0:
121,294,168396,1,0,0:0:0:0:
123,293,168461,1,8,0:0:0:0:
123,293,168526,1,8,0:0:0:0:
123,293,168591,1,0,0:0:0:0:
128,290,168656,1,0,0:0:0:0:
128,290,168722,1,8,0:0:0:0:
128,290,168787,1,8,0:0:0:0:
128,290,168852,1,8,0:0:0:0:
128,290,168917,1,0,0:0:0:0:
128,290,168983,1,8,0:0:0:0:
135,286,169048,1,8,0:0:0:0:
135,286,169113,1,0,0:0:0:0:
135,287,169178,1,0,0:0:0:0:
135,287,169243,1,8,0:0:0:0:
135,287,169309,1,8,0:0:0:0:
135,287,169374,1,8,0:0:0:0:
135,287,169439,1,0,0:0:0:0:
128,290,169504,1,8,0:0:0:0:
128,290,169570,1,8,0:0:0:0:
128,290,169635,1,8,0:0:0:0:
128,290,169700,1,8,0:0:0:0:
125,288,169765,1,8,0:0:0:0:
125,288,169830,1,8,0:0:0:0:
125,288,169896,1,0,0:0:0:0:
125,288,169961,1,0,0:0:0:0:
125,288,170026,1,8,0:0:0:0:
125,288,170091,1,8,0:0:0:0:
125,288,170156,1,0,0:0:0:0:
128,290,170222,1,0,0:0:0:0:
128,290,170287,1,8,0:0:0:0:
128,290,170352,1,8,0:0:0:0:
128,290,170417,1,8,0:0:0:0:
128,290,170483,1,8,0:0:0:0:
125,288,170548,1,8,0:0:0:0:
131,288,170613,1,8,0:0:0:0:
131,288,170678,1,0,0:0:0:0:
131,288,170743,1,0,0:0:0:0:
135,280,170809,1,8,0:0:0:0:
135,280,170874,1,8,0:0:0:0:
135,280,170939,1,8,0:0:0:0:
135,280,171004,1,8,0:0:0:0:
135,280,171070,1,0,0:0:0:0:
135,280,171135,1,0,0:0:0:0:
135,280,171200,1,8,0:0:0:0:
135,280,171265,1,8,0:0:0:0:
135,280,171330,1,8,0:0:0:0:
135,280,171396,1,8,0:0:0:0:
135,280,171461,1,0,0:0:0:0:
135,280,171526,1,0,0:0:0:0:
135,280,171591,1,8,0:0:0:0:
135,280,171656,1,8,0:0:0:0:
135,280,171722,1,8,0:0:0:0:
135,280,171787,1,8,0:0:0:0:
135,280,171852,1,0,0:0:0:0:
135,280,171917,1,0,0:0:0:0:
135,280,171983,1,0,0:0:0:0:
135,280,172048,1,0,0:0:0:0:
136,288,172113,1,8,0:0:0:0:
135,280,172178,1,8,0:0:0:0:
135,280,172243,1,0,0:0:0:0:
133,273,172309,1,0,0:0:0:0:
135,280,172374,1,8,0:0:0:0:
137,275,172504,1,8,0:0:0:0:
98,39,172635,1,12,0:0:0:0:
121,291,172765,1,0,0:0:0:0:
121,291,172830,1,0,0:0:0:0:
125,288,172896,1,8,0:0:0:0:
125,288,172961,1,8,0:0:0:0:
125,288,173026,1,0,0:0:0:0:
125,288,173091,1,0,0:0:0:0:
125,288,173156,1,8,0:0:0:0:
125,288,173222,1,0,0:0:0:0:
125,288,173287,1,8,0:0:0:0:
121,291,173352,1,8,0:0:0:0:
126,287,173417,1,0,0:0:0:0:
126,287,173483,1,0,0:0:0:0:
126,287,173548,1,0,0:0:0:0:
125,288,173613,1,0,0:0:0:0:
125,288,173678,1,8,0:0:0:0:
125,288,173743,1,8,0:0:0:0:
125,288,173809,1,8,0:0:0:0:
125,288,173874,1,8,0:0:0:0:
126,293,173939,1,0,0:0:0:0:
126,293,174004,1,0,0:0:0:0:
126,293,174070,1,0,0:0:0:0:
126,293,174135,1,0,0:0:0:0:
126,293,174200,1,8,0:0:0:0:
126,293,174265,1,8,0:0:0:0:
126,293,174330,1,8,0:0:0:0:
126,293,174396,1,8,0:0:0:0:
126,293,174461,1,8,0:0:0:0:
126,293,174526,1,8,0:0:0:0:
126,293,174591,1,8,0:0:0:0:
126,293,174656,1,8,0:0:0:0:
126,293,174722,1,0,0:0:0:0:
126,293,174787,1,0,0:0:0:0:
126,293,174852,1,0,0:0:0:0:
126,293,174917,1,0,0:0:0:0:
123,279,174983,1,0,0:0:0:0:
123,279,175048,1,0,0:0:0:0:
123,279,175113,1,0,0:0:0:0:
123,279,175178,1,0,0:0:0:0:
123,279,175243,1,8,0:0:0:0:
123,279,175309,1,0,0:0:0:0:
123,279,175374,1,8,0:0:0:0:
123,279,175439,1,8,0:0:0:0:
120,269,175504,1,0,0:0:0:0:
120,269,175570,1,8,0:0:0:0:
120,269,175635,1,8,0:0:0:0:
120,269,175700,1,0,0:0:0:0:
128,269,175765,1,8,0:0:0:0:
128,269,175830,1,8,0:0:0:0:
128,269,175896,1,8,0:0:0:0:
128,269,175961,1,8,0:0:0:0:
128,269,176026,1,0,0:0:0:0:
128,269,176091,1,0,0:0:0:0:
128,269,176156,1,8,0:0:0:0:
128,269,176222,1,8,0:0:0:0:
128,269,176287,1,0,0:0:0:0:
132,277,176352,1,0,0:0:0:0:
132,277,176417,1,8,0:0:0:0:
132,277,176483,1,0,0:0:0:0:
132,277,176548,1,8,0:0:0:0:
132,277,176613,1,8,0:0:0:0:
132,277,176678,1,8,0:0:0:0:
132,277,176743,1,8,0:0:0:0:
132,277,176809,1,8,0:0:0:0:
132,276,176874,1,8,0:0:0:0:
132,277,176939,1,0,0:0:0:0:
132,277,177004,1,0,0:0:0:0:
139,266,177070,1,8,0:0:0:0:
139,266,177135,1,8,0:0:0:0:
139,266,177200,1,0,0:0:0:0:
139,266,177265,1,0,0:0:0:0:
150,269,177330,1,8,0:0:0:0:
150,269,177396,1,8,0:0:0:0:
150,269,177461,1,8,0:0:0:0:
150,269,177526,1,8,0:0:0:0:
150,270,177591,1,0,0:0:0:0:
150,270,177656,1,0,0:0:0:0:
150,270,177722,1,0,0:0:0:0:
150,270,177787,1,0,0:0:0:0:
150,270,177852,1,8,0:0:0:0:
150,270,177917,1,8,0:0:0:0:
150,270,177983,1,0,0:0:0:0:
150,270,178048,1,0,0:0:0:0:
150,269,178113,1,8,0:0:0:0:
150,276,178178,1,8,0:0:0:0:
150,276,178243,1,8,0:0:0:0:
150,276,178309,1,8,0:0:0:0:
150,276,178374,1,0,0:0:0:0:
150,276,178439,1,0,0:0:0:0:
150,276,178504,1,8,0:0:0:0:
150,276,178570,1,8,0:0:0:0:
150,276,178635,1,0,0:0:0:0:
150,276,178700,1,0,0:0:0:0:
150,276,178765,1,8,0:0:0:0:
150,276,178830,1,8,0:0:0:0:
160,284,178896,1,0,0:0:0:0:
256,192,179026,12,0,185156,0:0:0:0:
