osu file format v14

[General]
AudioFilename: audio.mp3
AudioLeadIn: 0
PreviewTime: 87330
Countdown: 0
SampleSet: Normal
StackLeniency: 0.7
Mode: 1
LetterboxInBreaks: 0
WidescreenStoryboard: 1

[Editor]
Bookmarks: 9312,15572,34355,46876,60440,77136,89657,102179,127222,139744,153831,178875
DistanceSpacing: 0.8
BeatDivisor: 4
GridSize: 32
TimelineZoom: 3.899999

[Metadata]
Title:The Skin Thief
TitleUnicode:The Skin Thief
Artist:Nekrogoblikon
ArtistUnicode:Nekrogoblikon
Creator:radar
Version:Green's Oni
Source:osu!
Tags:greenshell grĂ¼nschale goblin melodic death metal melodeath welcome to bonkers featured artist mappers guild english
BeatmapID:2429855
BeatmapSetID:1129186

[Difficulty]
HPDrainRate:5.5
CircleSize:3
OverallDifficulty:6.5
ApproachRate:10
SliderMultiplier:1.4
SliderTickRate:1

[Events]
//Background and Video events
0,0,"skinthief_bg.jpg",0,0
//Break Periods
//Storyboard Layer 0 (Background)
//Storyboard Layer 1 (Fail)
//Storyboard Layer 2 (Pass)
//Storyboard Layer 3 (Foreground)
//Storyboard Layer 4 (Overlay)
//Storyboard Sound Samples

[TimingPoints]
205,291.26213592233,4,1,0,90,1,0
1673,291.26213592233,4,1,0,90,1,8
2546,291.26213592233,4,1,0,90,1,0
5749,283.018867924528,4,1,0,90,1,8
6032,283.018867924528,4,1,0,90,1,0
6881,283.018867924528,4,1,0,90,1,8
7164,270.00027000027,4,1,0,90,1,0
9323,260.869565217391,4,1,0,90,1,0
34366,260.869565217391,3,1,0,90,1,0
46887,-100,3,1,0,90,0,1
59408,260.869565217391,4,1,0,90,1,0
59408,-100,4,1,0,90,0,0
77147,260.869565217391,3,1,0,90,1,8
77157,260.869565217391,3,1,0,90,1,0
89678,-100,3,1,0,90,0,1
102200,-100,3,1,0,90,0,0
152287,-181.818181818182,3,1,0,90,0,0
153852,-100,3,1,0,90,0,1
178896,-100,3,1,0,90,0,0
179678,-100,3,1,0,90,0,0

[HitObjects]
288,224,9324,5,12,0:0:0:0:
224,160,9583,1,0,0:0:0:0:
224,160,9844,1,0,0:0:0:0:
224,160,9975,1,0,0:0:0:0:
288,160,10105,1,8,0:0:0:0:
288,224,10366,1,12,0:0:0:0:
224,160,10627,1,0,0:0:0:0:
288,160,10888,1,8,0:0:0:0:
224,160,11018,1,0,0:0:0:0:
288,160,11149,1,8,0:0:0:0:
288,224,11409,1,12,0:0:0:0:
224,160,11670,1,0,0:0:0:0:
288,160,11931,1,8,0:0:0:0:
288,160,12062,1,8,0:0:0:0:
288,160,12192,1,8,0:0:0:0:
288,224,12453,1,12,0:0:0:0:
224,160,12714,1,0,0:0:0:0:
288,160,12975,1,8,0:0:0:0:
224,160,13105,1,0,0:0:0:0:
288,160,13236,1,8,0:0:0:0:
288,160,13366,1,8,0:0:0:0:
224,224,13496,1,4,0:0:0:0:
224,160,15583,1,0,0:0:0:0:
288,160,15714,1,8,0:0:0:0:
288,160,15779,1,8,0:0:0:0:
288,160,15844,1,8,0:0:0:0:
288,160,15975,1,8,0:0:0:0:
224,160,16105,1,0,0:0:0:0:
288,160,16236,1,8,0:0:0:0:
288,160,16301,1,8,0:0:0:0:
224,160,16366,1,0,0:0:0:0:
288,160,16496,1,8,0:0:0:0:
224,160,16627,1,0,0:0:0:0:
224,160,16692,1,0,0:0:0:0:
224,160,16757,1,0,0:0:0:0:
224,160,16822,1,0,0:0:0:0:
288,160,16888,1,8,0:0:0:0:
224,160,17018,1,0,0:0:0:0:
224,160,17083,1,0,0:0:0:0:
288,160,17149,1,8,0:0:0:0:
288,160,17214,1,8,0:0:0:0:
224,160,17279,1,0,0:0:0:0:
288,160,17409,1,8,0:0:0:0:
288,160,17475,1,8,0:0:0:0:
288,160,17540,1,8,0:0:0:0:
224,224,17670,1,4,0:0:0:0:
224,160,17931,1,0,0:0:0:0:
288,160,18062,1,8,0:0:0:0:
224,160,18192,1,0,0:0:0:0:
224,160,18322,1,0,0:0:0:0:
288,160,18453,1,8,0:0:0:0:
288,160,18518,1,8,0:0:0:0:
224,160,18583,1,0,0:0:0:0:
288,160,18714,1,8,0:0:0:0:
224,160,18844,1,0,0:0:0:0:
288,160,18975,1,8,0:0:0:0:
288,160,19105,1,8,0:0:0:0:
224,160,19236,1,0,0:0:0:0:
224,160,19301,1,0,0:0:0:0:
224,160,19366,1,0,0:0:0:0:
288,160,19496,1,8,0:0:0:0:
224,160,19562,1,0,0:0:0:0:
288,160,19627,1,8,0:0:0:0:
224,160,19757,1,0,0:0:0:0:
224,160,19822,1,0,0:0:0:0:
288,160,19888,1,8,0:0:0:0:
224,160,20018,1,0,0:0:0:0:
288,160,20279,1,8,0:0:0:0:
224,160,20409,1,0,0:0:0:0:
288,160,20540,1,8,0:0:0:0:
224,160,20670,1,0,0:0:0:0:
224,160,20736,1,0,0:0:0:0:
288,160,20801,1,8,0:0:0:0:
224,160,20931,1,0,0:0:0:0:
288,160,21062,1,8,0:0:0:0:
224,160,21127,1,0,0:0:0:0:
224,160,21192,1,0,0:0:0:0:
224,160,21257,1,0,0:0:0:0:
288,160,21322,1,8,0:0:0:0:
288,160,21453,1,8,0:0:0:0:
288,160,21518,1,8,0:0:0:0:
224,160,21583,1,0,0:0:0:0:
288,160,21714,1,8,0:0:0:0:
224,160,21844,1,0,0:0:0:0:
224,160,22105,1,0,0:0:0:0:
224,160,22170,1,0,0:0:0:0:
288,160,22236,1,8,0:0:0:0:
288,160,22366,1,8,0:0:0:0:
224,160,22496,1,0,0:0:0:0:
288,160,22627,1,8,0:0:0:0:
288,160,22692,1,8,0:0:0:0:
288,160,22757,1,8,0:0:0:0:
224,160,22888,1,0,0:0:0:0:
288,160,23018,1,8,0:0:0:0:
224,160,23149,1,0,0:0:0:0:
288,160,23279,1,8,0:0:0:0:
224,160,23409,1,0,0:0:0:0:
288,160,23540,1,8,0:0:0:0:
288,160,23605,1,8,0:0:0:0:
224,160,23670,1,0,0:0:0:0:
224,160,23736,1,0,0:0:0:0:
288,160,23801,1,8,0:0:0:0:
224,160,23931,1,0,0:0:0:0:
224,160,23996,1,0,0:0:0:0:
288,160,24062,1,8,0:0:0:0:
288,160,24192,1,8,0:0:0:0:
224,160,24322,1,0,0:0:0:0:
288,160,24453,1,8,0:0:0:0:
288,160,24518,1,8,0:0:0:0:
224,160,24583,1,0,0:0:0:0:
288,160,24714,1,8,0:0:0:0:
288,160,24779,1,8,0:0:0:0:
288,160,24844,1,8,0:0:0:0:
288,160,24909,1,8,0:0:0:0:
224,160,24975,1,0,0:0:0:0:
288,160,25236,1,8,0:0:0:0:
288,160,25301,1,8,0:0:0:0:
288,160,25366,1,8,0:0:0:0:
288,160,25431,1,8,0:0:0:0:
224,160,25496,1,0,0:0:0:0:
224,160,25562,1,0,0:0:0:0:
224,160,25627,1,0,0:0:0:0:
224,160,25692,1,0,0:0:0:0:
288,160,25757,1,8,0:0:0:0:
288,160,25888,1,8,0:0:0:0:
224,224,26018,1,4,0:0:0:0:
288,160,26279,1,8,0:0:0:0:
224,160,26344,1,0,0:0:0:0:
224,160,26409,1,0,0:0:0:0:
224,160,26475,1,0,0:0:0:0:
288,160,26540,1,8,0:0:0:0:
224,160,26670,1,0,0:0:0:0:
288,160,26801,1,8,0:0:0:0:
224,160,26866,1,0,0:0:0:0:
288,160,26931,1,8,0:0:0:0:
224,160,26996,1,0,0:0:0:0:
288,160,27062,1,8,0:0:0:0:
224,160,27192,1,0,0:0:0:0:
288,160,27322,1,8,0:0:0:0:
288,160,27388,1,8,0:0:0:0:
224,160,27453,1,0,0:0:0:0:
288,160,27583,1,8,0:0:0:0:
224,160,27714,1,0,0:0:0:0:
288,160,27844,1,8,0:0:0:0:
224,160,27909,1,0,0:0:0:0:
288,160,27975,1,8,0:0:0:0:
224,160,28040,1,0,0:0:0:0:
288,160,28105,1,8,0:0:0:0:
224,160,28170,1,0,0:0:0:0:
288,160,28236,1,8,0:0:0:0:
224,160,28301,1,0,0:0:0:0:
288,160,28366,1,8,0:0:0:0:
288,160,28627,1,8,0:0:0:0:
224,160,28692,1,0,0:0:0:0:
288,160,28757,1,8,0:0:0:0:
224,160,28822,1,0,0:0:0:0:
288,160,28888,1,8,0:0:0:0:
224,160,28953,1,0,0:0:0:0:
288,160,29018,1,8,0:0:0:0:
224,160,29149,1,0,0:0:0:0:
288,160,29409,1,8,0:0:0:0:
224,160,29540,1,0,0:0:0:0:
288,160,29670,1,8,0:0:0:0:
288,160,29736,1,8,0:0:0:0:
288,160,29801,1,8,0:0:0:0:
288,160,29866,1,8,0:0:0:0:
224,160,29931,1,0,0:0:0:0:
224,160,29996,1,0,0:0:0:0:
224,160,30062,1,0,0:0:0:0:
224,160,30127,1,0,0:0:0:0:
288,160,30192,1,8,0:0:0:0:
224,160,30453,1,0,0:0:0:0:
224,160,30583,1,0,0:0:0:0:
288,160,30714,1,8,0:0:0:0:
288,160,30779,1,8,0:0:0:0:
224,160,30844,1,0,0:0:0:0:
224,160,30909,1,0,0:0:0:0:
288,160,30975,1,8,0:0:0:0:
288,160,31105,1,8,0:0:0:0:
288,160,31236,1,8,0:0:0:0:
288,160,31301,1,8,0:0:0:0:
224,160,31366,1,0,0:0:0:0:
288,160,31496,1,8,0:0:0:0:
224,160,31627,1,0,0:0:0:0:
288,160,31757,1,8,0:0:0:0:
224,160,32018,1,0,0:0:0:0:
288,160,32149,1,8,0:0:0:0:
288,160,32214,1,8,0:0:0:0:
224,160,32279,1,0,0:0:0:0:
288,160,32409,1,8,0:0:0:0:
224,160,32475,1,0,0:0:0:0:
288,160,32540,1,8,0:0:0:0:
224,160,32670,1,0,0:0:0:0:
288,160,32801,1,8,0:0:0:0:
288,160,32866,1,8,0:0:0:0:
288,160,32931,1,8,0:0:0:0:
288,160,32996,1,8,0:0:0:0:
224,160,33062,1,0,0:0:0:0:
288,160,33192,1,8,0:0:0:0:
224,160,33322,1,0,0:0:0:0:
288,160,33453,1,8,0:0:0:0:
288,160,33518,1,8,0:0:0:0:
288,160,33583,1,8,0:0:0:0:
288,160,33649,1,8,0:0:0:0:
224,160,33714,1,0,0:0:0:0:
224,160,33844,1,0,0:0:0:0:
288,160,33909,1,8,0:0:0:0:
288,160,33975,1,8,0:0:0:0:
288,160,34040,1,8,0:0:0:0:
224,160,34105,1,0,0:0:0:0:
288,160,34236,1,8,0:0:0:0:
224,160,34366,1,0,0:0:0:0:
288,160,34626,1,8,0:0:0:0:
224,160,34887,1,0,0:0:0:0:
288,224,35148,1,12,0:0:0:0:
288,160,35931,1,8,0:0:0:0:
288,160,36192,1,8,0:0:0:0:
224,160,36452,1,0,0:0:0:0:
288,160,36713,1,8,0:0:0:0:
224,160,36779,1,0,0:0:0:0:
224,160,36844,1,0,0:0:0:0:
224,160,36909,1,0,0:0:0:0:
224,160,36974,1,0,0:0:0:0:
224,160,37039,1,0,0:0:0:0:
224,160,37105,1,0,0:0:0:0:
224,160,37170,1,0,0:0:0:0:
288,160,37235,1,8,0:0:0:0:
224,160,37496,1,0,0:0:0:0:
288,160,37757,1,8,0:0:0:0:
224,160,38018,1,0,0:0:0:0:
288,224,38279,1,12,0:0:0:0:
288,160,38539,1,8,0:0:0:0:
288,160,38670,1,8,0:0:0:0:
288,160,38735,1,8,0:0:0:0:
288,160,38800,1,8,0:0:0:0:
288,160,38931,1,8,0:0:0:0:
224,160,39061,1,0,0:0:0:0:
224,160,39322,1,0,0:0:0:0:
288,160,39583,1,8,0:0:0:0:
288,160,39844,1,8,0:0:0:0:
288,160,39909,1,8,0:0:0:0:
288,160,39974,1,8,0:0:0:0:
224,160,40105,1,0,0:0:0:0:
224,160,40235,1,0,0:0:0:0:
288,160,40365,1,8,0:0:0:0:
288,160,40431,1,8,0:0:0:0:
288,160,40496,1,8,0:0:0:0:
288,160,40561,1,8,0:0:0:0:
224,160,40626,1,0,0:0:0:0:
288,160,40887,1,8,0:0:0:0:
224,160,41148,1,0,0:0:0:0:
288,224,41409,1,12,0:0:0:0:
288,160,41931,1,8,0:0:0:0:
224,160,41996,1,0,0:0:0:0:
224,160,42061,1,0,0:0:0:0:
224,160,42126,1,0,0:0:0:0:
288,160,42192,1,8,0:0:0:0:
224,160,42322,1,0,0:0:0:0:
224,160,42452,1,0,0:0:0:0:
288,160,42583,1,8,0:0:0:0:
224,160,42713,1,0,0:0:0:0:
224,160,42844,1,0,0:0:0:0:
288,160,42974,1,8,0:0:0:0:
224,160,43039,1,0,0:0:0:0:
288,160,43105,1,8,0:0:0:0:
224,160,43170,1,0,0:0:0:0:
288,160,43235,1,8,0:0:0:0:
224,160,43365,1,0,0:0:0:0:
224,160,43431,1,0,0:0:0:0:
288,160,43496,1,8,0:0:0:0:
224,160,43561,1,0,0:0:0:0:
288,160,43626,1,8,0:0:0:0:
224,160,43757,1,0,0:0:0:0:
288,160,44018,1,8,0:0:0:0:
224,160,44279,1,0,0:0:0:0:
288,224,44539,1,12,0:0:0:0:
288,160,44800,1,8,0:0:0:0:
288,160,44865,1,8,0:0:0:0:
288,160,44931,1,8,0:0:0:0:
288,160,44996,1,8,0:0:0:0:
224,160,45061,1,0,0:0:0:0:
288,160,45322,1,8,0:0:0:0:
288,160,45387,1,8,0:0:0:0:
288,160,45452,1,8,0:0:0:0:
288,160,45518,1,8,0:0:0:0:
224,160,45583,1,0,0:0:0:0:
288,160,45713,1,8,0:0:0:0:
224,160,45844,1,0,0:0:0:0:
224,160,45909,1,0,0:0:0:0:
224,160,45974,1,0,0:0:0:0:
288,224,46105,1,12,0:0:0:0:
224,224,46887,1,4,0:0:0:0:
224,160,47148,1,0,0:0:0:0:
224,160,47213,1,0,0:0:0:0:
224,160,47279,1,0,0:0:0:0:
224,160,47344,1,0,0:0:0:0:
288,160,47409,1,8,0:0:0:0:
224,160,47539,1,0,0:0:0:0:
288,160,47670,1,8,0:0:0:0:
288,160,47735,1,8,0:0:0:0:
288,160,47800,1,8,0:0:0:0:
288,160,47865,1,8,0:0:0:0:
224,160,47931,1,0,0:0:0:0:
288,160,48061,1,8,0:0:0:0:
288,160,48192,1,8,0:0:0:0:
288,160,48257,1,8,0:0:0:0:
288,160,48322,1,8,0:0:0:0:
288,160,48387,1,8,0:0:0:0:
224,160,48452,1,0,0:0:0:0:
288,160,48713,1,8,0:0:0:0:
288,160,48779,1,8,0:0:0:0:
224,160,48844,1,0,0:0:0:0:
224,160,48909,1,0,0:0:0:0:
288,160,48974,1,8,0:0:0:0:
224,160,49105,1,0,0:0:0:0:
224,160,49170,1,0,0:0:0:0:
288,160,49235,1,8,0:0:0:0:
224,160,49365,1,0,0:0:0:0:
288,160,49496,1,8,0:0:0:0:
224,160,49561,1,0,0:0:0:0:
224,160,49626,1,0,0:0:0:0:
224,160,49692,1,0,0:0:0:0:
288,160,49757,1,8,0:0:0:0:
288,160,49887,1,8,0:0:0:0:
224,160,50018,1,0,0:0:0:0:
224,160,50083,1,0,0:0:0:0:
224,160,50148,1,0,0:0:0:0:
224,160,50213,1,0,0:0:0:0:
288,160,50279,1,8,0:0:0:0:
224,160,50409,1,0,0:0:0:0:
288,160,50539,1,8,0:0:0:0:
224,160,50605,1,0,0:0:0:0:
224,160,50670,1,0,0:0:0:0:
288,160,50800,1,8,0:0:0:0:
288,160,50865,1,8,0:0:0:0:
288,160,50931,1,8,0:0:0:0:
288,160,50996,1,8,0:0:0:0:
224,160,51061,1,0,0:0:0:0:
224,160,51126,1,0,0:0:0:0:
224,160,51192,1,0,0:0:0:0:
224,160,51257,1,0,0:0:0:0:
288,160,51322,1,8,0:0:0:0:
224,160,51583,1,0,0:0:0:0:
288,160,51713,1,8,0:0:0:0:
288,160,51779,1,8,0:0:0:0:
288,160,51844,1,8,0:0:0:0:
288,160,51909,1,8,0:0:0:0:
288,160,51974,1,8,0:0:0:0:
288,160,52039,1,8,0:0:0:0:
224,160,52105,1,0,0:0:0:0:
224,160,52235,1,0,0:0:0:0:
288,160,52365,1,8,0:0:0:0:
288,160,52431,1,8,0:0:0:0:
288,160,52496,1,8,0:0:0:0:
288,160,52561,1,8,0:0:0:0:
224,160,52626,1,0,0:0:0:0:
224,160,52757,1,0,0:0:0:0:
288,160,52887,1,8,0:0:0:0:
288,160,53018,1,8,0:0:0:0:
224,224,53148,1,4,0:0:0:0:
288,160,53409,1,8,0:0:0:0:
288,160,53474,1,8,0:0:0:0:
224,160,53539,1,0,0:0:0:0:
224,160,53605,1,0,0:0:0:0:
288,160,53670,1,8,0:0:0:0:
288,160,53800,1,8,0:0:0:0:
224,160,53931,1,0,0:0:0:0:
224,160,53996,1,0,0:0:0:0:
224,160,54061,1,0,0:0:0:0:
224,160,54126,1,0,0:0:0:0:
288,160,54192,1,8,0:0:0:0:
224,160,54322,1,0,0:0:0:0:
224,160,54387,1,0,0:0:0:0:
288,160,54452,1,8,0:0:0:0:
224,160,54583,1,0,0:0:0:0:
288,160,54713,1,8,0:0:0:0:
224,160,54779,1,0,0:0:0:0:
288,160,54844,1,8,0:0:0:0:
224,160,54974,1,0,0:0:0:0:
224,160,55039,1,0,0:0:0:0:
224,160,55105,1,0,0:0:0:0:
224,160,55170,1,0,0:0:0:0:
288,160,55235,1,8,0:0:0:0:
224,160,55365,1,0,0:0:0:0:
288,160,55496,1,8,0:0:0:0:
288,160,55561,1,8,0:0:0:0:
224,160,55626,1,0,0:0:0:0:
224,160,55692,1,0,0:0:0:0:
288,160,55757,1,8,0:0:0:0:
288,160,55887,1,8,0:0:0:0:
224,160,56018,1,0,0:0:0:0:
224,160,56279,1,0,0:0:0:0:
224,160,56344,1,0,0:0:0:0:
224,160,56409,1,0,0:0:0:0:
224,160,56474,1,0,0:0:0:0:
288,160,56539,1,8,0:0:0:0:
224,160,56670,1,0,0:0:0:0:
288,160,56800,1,8,0:0:0:0:
224,160,56931,1,0,0:0:0:0:
288,160,57061,1,8,0:0:0:0:
288,160,57126,1,8,0:0:0:0:
288,160,57192,1,8,0:0:0:0:
288,160,57257,1,8,0:0:0:0:
224,160,57322,1,0,0:0:0:0:
224,160,57452,1,0,0:0:0:0:
288,160,57583,1,8,0:0:0:0:
288,160,57844,1,8,0:0:0:0:
288,160,57909,1,8,0:0:0:0:
288,160,57974,1,8,0:0:0:0:
288,160,58039,1,8,0:0:0:0:
224,160,58105,1,0,0:0:0:0:
224,160,58235,1,0,0:0:0:0:
224,160,58300,1,0,0:0:0:0:
288,160,58365,1,8,0:0:0:0:
288,160,58431,1,8,0:0:0:0:
224,160,58496,1,0,0:0:0:0:
288,160,58626,1,8,0:0:0:0:
288,160,58757,1,8,0:0:0:0:
288,160,58822,1,8,0:0:0:0:
224,160,58887,1,0,0:0:0:0:
224,160,59018,1,0,0:0:0:0:
224,160,59083,1,0,0:0:0:0:
288,160,59148,1,8,0:0:0:0:
288,160,59213,1,8,0:0:0:0:
288,160,59279,1,8,0:0:0:0:
288,160,59344,1,8,0:0:0:0:
224,160,59409,1,0,0:0:0:0:
288,160,59603,1,8,0:0:0:0:
288,160,59668,1,8,0:0:0:0:
288,160,59799,1,8,0:0:0:0:
224,160,59929,1,0,0:0:0:0:
224,160,60060,1,0,0:0:0:0:
224,160,60125,1,0,0:0:0:0:
288,160,60190,1,8,0:0:0:0:
288,160,60321,1,8,0:0:0:0:
224,224,60451,1,4,0:0:0:0:
224,160,60712,1,0,0:0:0:0:
288,160,60842,1,8,0:0:0:0:
224,160,60973,1,0,0:0:0:0:
224,160,61103,1,0,0:0:0:0:
288,160,61234,1,8,0:0:0:0:
288,160,61299,1,8,0:0:0:0:
224,160,61364,1,0,0:0:0:0:
288,160,61494,1,8,0:0:0:0:
224,160,61625,1,0,0:0:0:0:
288,160,61755,1,8,0:0:0:0:
288,160,61886,1,8,0:0:0:0:
224,160,62016,1,0,0:0:0:0:
224,160,62081,1,0,0:0:0:0:
224,160,62147,1,0,0:0:0:0:
288,160,62277,1,8,0:0:0:0:
288,160,62342,1,8,0:0:0:0:
224,160,62408,1,0,0:0:0:0:
288,160,62538,1,8,0:0:0:0:
224,160,62603,1,0,0:0:0:0:
288,160,62668,1,8,0:0:0:0:
224,160,62799,1,0,0:0:0:0:
288,160,63060,1,8,0:0:0:0:
224,160,63190,1,0,0:0:0:0:
288,160,63321,1,8,0:0:0:0:
288,160,63386,1,8,0:0:0:0:
224,160,63451,1,0,0:0:0:0:
224,160,63516,1,0,0:0:0:0:
288,160,63581,1,8,0:0:0:0:
224,160,63712,1,0,0:0:0:0:
288,160,63842,1,8,0:0:0:0:
224,160,63907,1,0,0:0:0:0:
224,160,63973,1,0,0:0:0:0:
288,160,64103,1,8,0:0:0:0:
224,160,64234,1,0,0:0:0:0:
288,160,64364,1,8,0:0:0:0:
224,160,64429,1,0,0:0:0:0:
288,160,64494,1,8,0:0:0:0:
224,160,64625,1,0,0:0:0:0:
224,160,64886,1,0,0:0:0:0:
224,160,64951,1,0,0:0:0:0:
288,160,65016,1,8,0:0:0:0:
288,160,65147,1,8,0:0:0:0:
224,160,65277,1,0,0:0:0:0:
288,160,65407,1,8,0:0:0:0:
288,160,65537,1,8,0:0:0:0:
224,160,65668,1,0,0:0:0:0:
224,160,65799,1,0,0:0:0:0:
288,160,65929,1,8,0:0:0:0:
288,160,65994,1,8,0:0:0:0:
224,160,66060,1,0,0:0:0:0:
288,160,66190,1,8,0:0:0:0:
224,160,66255,1,0,0:0:0:0:
288,160,66321,1,8,0:0:0:0:
224,160,66451,1,0,0:0:0:0:
288,160,66581,1,8,0:0:0:0:
288,160,66647,1,8,0:0:0:0:
224,160,66712,1,0,0:0:0:0:
224,160,66777,1,0,0:0:0:0:
288,160,66842,1,8,0:0:0:0:
288,160,66973,1,8,0:0:0:0:
224,160,67103,1,0,0:0:0:0:
224,160,67168,1,0,0:0:0:0:
288,160,67234,1,8,0:0:0:0:
224,160,67364,1,0,0:0:0:0:
288,160,67494,1,8,0:0:0:0:
288,160,67560,1,8,0:0:0:0:
288,160,67625,1,8,0:0:0:0:
288,160,67690,1,8,0:0:0:0:
224,160,67755,1,0,0:0:0:0:
288,160,68016,1,8,0:0:0:0:
288,160,68081,1,8,0:0:0:0:
288,160,68147,1,8,0:0:0:0:
288,160,68212,1,8,0:0:0:0:
224,160,68277,1,0,0:0:0:0:
224,160,68342,1,0,0:0:0:0:
224,160,68407,1,0,0:0:0:0:
224,160,68473,1,0,0:0:0:0:
288,160,68538,1,8,0:0:0:0:
288,160,68668,1,8,0:0:0:0:
224,224,68799,1,4,0:0:0:0:
288,160,69060,1,8,0:0:0:0:
224,160,69125,1,0,0:0:0:0:
224,160,69190,1,0,0:0:0:0:
224,160,69255,1,0,0:0:0:0:
288,160,69321,1,8,0:0:0:0:
224,160,69451,1,0,0:0:0:0:
288,160,69581,1,8,0:0:0:0:
224,160,69647,1,0,0:0:0:0:
288,160,69712,1,8,0:0:0:0:
224,160,69777,1,0,0:0:0:0:
288,160,69842,1,8,0:0:0:0:
224,160,69973,1,0,0:0:0:0:
288,160,70103,1,8,0:0:0:0:
288,160,70168,1,8,0:0:0:0:
224,160,70234,1,0,0:0:0:0:
288,160,70364,1,8,0:0:0:0:
224,160,70494,1,0,0:0:0:0:
288,160,70625,1,8,0:0:0:0:
224,160,70690,1,0,0:0:0:0:
288,160,70755,1,8,0:0:0:0:
224,160,70821,1,0,0:0:0:0:
288,160,70886,1,8,0:0:0:0:
224,160,70951,1,0,0:0:0:0:
288,160,71016,1,8,0:0:0:0:
224,160,71081,1,0,0:0:0:0:
288,160,71147,1,8,0:0:0:0:
288,160,71407,1,8,0:0:0:0:
224,160,71473,1,0,0:0:0:0:
288,160,71538,1,8,0:0:0:0:
224,160,71603,1,0,0:0:0:0:
288,160,71668,1,8,0:0:0:0:
224,160,71734,1,0,0:0:0:0:
288,160,71799,1,8,0:0:0:0:
224,160,71929,1,0,0:0:0:0:
288,160,72190,1,8,0:0:0:0:
288,160,72255,1,8,0:0:0:0:
224,160,72321,1,0,0:0:0:0:
288,160,72451,1,8,0:0:0:0:
224,160,72581,1,0,0:0:0:0:
224,160,72647,1,0,0:0:0:0:
288,160,72712,1,8,0:0:0:0:
288,160,72777,1,8,0:0:0:0:
288,160,72842,1,8,0:0:0:0:
288,160,72907,1,8,0:0:0:0:
224,160,72973,1,0,0:0:0:0:
224,160,73234,1,0,0:0:0:0:
224,160,73364,1,0,0:0:0:0:
288,160,73494,1,8,0:0:0:0:
288,160,73560,1,8,0:0:0:0:
224,160,73625,1,0,0:0:0:0:
224,160,73690,1,0,0:0:0:0:
288,160,73755,1,8,0:0:0:0:
288,160,73886,1,8,0:0:0:0:
288,160,74016,1,8,0:0:0:0:
288,160,74081,1,8,0:0:0:0:
224,160,74147,1,0,0:0:0:0:
288,160,74277,1,8,0:0:0:0:
224,160,74407,1,0,0:0:0:0:
288,160,74538,1,8,0:0:0:0:
224,160,74799,1,0,0:0:0:0:
288,160,74929,1,8,0:0:0:0:
224,160,75060,1,0,0:0:0:0:
288,160,75125,1,8,0:0:0:0:
224,160,75190,1,0,0:0:0:0:
288,160,75255,1,8,0:0:0:0:
224,160,75321,1,0,0:0:0:0:
224,160,75451,1,0,0:0:0:0:
224,160,75516,1,0,0:0:0:0:
288,160,75581,1,8,0:0:0:0:
224,160,75712,1,0,0:0:0:0:
288,160,75842,1,8,0:0:0:0:
288,160,75907,1,8,0:0:0:0:
288,160,75973,1,8,0:0:0:0:
288,160,76038,1,8,0:0:0:0:
224,160,76103,1,0,0:0:0:0:
288,160,76234,1,8,0:0:0:0:
288,160,76299,1,8,0:0:0:0:
288,160,76364,1,8,0:0:0:0:
288,160,76429,1,8,0:0:0:0:
224,160,76494,1,0,0:0:0:0:
288,160,76625,1,8,0:0:0:0:
288,160,76690,1,8,0:0:0:0:
224,160,76755,1,0,0:0:0:0:
288,160,76886,1,8,0:0:0:0:
288,160,77016,1,8,0:0:0:0:
224,160,77157,1,0,0:0:0:0:
288,160,77417,1,8,0:0:0:0:
224,160,77678,1,0,0:0:0:0:
288,224,77939,1,12,0:0:0:0:
288,160,78722,1,8,0:0:0:0:
288,160,78983,1,8,0:0:0:0:
224,160,79243,1,0,0:0:0:0:
288,160,79504,1,8,0:0:0:0:
224,160,79570,1,0,0:0:0:0:
224,160,79635,1,0,0:0:0:0:
224,160,79700,1,0,0:0:0:0:
224,160,79765,1,0,0:0:0:0:
224,160,79830,1,0,0:0:0:0:
224,160,79896,1,0,0:0:0:0:
224,160,79961,1,0,0:0:0:0:
288,160,80026,1,8,0:0:0:0:
224,160,80287,1,0,0:0:0:0:
288,160,80548,1,8,0:0:0:0:
224,160,80809,1,0,0:0:0:0:
288,224,81070,1,12,0:0:0:0:
288,160,81330,1,8,0:0:0:0:
288,160,81396,1,8,0:0:0:0:
288,160,81461,1,8,0:0:0:0:
288,160,81526,1,8,0:0:0:0:
288,160,81591,1,8,0:0:0:0:
288,160,81722,1,8,0:0:0:0:
224,160,81852,1,0,0:0:0:0:
224,160,82113,1,0,0:0:0:0:
288,160,82374,1,8,0:0:0:0:
288,160,82635,1,8,0:0:0:0:
224,160,82765,1,0,0:0:0:0:
224,160,82830,1,0,0:0:0:0:
224,160,82896,1,0,0:0:0:0:
224,160,83026,1,0,0:0:0:0:
224,160,83091,1,0,0:0:0:0:
288,160,83156,1,8,0:0:0:0:
288,160,83287,1,8,0:0:0:0:
224,160,83417,1,0,0:0:0:0:
288,160,83678,1,8,0:0:0:0:
224,160,83939,1,0,0:0:0:0:
288,224,84200,1,12,0:0:0:0:
288,160,84722,1,8,0:0:0:0:
224,160,84787,1,0,0:0:0:0:
224,160,84852,1,0,0:0:0:0:
224,160,84917,1,0,0:0:0:0:
288,160,84983,1,8,0:0:0:0:
224,160,85113,1,0,0:0:0:0:
224,160,85243,1,0,0:0:0:0:
288,160,85374,1,8,0:0:0:0:
224,160,85504,1,0,0:0:0:0:
224,160,85635,1,0,0:0:0:0:
288,160,85765,1,8,0:0:0:0:
224,160,85830,1,0,0:0:0:0:
288,160,85896,1,8,0:0:0:0:
224,160,85961,1,0,0:0:0:0:
288,160,86026,1,8,0:0:0:0:
224,160,86156,1,0,0:0:0:0:
224,160,86222,1,0,0:0:0:0:
288,160,86287,1,8,0:0:0:0:
224,160,86352,1,0,0:0:0:0:
288,160,86417,1,8,0:0:0:0:
224,160,86548,1,0,0:0:0:0:
288,160,86809,1,8,0:0:0:0:
224,160,87070,1,0,0:0:0:0:
288,224,87330,1,12,0:0:0:0:
224,160,87591,1,0,0:0:0:0:
224,160,87656,1,0,0:0:0:0:
224,160,87722,1,0,0:0:0:0:
224,160,87787,1,0,0:0:0:0:
288,160,87852,1,8,0:0:0:0:
224,160,87983,1,0,0:0:0:0:
288,160,88113,1,8,0:0:0:0:
288,160,88243,1,8,0:0:0:0:
288,160,88309,1,8,0:0:0:0:
224,160,88374,1,0,0:0:0:0:
224,160,88504,1,0,0:0:0:0:
224,160,88570,1,0,0:0:0:0:
288,160,88635,1,8,0:0:0:0:
224,160,88765,1,0,0:0:0:0:
288,224,88896,1,12,0:0:0:0:
224,224,89678,1,4,0:0:0:0:
224,160,89939,1,0,0:0:0:0:
224,160,90004,1,0,0:0:0:0:
224,160,90070,1,0,0:0:0:0:
224,160,90135,1,0,0:0:0:0:
288,160,90200,1,8,0:0:0:0:
224,160,90330,1,0,0:0:0:0:
288,160,90461,1,8,0:0:0:0:
288,160,90526,1,8,0:0:0:0:
288,160,90591,1,8,0:0:0:0:
288,160,90656,1,8,0:0:0:0:
224,160,90722,1,0,0:0:0:0:
288,160,90852,1,8,0:0:0:0:
288,160,90983,1,8,0:0:0:0:
288,160,91048,1,8,0:0:0:0:
288,160,91113,1,8,0:0:0:0:
288,160,91178,1,8,0:0:0:0:
224,160,91243,1,0,0:0:0:0:
288,160,91504,1,8,0:0:0:0:
288,160,91570,1,8,0:0:0:0:
224,160,91635,1,0,0:0:0:0:
224,160,91700,1,0,0:0:0:0:
288,160,91765,1,8,0:0:0:0:
224,160,91896,1,0,0:0:0:0:
224,160,91961,1,0,0:0:0:0:
288,160,92026,1,8,0:0:0:0:
224,160,92156,1,0,0:0:0:0:
288,160,92287,1,8,0:0:0:0:
224,160,92352,1,0,0:0:0:0:
224,160,92417,1,0,0:0:0:0:
224,160,92483,1,0,0:0:0:0:
288,160,92548,1,8,0:0:0:0:
288,160,92678,1,8,0:0:0:0:
224,160,92809,1,0,0:0:0:0:
224,160,92874,1,0,0:0:0:0:
224,160,92939,1,0,0:0:0:0:
224,160,93004,1,0,0:0:0:0:
288,160,93070,1,8,0:0:0:0:
224,160,93200,1,0,0:0:0:0:
288,160,93330,1,8,0:0:0:0:
224,160,93396,1,0,0:0:0:0:
224,160,93461,1,0,0:0:0:0:
288,160,93591,1,8,0:0:0:0:
288,160,93656,1,8,0:0:0:0:
288,160,93722,1,8,0:0:0:0:
288,160,93787,1,8,0:0:0:0:
224,160,93852,1,0,0:0:0:0:
224,160,93917,1,0,0:0:0:0:
224,160,93983,1,0,0:0:0:0:
224,160,94048,1,0,0:0:0:0:
288,160,94113,1,8,0:0:0:0:
224,160,94374,1,0,0:0:0:0:
288,160,94504,1,8,0:0:0:0:
288,160,94570,1,8,0:0:0:0:
288,160,94635,1,8,0:0:0:0:
288,160,94700,1,8,0:0:0:0:
288,160,94765,1,8,0:0:0:0:
288,160,94830,1,8,0:0:0:0:
224,160,94896,1,0,0:0:0:0:
224,160,95026,1,0,0:0:0:0:
288,160,95156,1,8,0:0:0:0:
288,160,95222,1,8,0:0:0:0:
288,160,95287,1,8,0:0:0:0:
288,160,95352,1,8,0:0:0:0:
224,160,95417,1,0,0:0:0:0:
224,160,95548,1,0,0:0:0:0:
224,160,95613,1,0,0:0:0:0:
288,160,95678,1,8,0:0:0:0:
288,160,95809,1,8,0:0:0:0:
224,224,95939,1,4,0:0:0:0:
288,160,96200,1,8,0:0:0:0:
288,160,96265,1,8,0:0:0:0:
224,160,96330,1,0,0:0:0:0:
224,160,96396,1,0,0:0:0:0:
288,160,96461,1,8,0:0:0:0:
288,160,96591,1,8,0:0:0:0:
224,160,96722,1,0,0:0:0:0:
224,160,96787,1,0,0:0:0:0:
224,160,96852,1,0,0:0:0:0:
224,160,96917,1,0,0:0:0:0:
288,160,96983,1,8,0:0:0:0:
224,160,97113,1,0,0:0:0:0:
224,160,97178,1,0,0:0:0:0:
288,160,97243,1,8,0:0:0:0:
224,160,97374,1,0,0:0:0:0:
288,160,97504,1,8,0:0:0:0:
288,160,97570,1,8,0:0:0:0:
288,160,97635,1,8,0:0:0:0:
224,160,97765,1,0,0:0:0:0:
224,160,97830,1,0,0:0:0:0:
224,160,97896,1,0,0:0:0:0:
224,160,97961,1,0,0:0:0:0:
288,160,98026,1,8,0:0:0:0:
224,160,98156,1,0,0:0:0:0:
288,160,98287,1,8,0:0:0:0:
288,160,98352,1,8,0:0:0:0:
224,160,98417,1,0,0:0:0:0:
224,160,98483,1,0,0:0:0:0:
288,160,98548,1,8,0:0:0:0:
288,160,98678,1,8,0:0:0:0:
224,160,98809,1,0,0:0:0:0:
224,160,99070,1,0,0:0:0:0:
224,160,99135,1,0,0:0:0:0:
224,160,99200,1,0,0:0:0:0:
224,160,99265,1,0,0:0:0:0:
288,160,99330,1,8,0:0:0:0:
224,160,99461,1,0,0:0:0:0:
288,160,99591,1,8,0:0:0:0:
224,160,99722,1,0,0:0:0:0:
288,160,99852,1,8,0:0:0:0:
288,160,99917,1,8,0:0:0:0:
288,160,99983,1,8,0:0:0:0:
288,160,100048,1,8,0:0:0:0:
224,160,100113,1,0,0:0:0:0:
224,160,100243,1,0,0:0:0:0:
288,160,100374,1,8,0:0:0:0:
288,160,100635,1,8,0:0:0:0:
288,160,100700,1,8,0:0:0:0:
288,160,100765,1,8,0:0:0:0:
288,160,100830,1,8,0:0:0:0:
224,160,100896,1,0,0:0:0:0:
224,160,101026,1,0,0:0:0:0:
288,160,101156,1,8,0:0:0:0:
288,160,101222,1,8,0:0:0:0:
288,160,101287,1,8,0:0:0:0:
288,160,101352,1,8,0:0:0:0:
288,160,101417,1,8,0:0:0:0:
288,160,101483,1,8,0:0:0:0:
288,160,101548,1,8,0:0:0:0:
288,160,101613,1,8,0:0:0:0:
224,160,101678,1,0,0:0:0:0:
224,160,101809,1,0,0:0:0:0:
288,160,101939,1,8,0:0:0:0:
224,160,102070,1,0,0:0:0:0:
224,224,102200,1,4,0:0:0:0:
224,160,102722,1,0,0:0:0:0:
288,160,102983,1,8,0:0:0:0:
224,160,103243,1,0,0:0:0:0:
288,160,103374,1,8,0:0:0:0:
224,160,103504,1,0,0:0:0:0:
224,160,103635,1,0,0:0:0:0:
288,160,103765,1,8,0:0:0:0:
224,160,104026,1,0,0:0:0:0:
224,160,104287,1,0,0:0:0:0:
288,160,104548,1,8,0:0:0:0:
224,160,104809,1,0,0:0:0:0:
224,160,104874,1,0,0:0:0:0:
224,160,104939,1,0,0:0:0:0:
288,160,105070,1,8,0:0:0:0:
224,160,105200,1,0,0:0:0:0:
224,160,105330,1,0,0:0:0:0:
288,160,105591,1,8,0:0:0:0:
224,160,105852,1,0,0:0:0:0:
288,160,106113,1,8,0:0:0:0:
224,160,106374,1,0,0:0:0:0:
224,160,106504,1,0,0:0:0:0:
224,160,106570,1,0,0:0:0:0:
224,160,106635,1,0,0:0:0:0:
224,160,106765,1,0,0:0:0:0:
288,160,106896,1,8,0:0:0:0:
224,160,107156,1,0,0:0:0:0:
288,160,107287,1,8,0:0:0:0:
224,160,107548,1,0,0:0:0:0:
288,160,107678,1,8,0:0:0:0:
288,160,107874,1,8,0:0:0:0:
288,160,107939,1,8,0:0:0:0:
288,160,108070,1,8,0:0:0:0:
224,160,108200,1,0,0:0:0:0:
224,160,108330,1,0,0:0:0:0:
224,160,108461,1,0,0:0:0:0:
224,160,108983,1,0,0:0:0:0:
288,160,109243,1,8,0:0:0:0:
224,160,109504,1,0,0:0:0:0:
224,160,109635,1,0,0:0:0:0:
288,160,109765,1,8,0:0:0:0:
224,160,109896,1,0,0:0:0:0:
224,160,110026,1,0,0:0:0:0:
288,160,110287,1,8,0:0:0:0:
224,160,110548,1,0,0:0:0:0:
224,160,110678,1,0,0:0:0:0:
288,160,110809,1,8,0:0:0:0:
224,160,110939,1,0,0:0:0:0:
224,160,111200,1,0,0:0:0:0:
288,160,111330,1,8,0:0:0:0:
288,160,111461,1,8,0:0:0:0:
224,160,111591,1,0,0:0:0:0:
288,160,111852,1,8,0:0:0:0:
224,160,112113,1,0,0:0:0:0:
224,160,112243,1,0,0:0:0:0:
288,160,112374,1,8,0:0:0:0:
224,160,112635,1,0,0:0:0:0:
224,160,112765,1,0,0:0:0:0:
288,160,112896,1,8,0:0:0:0:
288,160,113026,1,8,0:0:0:0:
224,160,113156,1,0,0:0:0:0:
288,160,113417,1,8,0:0:0:0:
224,160,113678,1,0,0:0:0:0:
288,160,113939,1,8,0:0:0:0:
224,160,114070,1,0,0:0:0:0:
224,160,114200,1,0,0:0:0:0:
288,160,114330,1,8,0:0:0:0:
288,160,114461,1,8,0:0:0:0:
288,160,114591,1,8,0:0:0:0:
224,224,114722,1,4,0:0:0:0:
288,160,114983,1,8,0:0:0:0:
224,160,115113,1,0,0:0:0:0:
224,160,115243,1,0,0:0:0:0:
288,160,115374,1,8,0:0:0:0:
288,160,115504,1,8,0:0:0:0:
224,160,115765,1,0,0:0:0:0:
224,160,115896,1,0,0:0:0:0:
288,160,116026,1,8,0:0:0:0:
288,160,116156,1,8,0:0:0:0:
224,160,116287,1,0,0:0:0:0:
224,160,116548,1,0,0:0:0:0:
224,160,116678,1,0,0:0:0:0:
288,160,116809,1,8,0:0:0:0:
224,160,116939,1,0,0:0:0:0:
288,160,117070,1,8,0:0:0:0:
288,160,117200,1,8,0:0:0:0:
224,160,117330,1,0,0:0:0:0:
288,160,117461,1,8,0:0:0:0:
288,160,117591,1,8,0:0:0:0:
224,160,117722,1,0,0:0:0:0:
224,160,117852,1,0,0:0:0:0:
288,160,118113,1,8,0:0:0:0:
224,160,118243,1,0,0:0:0:0:
224,160,118374,1,0,0:0:0:0:
288,160,118504,1,8,0:0:0:0:
288,160,118635,1,8,0:0:0:0:
224,160,118765,1,0,0:0:0:0:
224,160,118896,1,0,0:0:0:0:
288,160,119026,1,8,0:0:0:0:
288,160,119156,1,8,0:0:0:0:
288,160,119287,1,8,0:0:0:0:
224,160,119417,1,0,0:0:0:0:
288,160,119678,1,8,0:0:0:0:
288,160,119743,1,8,0:0:0:0:
288,160,119809,1,8,0:0:0:0:
288,160,119874,1,8,0:0:0:0:
224,160,119939,1,0,0:0:0:0:
224,160,120070,1,0,0:0:0:0:
288,160,120200,1,8,0:0:0:0:
288,160,120265,1,8,0:0:0:0:
224,160,120330,1,0,0:0:0:0:
224,160,120395,1,0,0:0:0:0:
224,160,120461,1,0,0:0:0:0:
224,160,120591,1,0,0:0:0:0:
288,160,120722,1,8,0:0:0:0:
288,160,120787,1,8,0:0:0:0:
288,160,120852,1,8,0:0:0:0:
288,160,120917,1,8,0:0:0:0:
224,160,120983,1,0,0:0:0:0:
288,160,121243,1,8,0:0:0:0:
224,160,121374,1,0,0:0:0:0:
224,160,121504,1,0,0:0:0:0:
224,160,121635,1,0,0:0:0:0:
288,160,121765,1,8,0:0:0:0:
224,160,122026,1,0,0:0:0:0:
288,160,122156,1,8,0:0:0:0:
288,160,122287,1,8,0:0:0:0:
224,160,122417,1,0,0:0:0:0:
224,160,122548,1,0,0:0:0:0:
288,160,122809,1,8,0:0:0:0:
224,160,122939,1,0,0:0:0:0:
224,160,123070,1,0,0:0:0:0:
288,160,123200,1,8,0:0:0:0:
288,160,123330,1,8,0:0:0:0:
224,160,123591,1,0,0:0:0:0:
288,160,123722,1,8,0:0:0:0:
288,160,123852,1,8,0:0:0:0:
288,160,123983,1,8,0:0:0:0:
224,160,124113,1,0,0:0:0:0:
224,160,124374,1,0,0:0:0:0:
224,160,124504,1,0,0:0:0:0:
288,160,124635,1,8,0:0:0:0:
288,160,124765,1,8,0:0:0:0:
288,160,124896,1,8,0:0:0:0:
224,160,125026,1,0,0:0:0:0:
224,160,125156,1,0,0:0:0:0:
288,160,125287,1,8,0:0:0:0:
224,160,125548,1,0,0:0:0:0:
224,160,125678,1,0,0:0:0:0:
224,160,125743,1,0,0:0:0:0:
224,160,125809,1,0,0:0:0:0:
224,160,125874,1,0,0:0:0:0:
288,160,125939,1,8,0:0:0:0:
288,160,126070,1,8,0:0:0:0:
224,160,126200,1,0,0:0:0:0:
224,160,126265,1,0,0:0:0:0:
224,160,126330,1,0,0:0:0:0:
224,160,126396,1,0,0:0:0:0:
288,160,126461,1,8,0:0:0:0:
288,160,126591,1,8,0:0:0:0:
224,160,126722,1,0,0:0:0:0:
224,160,126852,1,0,0:0:0:0:
288,160,126983,1,8,0:0:0:0:
224,224,127243,1,4,0:0:0:0:
288,160,127504,1,8,0:0:0:0:
224,160,127765,1,0,0:0:0:0:
288,160,128026,1,8,0:0:0:0:
224,160,128156,1,0,0:0:0:0:
224,160,128287,1,0,0:0:0:0:
224,160,128417,1,0,0:0:0:0:
288,160,128548,1,8,0:0:0:0:
288,160,128678,1,8,0:0:0:0:
224,160,128809,1,0,0:0:0:0:
288,160,129070,1,8,0:0:0:0:
288,160,129200,1,8,0:0:0:0:
224,160,129330,1,0,0:0:0:0:
224,160,129461,1,0,0:0:0:0:
288,160,129591,1,8,0:0:0:0:
224,160,129722,1,0,0:0:0:0:
288,160,129852,1,8,0:0:0:0:
288,160,129983,1,8,0:0:0:0:
224,160,130113,1,0,0:0:0:0:
224,160,130374,1,0,0:0:0:0:
288,160,130635,1,8,0:0:0:0:
224,160,130896,1,0,0:0:0:0:
224,160,131026,1,0,0:0:0:0:
288,160,131156,1,8,0:0:0:0:
224,160,131287,1,0,0:0:0:0:
288,160,131417,1,8,0:0:0:0:
288,160,131548,1,8,0:0:0:0:
224,160,131678,1,0,0:0:0:0:
224,160,131939,1,0,0:0:0:0:
224,160,132070,1,0,0:0:0:0:
288,160,132200,1,8,0:0:0:0:
224,160,132330,1,0,0:0:0:0:
288,160,132461,1,8,0:0:0:0:
224,160,132722,1,0,0:0:0:0:
224,160,132787,1,0,0:0:0:0:
288,160,132852,1,8,0:0:0:0:
288,160,132917,1,8,0:0:0:0:
288,160,132983,1,8,0:0:0:0:
288,160,133113,1,8,0:0:0:0:
288,160,133243,1,8,0:0:0:0:
288,160,133374,1,8,0:0:0:0:
224,160,133504,1,0,0:0:0:0:
224,160,133635,1,0,0:0:0:0:
224,160,133896,1,0,0:0:0:0:
288,160,134026,1,8,0:0:0:0:
224,160,134156,1,0,0:0:0:0:
288,160,134287,1,8,0:0:0:0:
224,160,134417,1,0,0:0:0:0:
224,160,134678,1,0,0:0:0:0:
288,160,134809,1,8,0:0:0:0:
288,160,134939,1,8,0:0:0:0:
224,160,135070,1,0,0:0:0:0:
224,160,135200,1,0,0:0:0:0:
288,160,135330,1,8,0:0:0:0:
224,160,135461,1,0,0:0:0:0:
288,160,135591,1,8,0:0:0:0:
224,160,135722,1,0,0:0:0:0:
288,160,135852,1,8,0:0:0:0:
224,160,135983,1,0,0:0:0:0:
288,160,136113,1,8,0:0:0:0:
288,160,136243,1,8,0:0:0:0:
224,160,136374,1,0,0:0:0:0:
224,160,136635,1,0,0:0:0:0:
224,160,136765,1,0,0:0:0:0:
288,160,136896,1,8,0:0:0:0:
224,160,137026,1,0,0:0:0:0:
288,160,137156,1,8,0:0:0:0:
288,160,137287,1,8,0:0:0:0:
224,160,137417,1,0,0:0:0:0:
288,160,137548,1,8,0:0:0:0:
224,160,137678,1,0,0:0:0:0:
288,160,137809,1,8,0:0:0:0:
288,160,137939,1,8,0:0:0:0:
288,160,138070,1,8,0:0:0:0:
224,160,138200,1,0,0:0:0:0:
224,160,138265,1,0,0:0:0:0:
288,160,138396,1,8,0:0:0:0:
288,160,138461,1,8,0:0:0:0:
288,160,138591,1,8,0:0:0:0:
224,160,138722,1,0,0:0:0:0:
224,160,138852,1,0,0:0:0:0:
288,160,138983,1,8,0:0:0:0:
288,160,139113,1,8,0:0:0:0:
224,160,139243,1,0,0:0:0:0:
288,160,139374,1,8,0:0:0:0:
288,160,139504,1,8,0:0:0:0:
288,160,139635,1,8,0:0:0:0:
224,160,139765,1,0,0:0:0:0:
288,160,140026,1,8,0:0:0:0:
224,160,140287,1,0,0:0:0:0:
224,160,140352,1,0,0:0:0:0:
224,160,140417,1,0,0:0:0:0:
288,224,140548,1,12,0:0:0:0:
288,160,141330,1,8,0:0:0:0:
288,160,141591,1,8,0:0:0:0:
224,160,141851,1,0,0:0:0:0:
288,160,142112,1,8,0:0:0:0:
224,160,142178,1,0,0:0:0:0:
224,160,142243,1,0,0:0:0:0:
224,160,142308,1,0,0:0:0:0:
224,160,142373,1,0,0:0:0:0:
224,160,142438,1,0,0:0:0:0:
224,160,142504,1,0,0:0:0:0:
224,160,142569,1,0,0:0:0:0:
288,160,142634,1,8,0:0:0:0:
224,160,142895,1,0,0:0:0:0:
288,160,143156,1,8,0:0:0:0:
224,160,143417,1,0,0:0:0:0:
224,160,143548,1,0,0:0:0:0:
288,224,143678,1,12,0:0:0:0:
288,160,143938,1,8,0:0:0:0:
288,160,144004,1,8,0:0:0:0:
288,160,144069,1,8,0:0:0:0:
288,160,144134,1,8,0:0:0:0:
288,160,144199,1,8,0:0:0:0:
288,160,144330,1,8,0:0:0:0:
224,160,144460,1,0,0:0:0:0:
224,160,144721,1,0,0:0:0:0:
288,160,144982,1,8,0:0:0:0:
288,160,145048,1,8,0:0:0:0:
224,160,145113,1,0,0:0:0:0:
224,160,145178,1,0,0:0:0:0:
224,160,145243,1,0,0:0:0:0:
288,160,145374,1,8,0:0:0:0:
288,160,145439,1,8,0:0:0:0:
288,160,145504,1,8,0:0:0:0:
224,160,145634,1,0,0:0:0:0:
288,160,145764,1,8,0:0:0:0:
288,160,145895,1,8,0:0:0:0:
224,160,146025,1,0,0:0:0:0:
288,160,146222,1,8,0:0:0:0:
288,160,146286,1,8,0:0:0:0:
288,160,146417,1,8,0:0:0:0:
224,160,146547,1,0,0:0:0:0:
224,160,146678,1,0,0:0:0:0:
288,160,146808,1,8,0:0:0:0:
288,160,146874,1,8,0:0:0:0:
288,160,146939,1,8,0:0:0:0:
288,160,147004,1,8,0:0:0:0:
224,160,147070,1,0,0:0:0:0:
224,160,147200,1,0,0:0:0:0:
288,160,147330,1,8,0:0:0:0:
288,160,147395,1,8,0:0:0:0:
288,160,147460,1,8,0:0:0:0:
288,160,147525,1,8,0:0:0:0:
224,160,147591,1,0,0:0:0:0:
224,160,147851,1,0,0:0:0:0:
224,160,147917,1,0,0:0:0:0:
288,160,147982,1,8,0:0:0:0:
224,160,148112,1,0,0:0:0:0:
224,160,148243,1,0,0:0:0:0:
224,160,148309,1,0,0:0:0:0:
288,160,148373,1,8,0:0:0:0:
288,160,148439,1,8,0:0:0:0:
224,160,148504,1,0,0:0:0:0:
224,160,148635,1,0,0:0:0:0:
288,160,148764,1,8,0:0:0:0:
288,160,148830,1,8,0:0:0:0:
224,160,148896,1,0,0:0:0:0:
224,160,149025,1,0,0:0:0:0:
288,160,149156,1,8,0:0:0:0:
288,160,149417,1,8,0:0:0:0:
224,160,149548,1,0,0:0:0:0:
224,160,149613,1,0,0:0:0:0:
224,160,149678,1,0,0:0:0:0:
224,160,149809,1,0,0:0:0:0:
288,160,149939,1,8,0:0:0:0:
288,160,150004,1,8,0:0:0:0:
288,160,150070,1,8,0:0:0:0:
288,160,150135,1,8,0:0:0:0:
224,160,150200,1,0,0:0:0:0:
224,160,150330,1,0,0:0:0:0:
288,160,150461,1,8,0:0:0:0:
288,160,150526,1,8,0:0:0:0:
288,160,150591,1,8,0:0:0:0:
288,160,150656,1,8,0:0:0:0:
288,160,150722,1,8,0:0:0:0:
288,160,150787,1,8,0:0:0:0:
288,160,150852,1,8,0:0:0:0:
288,160,150917,1,8,0:0:0:0:
224,160,150983,1,0,0:0:0:0:
288,160,151113,1,8,0:0:0:0:
224,160,151243,1,0,0:0:0:0:
224,160,151374,1,0,0:0:0:0:
288,224,151504,1,12,0:0:0:0:
224,224,153852,1,4,0:0:0:0:
224,160,154113,1,0,0:0:0:0:
224,160,154178,1,0,0:0:0:0:
224,160,154244,1,0,0:0:0:0:
224,160,154309,1,0,0:0:0:0:
288,160,154374,1,8,0:0:0:0:
224,160,154504,1,0,0:0:0:0:
288,160,154635,1,8,0:0:0:0:
288,160,154700,1,8,0:0:0:0:
288,160,154765,1,8,0:0:0:0:
288,160,154830,1,8,0:0:0:0:
224,160,154896,1,0,0:0:0:0:
288,160,155026,1,8,0:0:0:0:
288,160,155157,1,8,0:0:0:0:
288,160,155222,1,8,0:0:0:0:
288,160,155287,1,8,0:0:0:0:
288,160,155352,1,8,0:0:0:0:
224,160,155417,1,0,0:0:0:0:
288,160,155678,1,8,0:0:0:0:
288,160,155744,1,8,0:0:0:0:
224,160,155809,1,0,0:0:0:0:
224,160,155874,1,0,0:0:0:0:
288,160,155939,1,8,0:0:0:0:
224,160,156070,1,0,0:0:0:0:
224,160,156135,1,0,0:0:0:0:
288,160,156200,1,8,0:0:0:0:
224,160,156330,1,0,0:0:0:0:
288,160,156461,1,8,0:0:0:0:
224,160,156526,1,0,0:0:0:0:
224,160,156591,1,0,0:0:0:0:
224,160,156657,1,0,0:0:0:0:
288,160,156722,1,8,0:0:0:0:
288,160,156852,1,8,0:0:0:0:
224,160,156983,1,0,0:0:0:0:
224,160,157048,1,0,0:0:0:0:
224,160,157113,1,0,0:0:0:0:
224,160,157178,1,0,0:0:0:0:
288,160,157244,1,8,0:0:0:0:
224,160,157374,1,0,0:0:0:0:
288,160,157504,1,8,0:0:0:0:
224,160,157570,1,0,0:0:0:0:
224,160,157635,1,0,0:0:0:0:
288,160,157765,1,8,0:0:0:0:
288,160,157830,1,8,0:0:0:0:
288,160,157896,1,8,0:0:0:0:
288,160,157961,1,8,0:0:0:0:
224,160,158026,1,0,0:0:0:0:
224,160,158091,1,0,0:0:0:0:
224,160,158157,1,0,0:0:0:0:
224,160,158222,1,0,0:0:0:0:
288,160,158287,1,8,0:0:0:0:
224,160,158548,1,0,0:0:0:0:
288,160,158678,1,8,0:0:0:0:
288,160,158744,1,8,0:0:0:0:
224,160,158809,1,0,0:0:0:0:
224,160,158939,1,0,0:0:0:0:
288,160,159070,1,8,0:0:0:0:
288,160,159135,1,8,0:0:0:0:
224,160,159200,1,0,0:0:0:0:
224,160,159330,1,0,0:0:0:0:
224,160,159396,1,0,0:0:0:0:
288,160,159461,1,8,0:0:0:0:
224,160,159591,1,0,0:0:0:0:
224,160,159656,1,0,0:0:0:0:
224,160,159722,1,0,0:0:0:0:
224,160,159787,1,0,0:0:0:0:
288,160,159852,1,8,0:0:0:0:
288,160,159983,1,8,0:0:0:0:
224,224,160113,1,4,0:0:0:0:
288,160,160374,1,8,0:0:0:0:
288,160,160439,1,8,0:0:0:0:
224,160,160504,1,0,0:0:0:0:
224,160,160570,1,0,0:0:0:0:
288,160,160635,1,8,0:0:0:0:
288,160,160765,1,8,0:0:0:0:
224,160,160896,1,0,0:0:0:0:
224,160,160961,1,0,0:0:0:0:
224,160,161026,1,0,0:0:0:0:
224,160,161091,1,0,0:0:0:0:
288,160,161157,1,8,0:0:0:0:
224,160,161287,1,0,0:0:0:0:
224,160,161352,1,0,0:0:0:0:
288,160,161417,1,8,0:0:0:0:
224,160,161548,1,0,0:0:0:0:
288,160,161678,1,8,0:0:0:0:
224,160,161744,1,0,0:0:0:0:
288,160,161809,1,8,0:0:0:0:
224,160,161939,1,0,0:0:0:0:
224,160,162004,1,0,0:0:0:0:
224,160,162070,1,0,0:0:0:0:
224,160,162135,1,0,0:0:0:0:
288,160,162200,1,8,0:0:0:0:
224,160,162330,1,0,0:0:0:0:
288,160,162461,1,8,0:0:0:0:
288,160,162526,1,8,0:0:0:0:
224,160,162591,1,0,0:0:0:0:
224,160,162657,1,0,0:0:0:0:
288,160,162722,1,8,0:0:0:0:
288,160,162852,1,8,0:0:0:0:
224,160,162983,1,0,0:0:0:0:
224,160,163244,1,0,0:0:0:0:
224,160,163309,1,0,0:0:0:0:
224,160,163374,1,0,0:0:0:0:
224,160,163439,1,0,0:0:0:0:
288,160,163504,1,8,0:0:0:0:
224,160,163635,1,0,0:0:0:0:
288,160,163765,1,8,0:0:0:0:
224,160,163896,1,0,0:0:0:0:
288,160,164026,1,8,0:0:0:0:
288,160,164091,1,8,0:0:0:0:
288,160,164157,1,8,0:0:0:0:
288,160,164222,1,8,0:0:0:0:
224,160,164287,1,0,0:0:0:0:
224,160,164417,1,0,0:0:0:0:
288,160,164548,1,8,0:0:0:0:
288,160,164809,1,8,0:0:0:0:
288,160,164874,1,8,0:0:0:0:
288,160,164939,1,8,0:0:0:0:
288,160,165004,1,8,0:0:0:0:
224,160,165070,1,0,0:0:0:0:
224,160,165200,1,0,0:0:0:0:
288,160,165330,1,8,0:0:0:0:
288,160,165396,1,8,0:0:0:0:
224,160,165461,1,0,0:0:0:0:
224,160,165526,1,0,0:0:0:0:
288,160,165591,1,8,0:0:0:0:
288,160,165657,1,8,0:0:0:0:
288,160,165722,1,8,0:0:0:0:
288,160,165787,1,8,0:0:0:0:
224,160,165852,1,0,0:0:0:0:
224,160,165983,1,0,0:0:0:0:
288,160,166113,1,8,0:0:0:0:
224,160,166244,1,0,0:0:0:0:
224,224,166374,1,4,0:0:0:0:
288,160,166635,1,8,0:0:0:0:
288,160,166700,1,8,0:0:0:0:
224,160,166765,1,0,0:0:0:0:
224,160,166830,1,0,0:0:0:0:
288,160,166896,1,8,0:0:0:0:
224,160,167026,1,0,0:0:0:0:
288,160,167156,1,8,0:0:0:0:
288,160,167222,1,8,0:0:0:0:
288,160,167287,1,8,0:0:0:0:
288,160,167352,1,8,0:0:0:0:
224,160,167417,1,0,0:0:0:0:
288,160,167548,1,8,0:0:0:0:
224,160,167678,1,0,0:0:0:0:
224,160,167743,1,0,0:0:0:0:
288,160,167809,1,8,0:0:0:0:
288,160,167874,1,8,0:0:0:0:
224,160,167939,1,0,0:0:0:0:
224,160,168070,1,0,0:0:0:0:
288,160,168200,1,8,0:0:0:0:
224,160,168265,1,0,0:0:0:0:
224,160,168330,1,0,0:0:0:0:
224,160,168396,1,0,0:0:0:0:
288,160,168461,1,8,0:0:0:0:
224,160,168591,1,0,0:0:0:0:
288,160,168722,1,8,0:0:0:0:
288,160,168787,1,8,0:0:0:0:
224,160,168852,1,0,0:0:0:0:
288,160,168983,1,8,0:0:0:0:
224,160,169113,1,0,0:0:0:0:
288,160,169243,1,8,0:0:0:0:
224,160,169504,1,0,0:0:0:0:
224,160,169570,1,0,0:0:0:0:
224,160,169635,1,0,0:0:0:0:
224,160,169700,1,0,0:0:0:0:
288,160,169765,1,8,0:0:0:0:
224,160,169896,1,0,0:0:0:0:
224,160,169961,1,0,0:0:0:0:
288,160,170026,1,8,0:0:0:0:
288,160,170156,1,8,0:0:0:0:
224,160,170287,1,0,0:0:0:0:
288,160,170417,1,8,0:0:0:0:
288,160,170483,1,8,0:0:0:0:
288,160,170548,1,8,0:0:0:0:
224,160,170678,1,0,0:0:0:0:
288,160,170809,1,8,0:0:0:0:
288,160,170874,1,8,0:0:0:0:
288,160,170939,1,8,0:0:0:0:
288,160,171004,1,8,0:0:0:0:
224,160,171070,1,0,0:0:0:0:
288,160,171200,1,8,0:0:0:0:
288,160,171265,1,8,0:0:0:0:
288,160,171330,1,8,0:0:0:0:
288,160,171461,1,8,0:0:0:0:
224,160,171591,1,0,0:0:0:0:
288,160,171656,1,8,0:0:0:0:
288,160,171722,1,8,0:0:0:0:
288,160,171787,1,8,0:0:0:0:
224,160,171852,1,0,0:0:0:0:
224,160,171983,1,0,0:0:0:0:
288,160,172113,1,8,0:0:0:0:
288,160,172178,1,8,0:0:0:0:
224,160,172243,1,0,0:0:0:0:
224,160,172309,1,0,0:0:0:0:
288,160,172374,1,8,0:0:0:0:
288,160,172504,1,8,0:0:0:0:
224,224,172635,1,4,0:0:0:0:
288,160,172896,1,8,0:0:0:0:
288,160,172961,1,8,0:0:0:0:
224,160,173026,1,0,0:0:0:0:
224,160,173091,1,0,0:0:0:0:
288,160,173156,1,8,0:0:0:0:
288,160,173287,1,8,0:0:0:0:
224,160,173417,1,0,0:0:0:0:
224,160,173483,1,0,0:0:0:0:
288,160,173548,1,8,0:0:0:0:
288,160,173613,1,8,0:0:0:0:
224,160,173678,1,0,0:0:0:0:
224,160,173809,1,0,0:0:0:0:
224,160,173874,1,0,0:0:0:0:
288,160,173939,1,8,0:0:0:0:
224,160,174070,1,0,0:0:0:0:
288,160,174200,1,8,0:0:0:0:
288,160,174265,1,8,0:0:0:0:
288,160,174330,1,8,0:0:0:0:
224,160,174461,1,0,0:0:0:0:
224,160,174526,1,0,0:0:0:0:
224,160,174591,1,0,0:0:0:0:
224,160,174656,1,0,0:0:0:0:
288,160,174722,1,8,0:0:0:0:
288,160,174852,1,0,0:0:0:0:
288,160,174983,1,8,0:0:0:0:
288,160,175048,1,8,0:0:0:0:
224,160,175113,1,0,0:0:0:0:
224,160,175178,1,0,0:0:0:0:
288,160,175243,1,8,0:0:0:0:
288,160,175374,1,8,0:0:0:0:
224,160,175504,1,0,0:0:0:0:
288,160,175765,1,8,0:0:0:0:
288,160,175830,1,8,0:0:0:0:
224,160,175896,1,0,0:0:0:0:
224,160,175961,1,0,0:0:0:0:
288,160,176026,1,8,0:0:0:0:
224,160,176156,1,0,0:0:0:0:
288,160,176287,1,8,0:0:0:0:
224,160,176352,1,0,0:0:0:0:
224,160,176417,1,0,0:0:0:0:
224,160,176483,1,0,0:0:0:0:
288,160,176548,1,8,0:0:0:0:
288,160,176678,1,8,0:0:0:0:
224,160,176809,1,0,0:0:0:0:
224,160,176874,1,0,0:0:0:0:
224,160,176939,1,0,0:0:0:0:
288,160,177070,1,8,0:0:0:0:
288,160,177330,1,8,0:0:0:0:
288,160,177396,1,8,0:0:0:0:
288,160,177461,1,8,0:0:0:0:
288,160,177526,1,8,0:0:0:0:
224,160,177591,1,0,0:0:0:0:
288,160,177722,1,8,0:0:0:0:
224,160,177852,1,0,0:0:0:0:
224,160,177917,1,0,0:0:0:0:
224,160,177983,1,0,0:0:0:0:
224,160,178048,1,0,0:0:0:0:
288,160,178113,1,8,0:0:0:0:
288,160,178178,1,8,0:0:0:0:
288,160,178243,1,8,0:0:0:0:
288,160,178309,1,8,0:0:0:0:
224,160,178374,1,0,0:0:0:0:
288,160,178504,1,8,0:0:0:0:
224,160,178635,1,0,0:0:0:0:
224,160,178700,1,0,0:0:0:0:
224,160,178765,1,0,0:0:0:0:
224,160,178830,1,0,0:0:0:0:
288,160,178896,1,8,0:0:0:0:
