osu file format v14

[General]
AudioFilename: audio.mp3
AudioLeadIn: 0
PreviewTime: 89592
Countdown: 0
SampleSet: Drum
StackLeniency: 0.7
Mode: 0
LetterboxInBreaks: 0
WidescreenStoryboard: 1

[Editor]
Bookmarks: 34355,59397,77136,102179,153831
DistanceSpacing: 0.5
BeatDivisor: 12
GridSize: 32
TimelineZoom: 3.799998

[Metadata]
Title:The Skin Thief
TitleUnicode:The Skin Thief
Artist:Nekrogoblikon
ArtistUnicode:Nekrogoblikon
Creator:LMT
Version:SILENCE PLAYER & Hectic's Extra
Source:
Tags:goblin melodic death metal melodeath welcome to bonkers featured artist mappers guild hectic h4d0uk3n1 itswinter SILENCE PLAYER english
BeatmapID:2279004
BeatmapSetID:1061535

[Difficulty]
HPDrainRate:5.8
CircleSize:3
OverallDifficulty:9
ApproachRate:9.5
SliderMultiplier:1.4
SliderTickRate:1

[Events]
//Background and Video events
0,0,"skinthief_bg.jpg",0,0
//Break Periods
//Storyboard Layer 0 (Background)
//Storyboard Layer 1 (Fail)
//Storyboard Layer 2 (Pass)
//Storyboard Layer 3 (Foreground)
//Storyboard Layer 4 (Overlay)
//Storyboard Sound Samples

[TimingPoints]
204,291.26213592233,4,3,1,40,1,0
1672,291.26213592233,4,3,1,40,1,0
2545,291.26213592233,4,3,1,40,1,0
5748,283.018867924528,4,3,1,40,1,0
7163,270.00027000027,4,3,1,40,1,0
9322,260.869565217391,4,3,1,40,1,0
9322,-25,4,3,1,40,0,0
9582,-100,4,3,1,40,0,0
10365,-25,4,3,1,40,0,0
10626,-100,4,3,1,40,0,0
11408,-25,4,3,1,40,0,0
11669,-100,4,3,1,40,0,0
12452,-25,4,3,1,40,0,0
12713,-100,4,3,1,40,0,0
13495,-100,4,3,1,50,0,0
15517,-100,4,3,1,5,0,0
15582,-100,4,3,1,50,0,0
17669,-50,4,3,1,50,0,0
26017,-50,4,3,1,60,0,0
30191,-33.3333333333333,4,3,1,60,0,0
30452,-50,4,3,1,60,0,0
34104,-33.3333333333333,4,3,1,60,0,0
34365,260.869565217391,3,3,1,50,1,0
34365,-40,3,3,1,50,0,0
35147,-100,3,3,1,50,0,0
35930,-40,3,3,1,50,0,0
38278,-100,3,3,1,50,0,0
39060,-33.3333333333333,3,3,1,50,0,0
40104,-50,3,3,1,50,0,0
40625,-33.3333333333333,3,3,1,50,0,0
46886,-33.3333333333333,3,3,1,65,0,0
47408,-50,3,3,1,65,0,0
48451,-40,3,3,1,65,0,0
50538,-50,3,3,1,65,0,0
59407,260.869565217391,4,3,1,50,1,0
60450,-50,4,3,1,50,0,0
68798,-50,4,3,1,60,0,0
72972,-33.3333333333333,4,3,1,60,0,0
73233,-50,4,3,1,60,0,0
76885,-33.3333333333333,4,3,1,60,0,0
77146,260.869565217391,3,3,1,50,1,0
77146,-40,3,3,1,50,0,0
77928,-100,3,3,1,50,0,0
78711,-40,3,3,1,50,0,0
81059,-100,3,3,1,50,0,0
81841,-40,3,3,1,50,0,0
88950,-40,3,3,1,5,0,0
89015,-40,3,3,1,50,0,0
89667,-40,3,3,1,65,0,0
95928,-33.3333333333333,3,3,1,65,0,0
96189,-40,3,3,1,65,0,0
102189,-66.6666666666667,3,3,1,50,0,0
114711,-66.6666666666667,3,3,1,55,0,0
139754,-66.6666666666667,3,3,1,60,0,0
141254,-66.6666666666667,3,3,1,5,0,0
141319,-66.6666666666667,3,3,1,60,0,0
151493,-200,3,3,1,60,0,0
153580,-200,3,3,1,5,0,0
153841,-40,3,3,1,65,0,0
160102,-33.3333333333333,3,3,1,65,0,0
160363,-40,3,3,1,65,0,0
172624,-33.3333333333333,3,3,1,65,0,0

[Colours]
Combo1 : 162,208,208
Combo2 : 194,194,133
Combo3 : 204,204,204
Combo4 : 166,166,255

[HitObjects]
36,43,9323,6,0,B|45:59|45:59|37:70|37:70|43:79|43:79|57:117|51:200,1,140,4|0,0:1|0:0,0:0:0:0:
464,178,9582,6,0,P|459:136|469:83,1,70,0|0,0:0|0:0,0:0:0:0:
372,199,9843,2,0,P|393:227|420:250,1,70,0|0,0:0|0:0,0:0:0:0:
313,281,10104,1,0,0:0:0:0:
126,228,10235,1,0,0:0:0:0:
0,210,10365,6,0,B|36:221|65:198|65:198|99:170|152:187|119:248,1,140,4|0,0:1|0:0,0:0:0:0:
453,371,10626,6,0,P|439:324|451:281,1,70,0|0,0:0|0:0,0:0:0:0:
414,216,10887,2,0,P|383:233|363:261,1,70,0|0,0:0|0:0,0:0:0:0:
343,146,11148,1,0,0:0:0:0:
433,0,11278,1,0,0:0:0:0:
330,134,11408,6,0,B|320:149|316:172|316:172|349:189|349:189|357:212|363:291,1,140,4|0,0:1|0:0,0:0:0:0:
125,360,11669,6,0,P|144:309|142:261,1,70,0|0,0:0|0:0,0:0:0:0:
114,30,11930,5,0,0:0:0:0:
169,166,12061,1,0,0:0:0:0:
129,272,12191,1,0,0:0:0:0:
138,354,12321,1,0,0:0:0:0:
80,152,12452,6,0,P|115:92|210:83,1,140,4|0,0:1|0:0,0:0:0:0:
393,278,12713,6,0,P|346:259|325:233,1,70,0|0,0:0|0:0,0:0:0:0:
384,131,12974,2,0,P|400:162|404:197,1,70,0|0,0:0|0:0,0:0:0:0:
281,316,13235,1,0,0:0:0:0:
72,280,13365,1,0,0:0:0:0:
404,288,13495,5,4,0:1:0:0:
256,192,13561,12,0,15517,0:0:0:0:
137,73,15582,5,4,0:3:0:0:
129,227,15713,1,0,1:2:0:0:
129,227,15778,1,0,1:2:0:0:
129,227,15843,1,0,1:2:0:0:
178,151,15974,1,0,1:0:0:0:
207,315,16104,5,4,0:3:0:0:
201,158,16235,1,0,1:0:0:0:
201,158,16300,1,0,1:0:0:0:
201,158,16365,1,0,1:0:0:0:
178,238,16495,1,0,1:0:0:0:
292,131,16626,6,0,P|282:106|263:84,3,35,4|0|8|8,0:3|0:0|0:0|0:0,0:0:0:0:
208,149,16887,5,4,0:3:0:0:
207,145,16952,1,0,0:0:0:0:
207,142,17017,1,8,0:0:0:0:
209,139,17082,1,8,0:0:0:0:
212,137,17148,1,8,0:0:0:0:
215,135,17213,1,8,0:0:0:0:
218,137,17278,1,4,0:0:0:0:
230,146,17343,1,0,0:0:0:0:
254,162,17408,5,0,1:0:0:0:
305,173,17474,1,0,1:0:0:0:
363,167,17539,1,0,1:0:0:0:
405,130,17604,1,0,1:0:0:0:
415,65,17669,6,0,B|380:100|380:100|409:207,1,140,4|4,0:1|0:3,0:0:0:0:
301,381,17930,2,0,B|342:353|342:353|355:264,1,140,4|8,0:3|0:2,0:0:0:0:
122,314,18191,2,0,L|262:298,1,140,4|4,0:3|0:3,0:0:0:0:
433,331,18452,5,4,0:3:0:0:
290,211,18582,1,8,0:2:0:0:
441,240,18713,5,4,0:3:0:0:
262,298,18843,1,8,0:2:0:0:
337,132,18974,6,0,P|306:54|229:71,1,140,4|4,0:3|0:3,0:0:0:0:
422,46,19235,2,0,P|431:124|402:200,1,140,4|4,0:3|0:3,0:0:0:0:
275,294,19495,5,4,0:3:0:0:
275,294,19561,1,4,0:3:0:0:
275,294,19626,1,8,0:2:0:0:
365,287,19756,1,4,0:3:0:0:
206,353,19887,1,8,0:2:0:0:
235,212,20017,6,0,P|210:150|145:119,1,140,4|8,0:3|0:2,0:0:0:0:
2,237,20278,5,4,0:3:0:0:
144,210,20408,1,8,0:2:0:0:
83,278,20539,5,4,0:3:0:0:
136,118,20669,1,8,0:2:0:0:
89,40,20800,2,0,P|12:66|29:144,1,140,4|4,0:3|0:3,0:0:0:0:
180,39,21061,5,4,0:3:0:0:
180,39,21126,1,4,0:3:0:0:
180,39,21191,1,8,0:2:0:0:
361,70,21321,2,0,P|309:114|242:104,1,140,4|8,0:3|0:2,0:0:0:0:
19,150,21582,5,4,0:3:0:0:
78,219,21713,2,0,P|142:240|176:300,1,140,8|2,0:2|0:1,0:0:0:0:
279,211,21974,2,0,P|281:280|255:345,1,140,8|4,0:2|0:3,0:0:0:0:
255,345,22169,1,4,0:3:0:0:
255,345,22235,1,8,0:2:0:0:
366,188,22365,2,0,P|363:121|411:72,1,140,4|8,0:3|0:2,0:0:0:0:
458,163,22626,1,4,0:3:0:0:
458,163,22691,1,4,0:3:0:0:
458,163,22756,1,8,0:2:0:0:
281,101,22887,6,0,P|197:104|112:121,1,140,4|4,0:3|0:3,0:0:0:0:
15,80,23148,1,8,0:2:0:0:
93,35,23278,2,0,P|156:58|170:123,1,140,4|4,0:3|0:3,0:0:0:0:
27,274,23539,6,0,B|23:249|23:249|42:225|42:225|70:209|84:180|114:195,1,140,8|4,0:2|0:3,0:0:0:0:
149,224,23735,1,4,0:3:0:0:
167,265,23800,2,0,B|196:282|196:282|186:304|186:304|196:344|144:373,1,140,8|4,0:2|0:1,0:0:0:0:
100,304,24061,1,8,0:2:0:0:
270,333,24191,1,4,0:3:0:0:
270,333,24256,1,4,0:3:0:0:
270,333,24321,1,8,0:2:0:0:
421,246,24452,2,0,B|367:237|367:237|353:228|353:228|316:230|316:230|267:248,1,140,4|8,0:3|0:2,0:0:0:0:
339,74,24713,5,8,0:0:0:0:
380,91,24778,1,8,0:0:0:0:
421,73,24843,1,8,0:0:0:0:
456,73,24908,1,8,0:0:0:0:
476,89,24974,2,0,B|497:156|497:156|442:213,1,140,4|0,0:1|0:0,0:0:0:0:
289,151,25235,5,8,0:2:0:0:
255,120,25300,1,8,0:2:0:0:
253,74,25365,1,8,0:2:0:0:
244,32,25430,1,8,0:2:0:0:
216,21,25495,5,8,0:0:0:0:
208,22,25561,1,8,0:0:0:0:
200,23,25626,2,0,P|182:63|181:119,1,70,8|8,0:0|0:0,0:0:0:0:
101,106,25756,2,0,P|113:139|134:168,1,70,8|0,0:2|0:0,0:0:0:0:
71,236,25887,2,0,P|103:251|138:257,1,70,8|0,0:2|0:0,0:0:0:0:
193,371,26017,6,0,B|147:342|147:342|165:259,1,140,6|0,0:1|0:0,0:0:0:0:
293,312,26278,5,12,0:2:0:0:
286,312,26343,1,4,0:3:0:0:
279,313,26408,1,4,0:3:0:0:
272,314,26474,1,4,0:3:0:0:
247,299,26539,5,6,0:1:0:0:
270,299,26604,1,4,0:3:0:0:
293,300,26669,1,4,0:3:0:0:
316,301,26735,1,4,0:3:0:0:
341,287,26800,6,0,B|362:258|362:258|357:197,1,70,8|0,0:2|0:0,0:0:0:0:
343,60,26930,2,0,B|325:95|325:95|334:138,1,70,8|0,0:2|0:0,0:0:0:0:
436,192,27061,2,0,B|422:155|422:155|375:135|375:135|316:143,1,140,12|8,0:2|0:2,0:0:0:0:
116,180,27321,5,8,0:0:0:0:
116,180,27387,1,8,0:0:0:0:
116,180,27452,2,0,P|151:190|185:238,1,70,8|0,0:0|0:0,0:0:0:0:
92,329,27582,1,4,0:3:0:0:
92,329,27648,1,4,0:3:0:0:
91,329,27713,2,0,P|92:294|106:262,1,70,4|0,0:3|0:0,0:0:0:0:
211,129,27843,6,0,B|222:95|222:95|189:39,1,70,12|0,0:2|0:0,0:0:0:0:
221,129,27974,2,0,B|232:95|232:95|199:39,1,70,8|0,0:2|0:0,0:0:0:0:
132,26,28104,6,0,L|31:43,1,70,6|0,0:1|0:0,0:0:0:0:
125,36,28235,2,0,L|24:53,1,70,8|0,0:2|0:0,0:0:0:0:
61,138,28365,6,0,P|15:169|18:265,1,140,8|4,0:2|0:3,0:0:0:0:
118,354,28626,6,0,P|107:321|87:292,1,70,12|0,0:2|0:0,0:0:0:0:
199,304,28756,2,0,P|201:269|197:234,1,70,8|0,0:2|0:0,0:0:0:0:
277,325,28887,2,0,P|293:279|297:238,1,70,8|0,0:0|0:0,0:0:0:0:
298,355,29017,2,0,P|323:303|332:264,1,70,4|0,0:3|0:0,0:0:0:0:
330,118,29148,5,6,0:1:0:0:
330,118,29213,1,4,0:3:0:0:
330,118,29278,2,0,P|347:186|376:224,1,70,4|4,0:3|0:3,0:0:0:0:
422,134,29408,1,8,0:2:0:0:
422,134,29474,1,8,0:2:0:0:
422,134,29539,2,0,P|457:154|513:157,1,70,4|0,0:3|0:0,0:0:0:0:
489,286,29669,5,8,0:2:0:0:
468,290,29735,1,8,0:2:0:0:
447,294,29800,1,8,0:2:0:0:
427,299,29865,1,8,0:2:0:0:
430,311,29930,5,4,0:3:0:0:
431,317,29995,1,4,0:3:0:0:
433,324,30061,1,4,0:3:0:0:
435,331,30126,1,4,0:3:0:0:
466,338,30191,6,0,B|333:358|333:358|288:325|319:223,1,210.000008010865,6|0,0:1|0:0,0:0:0:0:
485,171,30452,6,0,L|349:161,1,70,4|8,0:3|0:2,0:0:0:0:
383,95,30582,2,0,B|381:148|381:148|416:167,1,70,4|8,0:3|0:2,0:0:0:0:
305,45,30713,2,0,L|300:139,1,70,4|8,0:3|0:2,0:0:0:0:
222,74,30843,2,0,B|218:127|218:127|187:142,1,70,4|8,0:3|0:2,0:0:0:0:
140,81,30974,2,0,B|144:28|144:28|175:13,1,70,4|8,0:3|0:2,0:0:0:0:
61,44,31104,2,0,L|56:123,1,70,4|8,0:3|0:2,0:0:0:0:
48,268,31235,2,0,L|53:189,3,70,4|8|4|8,0:3|0:2|0:3|0:2,0:0:0:0:
142,339,31495,2,0,B|144:287|144:287|108:255,1,70,4|8,0:3|0:2,0:0:0:0:
234,241,31626,2,0,B|226:263|226:263|164:270,1,70,4|8,0:3|0:2,0:0:0:0:
313,246,31756,2,0,P|309:208|263:170,1,70,4|8,0:3|0:2,0:0:0:0:
326,335,31887,2,0,P|328:295|352:253,1,70,4|8,0:3|0:2,0:0:0:0:
419,243,32017,2,0,B|475:249|475:249|500:282,3,70,4|8|4|8,0:3|0:2|0:3|0:2,0:0:0:0:
487,161,32278,5,4,0:3:0:0:
486,156,32343,1,4,0:3:0:0:
486,152,32408,1,4,0:3:0:0:
485,147,32474,1,4,0:3:0:0:
485,143,32539,1,8,0:0:0:0:
484,139,32604,1,0,0:0:0:0:
484,134,32669,1,4,0:3:0:0:
483,130,32735,1,4,0:3:0:0:
483,126,32800,1,4,0:3:0:0:
482,121,32865,1,4,0:3:0:0:
482,117,32930,1,8,0:0:0:0:
481,113,32995,1,0,0:0:0:0:
481,108,33061,1,4,0:3:0:0:
480,104,33126,1,4,0:3:0:0:
480,100,33191,1,4,0:3:0:0:
479,95,33256,1,4,0:3:0:0:
478,90,33321,1,8,0:0:0:0:
478,86,33387,1,0,0:0:0:0:
477,81,33452,1,4,0:0:0:0:
477,77,33517,1,4,0:0:0:0:
476,73,33582,1,4,0:0:0:0:
476,68,33648,1,4,0:0:0:0:
475,64,33713,1,8,0:0:0:0:
475,60,33778,1,0,0:0:0:0:
474,55,33843,1,8,0:2:0:0:
474,51,33908,1,8,0:2:0:0:
473,47,33974,1,8,0:2:0:0:
473,42,34039,1,8,0:2:0:0:
472,38,34104,6,0,B|498:75|498:75|394:26|260:17|260:17|239:32|237:70,1,315.000012016297,8|4,0:0|0:3,0:0:0:0:
173,159,34365,6,0,B|201:130|201:130|441:177,1,262.5,2|0,0:1|0:0,0:0:0:0:
481,281,34625,2,0,B|453:310|453:310|213:263,1,262.5,4|0,0:3|0:0,0:0:0:0:
48,275,34886,6,0,L|160:296,1,87.5,4|0,0:3|0:0,0:0:0:0:
143,319,35017,2,0,L|31:298,1,87.5,4|0,0:3|0:0,0:0:0:0:
3,141,35147,6,0,B|231:56|211:188|387:185,1,385,4|0,0:1|0:0,0:0:0:0:
422,89,35930,6,0,B|481:132|481:132|461:336,1,262.5,2|0,0:1|0:0,0:0:0:0:
337,383,36191,2,0,B|278:340|278:340|298:136,1,262.5,4|0,0:0|0:0,0:0:0:0:
395,16,36451,2,0,L|409:112,1,87.5,4|0,0:0|0:0,0:0:0:0:
427,125,36582,2,0,L|414:38,1,87.5,4|0,0:0|0:0,0:0:0:0:
286,7,36712,6,0,L|200:42,3,87.5,0|0|0|0,1:0|1:0|1:0|1:0,0:0:0:0:
269,46,36973,2,0,L|183:81,3,87.5,0|0|0|0,1:0|1:0|1:0|1:0,0:0:0:0:
161,48,37234,5,0,1:0:0:0:
153,93,37299,1,0,1:0:0:0:
171,133,37365,1,0,1:0:0:0:
156,178,37430,1,0,1:0:0:0:
136,236,37495,6,0,B|195:194|195:194|415:273,1,262.5,2|0,0:1|0:0,0:0:0:0:
512,210,37756,2,0,B|453:168|453:168|233:247,1,262.5,4|0,0:0|0:0,0:0:0:0:
368,376,38017,2,0,L|379:278,1,87.5,4|0,0:0|0:0,0:0:0:0:
357,246,38147,2,0,L|347:332,1,87.5,4|0,0:0|0:0,0:0:0:0:
486,370,38278,6,0,L|473:247,1,105,4|0,0:1|0:0,0:0:0:0:
400,152,38538,6,0,L|403:118,7,35
511,20,39060,6,0,B|464:70|464:70|205:33,1,315.000012016297,2|0,0:1|0:0,0:0:0:0:
95,152,39321,2,0,B|142:102|142:102|401:139,1,315.000012016297,4|0,0:0|0:0,0:0:0:0:
493,217,39582,2,0,L|373:238,1,105.000004005432,4|4,0:0|0:0,0:0:0:0:
376,265,39712,2,0,L|479:246,1,105.000004005432,4|0,0:3|0:0,0:0:0:0:
310,148,39843,5,8,0:2:0:0:
303,210,39908,1,8,0:2:0:0:
296,272,39973,1,8,0:2:0:0:
289,334,40038,1,8,0:2:0:0:
301,361,40104,6,0,L|311:258,3,70,4|4|4|4,0:3|0:3|0:3|0:3,0:0:0:0:
234,329,40364,5,8,0:2:0:0:
241,267,40429,1,8,0:2:0:0:
248,205,40494,1,8,0:2:0:0:
255,143,40559,1,8,0:2:0:0:
290,97,40625,6,0,B|276:52|276:52|-4:105,1,315.000012016297,4|0,0:1|0:0,0:0:0:0:
0,216,40886,2,0,B|14:171|14:171|294:224,1,315.000012016297,4|0,0:0|0:0,0:0:0:0:
330,346,41147,2,0,L|353:227,1,105.000004005432,4|0,0:0|0:0,0:0:0:0:
382,232,41278,2,0,L|362:335,1,105.000004005432,4|0,0:0|0:0,0:0:0:0:
261,378,41408,5,4,1:1:0:0:
250,359,41473,1,4,0:3:0:0:
234,345,41538,1,4,0:3:0:0:
214,335,41604,1,4,0:3:0:0:
193,332,41669,1,4,0:3:0:0:
172,333,41734,1,4,0:3:0:0:
152,339,41799,1,2,0:1:0:0:
134,350,41864,1,0,0:0:0:0:
119,365,41930,5,4,0:3:0:0:
89,376,41995,1,4,0:3:0:0:
57,372,42060,1,4,0:3:0:0:
37,347,42125,1,4,0:3:0:0:
32,316,42191,6,0,B|73:283|73:283|100:9,1,315.000012016297,6|0,0:1|0:0,0:0:0:0:
239,15,42451,2,0,B|190:38|190:38|164:323,1,315.000012016297,4|0,0:3|0:0,0:0:0:0:
87,214,42712,2,0,L|315:164,1,210.000008010865,4|4,0:3|0:0,0:0:0:0:
285,150,42973,6,0,L|147:180,1,105.000004005432,8|4,0:2|0:0,0:0:0:0:
123,230,43104,2,0,L|261:200,1,105.000004005432,8|4,0:2|0:0,0:0:0:0:
290,159,43234,2,0,L|152:189,1,105.000004005432,8|4,0:2|0:0,0:0:0:0:
128,239,43365,2,0,L|266:209,1,105.000004005432,8|4,0:2|0:0,0:0:0:0:
211,102,43495,6,0,B|180:112|180:112|168:224,1,105.000004005432,8|4,0:2|0:0,0:0:0:0:
212,306,43625,2,0,B|239:289|239:289|226:177,1,105.000004005432,8|4,0:2|0:0,0:0:0:0:
31,247,43756,6,0,B|63:296|63:296|324:245,1,315.000012016297,6|0,0:1|0:0,0:0:0:0:
373,170,44017,2,0,B|341:121|341:121|80:172,1,315.000012016297,4|0,0:0|0:0,0:0:0:0:
112,344,44278,2,0,L|142:219,1,105.000004005432,4|0,0:0|0:0,0:0:0:0:
158,231,44408,2,0,L|133:333,1,105.000004005432,4|0,0:0|0:0,0:0:0:0:
10,269,44538,5,4,0:1:0:0:
12,258,44604,1,4,0:3:0:0:
14,247,44669,1,4,0:3:0:0:
16,236,44734,1,0,0:1:0:0:
2,205,44799,5,8,0:2:0:0:
51,187,44864,1,8,0:2:0:0:
101,169,44930,1,8,0:2:0:0:
150,152,44995,1,8,0:2:0:0:
168,128,45060,6,0,L|177:17,3,105.000004005432,8|8|8|8,0:0|0:0|0:0|0:0,0:0:0:0:
79,84,45321,5,8,0:2:0:0:
82,146,45386,1,8,0:2:0:0:
86,209,45452,1,8,0:2:0:0:
90,271,45517,1,8,0:2:0:0:
86,313,45582,5,4,0:3:0:0:
105,304,45647,1,4,0:3:0:0:
124,295,45712,1,4,0:3:0:0:
143,286,45778,1,4,0:3:0:0:
175,249,45843,6,0,L|163:358,1,105.000004005432,8|0,0:0|0:0,0:0:0:0:
180,384,45973,2,0,L|191:279,1,105.000004005432,8|0,0:0|0:0,0:0:0:0:
262,128,46104,5,4,0:1:0:0:
263,4,46886,6,0,L|243:147,1,105.000004005432,6|8,0:1|0:2,0:0:0:0:
284,258,47017,1,4,0:3:0:0:
297,274,47082,1,8,0:2:0:0:
316,282,47147,1,4,0:0:0:0:
336,286,47212,1,8,0:2:0:0:
357,283,47278,1,4,0:0:0:0:
376,274,47343,1,8,0:2:0:0:
392,253,47408,6,0,L|401:142,1,70,4|8,0:3|0:2,0:0:0:0:
424,164,47538,2,0,L|418:233,1,70,4|8,0:3|0:2,0:0:0:0:
496,332,47669,5,2,0:1:0:0:
470,314,47734,1,8,0:2:0:0:
438,312,47799,1,4,0:3:0:0:
409,324,47864,1,8,0:2:0:0:
392,351,47930,1,4,0:0:0:0:
364,365,47995,1,8,0:2:0:0:
332,366,48060,1,4,0:0:0:0:
308,345,48125,1,8,0:2:0:0:
297,314,48191,1,4,0:0:0:0:
303,283,48256,1,8,0:2:0:0:
326,262,48321,1,4,0:0:0:0:
356,253,48386,1,8,0:2:0:0:
385,263,48451,6,0,L|376:368,3,87.5,4|8|4|8,0:3|0:2|0:3|0:2,0:0:0:0:
342,172,48712,2,0,L|356:65,3,87.5,8|4|4|4,0:2|0:3|0:3|0:3,0:0:0:0:
476,107,48973,2,0,L|462:0,3,87.5,8|12|4|12,0:2|0:3|0:3|0:3,0:0:0:0:
297,5,49234,5,8,0:2:0:0:
280,10,49299,1,12,0:3:0:0:
263,15,49364,1,4,0:3:0:0:
246,21,49430,1,12,0:3:0:0:
188,44,49495,5,8,0:2:0:0:
205,49,49560,1,4,0:3:0:0:
222,54,49625,1,4,0:3:0:0:
239,60,49691,1,12,0:3:0:0:
270,93,49756,6,0,L|252:193,3,87.5,8|8|8|8,0:2|0:2|0:2|0:2,0:0:0:0:
75,226,50017,5,4,0:1:0:0:
68,209,50082,1,4,0:3:0:0:
65,191,50147,1,4,0:3:0:0:
69,174,50212,1,4,0:3:0:0:
77,158,50278,1,4,0:3:0:0:
89,146,50343,1,4,0:3:0:0:
105,141,50408,1,4,0:3:0:0:
122,139,50473,1,4,0:3:0:0:
141,143,50538,6,0,L|150:237,3,70,8|8|8|8,0:2|0:2|0:2|0:2,0:0:0:0:
99,305,50799,5,4,0:3:0:0:
109,323,50864,1,4,0:3:0:0:
125,336,50930,1,4,0:3:0:0:
144,344,50995,1,4,0:3:0:0:
164,346,51060,1,4,0:3:0:0:
184,343,51125,1,4,0:3:0:0:
203,333,51191,1,4,0:3:0:0:
219,320,51256,1,4,0:3:0:0:
231,299,51321,6,0,L|235:212,3,70,8|8|4|4,0:2|0:2|0:3|0:3,0:0:0:0:
339,257,51582,5,8,0:2:0:0:
341,229,51647,1,8,0:2:0:0:
344,201,51712,1,8,0:2:0:0:
347,172,51778,1,8,0:2:0:0:
365,149,51843,5,8,0:2:0:0:
363,121,51908,1,8,0:2:0:0:
360,92,51973,1,8,0:2:0:0:
359,64,52038,1,8,0:2:0:0:
336,33,52104,6,0,L|415:18,3,70,8|8|4|4,0:0|0:0|0:3|0:3,0:0:0:0:
271,82,52364,5,8,0:2:0:0:
227,73,52430,1,8,0:2:0:0:
186,64,52495,1,8,0:2:0:0:
144,55,52560,1,8,0:2:0:0:
117,25,52625,5,4,0:3:0:0:
119,46,52691,1,4,0:3:0:0:
121,66,52756,1,4,0:3:0:0:
123,86,52821,1,4,0:3:0:0:
109,125,52886,5,8,0:2:0:0:
243,15,53017,1,8,0:2:0:0:
295,222,53147,6,0,B|288:192|261:192|261:192|67:231,1,210,4|4,0:1|0:3,0:0:0:0:
67,310,53408,6,0,B|78:279|78:279|68:229,1,70,4|4,0:3|0:3,0:0:0:0:
87,156,53538,2,0,B|79:192|79:192|90:223,1,70,4|4,0:3|0:3,0:0:0:0:
147,281,53669,2,0,B|176:265|176:265|202:222,1,70,8|8,0:2|0:2,0:0:0:0:
266,182,53799,2,0,B|235:203|235:203|222:233,1,70,8|8,0:2|0:2,0:0:0:0:
249,347,53930,2,0,B|228:318|228:318|277:282,1,70,4|4,0:3|0:3,0:0:0:0:
374,326,54060,2,0,B|368:361|368:361|308:352,1,70,4|4,0:3|0:3,0:0:0:0:
341,230,54191,2,0,L|365:139,3,70,8|8|8|8,0:2|0:2|0:2|0:2,0:0:0:0:
264,103,54451,2,0,B|285:86|284:88|358:88,1,70,4|4,0:3|0:3,0:0:0:0:
419,53,54582,2,0,B|398:36|399:38|325:38,1,70,4|4,0:3|0:3,0:0:0:0:
222,78,54712,5,4,0:3:0:0:
220,84,54778,1,8,0:2:0:0:
218,90,54843,1,4,0:3:0:0:
216,96,54908,1,8,0:2:0:0:
214,102,54973,1,4,0:3:0:0:
213,108,55038,1,8,0:2:0:0:
212,115,55104,1,4,0:3:0:0:
211,121,55169,1,8,0:2:0:0:
210,127,55234,2,0,L|294:96,3,70,4|8|4|8,0:3|0:2|0:3|0:2,0:0:0:0:
353,158,55495,5,4,0:3:0:0:
352,164,55560,1,8,0:2:0:0:
351,170,55625,1,4,0:3:0:0:
350,176,55691,1,8,0:2:0:0:
349,182,55756,2,0,L|265:151,3,70,4|8|4|8,0:3|0:2|0:3|0:2,0:0:0:0:
209,247,56017,6,0,B|227:260|227:260|291:249,1,70,4|8,0:3|0:2,0:0:0:0:
361,273,56147,2,0,B|343:260|343:260|279:271,1,70,4|8,0:3|0:2,0:0:0:0:
442,108,56278,5,8,0:2:0:0:
444,121,56343,1,8,0:2:0:0:
445,134,56408,1,8,0:2:0:0:
447,147,56473,1,8,0:2:0:0:
449,160,56538,1,8,0:2:0:0:
451,174,56604,1,8,0:2:0:0:
453,187,56669,1,8,0:2:0:0:
455,200,56734,1,8,0:2:0:0:
457,213,56799,2,0,B|436:208|436:208|380:238,3,70,4|4|4|4,0:3|0:3|0:3|0:3,0:0:0:0:
291,192,57060,5,8,0:2:0:0:
277,194,57125,1,8,0:2:0:0:
262,196,57191,1,8,0:2:0:0:
248,198,57256,1,8,0:2:0:0:
234,200,57321,1,4,0:3:0:0:
220,202,57386,1,4,0:3:0:0:
206,204,57451,1,4,0:3:0:0:
192,206,57517,1,4,0:3:0:0:
178,208,57582,2,0,L|166:302,3,70,4|8|4|4,0:3|0:2|0:3|0:3,0:0:0:0:
187,81,57843,5,8,0:2:0:0:
142,68,57908,1,8,0:2:0:0:
99,57,57973,1,8,0:2:0:0:
55,46,58038,1,8,0:2:0:0:
15,8,58104,2,0,L|22:117,3,70,8|8|8|8,0:2|0:2|0:2|0:2,0:0:0:0:
125,8,58364,6,0,L|113:118,1,70,4|4,0:3|0:3,0:0:0:0:
134,100,58495,2,0,L|141:30,1,70,4|4,0:3|0:3,0:0:0:0:
37,165,58625,5,8,0:2:0:0:
40,212,58691,1,8,0:2:0:0:
43,258,58756,1,8,0:2:0:0:
48,306,58821,1,8,0:2:0:0:
68,358,58886,2,0,L|-2:339,3,70,8|8|8|8,0:2|0:2|0:2|0:2,0:0:0:0:
179,173,59147,5,4,0:3:0:0:
192,197,59212,1,0,0:0:0:0:
205,222,59278,2,0,L|194:316,1,70,4|0,0:3|0:0,0:0:0:0:
271,88,59407,5,8,0:0:0:0:
360,74,59537,2,0,L|365:25,2,35,8|8|8,0:0|0:0|0:0,0:0:0:0:
441,115,59798,1,8,0:3:0:0:
426,204,59928,5,4,0:3:0:0:
338,231,60059,1,4,0:3:0:0:
338,231,60124,1,4,0:3:0:0:
338,231,60189,6,0,L|346:282,1,35,4|0,0:3|0:0,0:0:0:0:
250,168,60320,2,0,L|247:202,1,35,4|0,0:3|0:0,0:0:0:0:
170,14,60450,6,0,L|160:153,1,140,4|4,0:1|0:3,0:0:0:0:
96,348,60711,2,0,L|87:209,1,140,4|8,0:3|0:2,0:0:0:0:
177,8,60972,2,0,L|167:147,1,140,4|4,0:3|0:3,0:0:0:0:
0,214,61233,5,4,0:3:0:0:
81,73,61363,1,8,0:2:0:0:
266,40,61493,2,0,L|405:46,1,140,4|4,0:3|0:3,0:0:0:0:
224,120,61754,6,0,P|173:76|163:8,1,140,8|4,0:2|0:3,0:0:0:0:
254,207,62015,2,0,P|172:205|110:174,1,140,4|4,0:3|0:3,0:0:0:0:
0,102,62276,5,4,0:3:0:0:
40,245,62407,1,8,0:2:0:0:
126,99,62537,5,4,0:3:0:0:
115,289,62667,1,8,0:2:0:0:
287,300,62798,1,4,0:3:0:0:
287,300,62863,1,4,0:3:0:0:
287,300,62928,1,8,0:2:0:0:
128,296,63059,5,4,0:3:0:0:
165,129,63189,1,8,0:2:0:0:
337,170,63319,1,4,0:3:0:0:
298,332,63450,1,8,0:2:0:0:
255,210,63580,6,0,B|246:140|246:140|295:91,1,140,4|4,0:3|0:3,0:0:0:0:
424,132,63841,2,0,B|433:202|433:202|383:250,1,140,4|8,0:3|0:2,0:0:0:0:
283,87,64102,2,0,B|233:135|233:135|242:205,1,140,4|8,0:3|0:2,0:0:0:0:
157,12,64363,6,0,L|168:112,1,70,4|0,0:3|0:0,0:0:0:0:
336,176,64493,2,0,L|296:340,1,140,8|2,0:2|0:1,0:0:0:0:
468,360,64754,1,8,0:2:0:0:
236,229,64885,1,4,0:3:0:0:
236,229,64950,1,4,0:3:0:0:
236,229,65015,5,8,0:2:0:0:
5,258,65146,2,0,L|144:235,1,140,4|8,0:3|0:2,0:0:0:0:
291,108,65406,5,4,0:3:0:0:
59,90,65537,2,0,L|199:100,1,140,8|4,0:2|0:3,0:0:0:0:
383,116,65798,6,0,P|308:138|235:206,1,140,4|8,0:3|0:2,0:0:0:0:
267,188,65993,1,4,0:3:0:0:
275,199,66059,2,0,P|260:267|264:336,1,140,4|4,0:3|0:3,0:0:0:0:
277,345,66254,1,4,0:0:0:0:
290,351,66320,5,8,0:2:0:0:
363,224,66450,1,4,0:3:0:0:
190,167,66580,2,0,B|162:131|162:131|175:37,1,140,8|4,0:2|0:1,0:0:0:0:
117,223,66841,1,8,0:2:0:0:
25,215,66972,5,4,0:3:0:0:
198,264,67102,1,8,0:2:0:0:
362,235,67233,2,0,P|427:259|460:319,1,140,4|8,0:3|0:2,0:0:0:0:
282,215,67493,5,8,0:0:0:0:
268,170,67559,1,8,0:0:0:0:
267,124,67624,1,8,0:0:0:0:
282,81,67689,1,8,0:0:0:0:
310,45,67754,2,0,L|392:54,3,70,4|4|4|4,0:1|0:0|0:0|0:0,0:0:0:0:
424,63,68015,5,8,0:2:0:0:
438,108,68081,1,8,0:2:0:0:
439,154,68146,1,8,0:2:0:0:
424,197,68211,1,8,0:2:0:0:
396,233,68276,2,0,L|314:224,3,70,8|8|8|8,0:0|0:0|0:0|0:0,0:0:0:0:
302,223,68537,6,0,P|299:258|306:293,1,70,8|0,0:2|0:0,0:0:0:0:
219,323,68667,2,0,P|234:355|256:383,1,70,8|0,0:2|0:0,0:0:0:0:
341,141,68798,6,0,P|316:84|207:79,1,140,6|0,0:1|0:0,0:0:0:0:
54,202,69059,1,12,0:2:0:0:
98,196,69124,1,4,0:3:0:0:
141,209,69189,2,0,P|151:247|152:287,1,70,4|4,0:3|0:3,0:0:0:0:
234,331,69320,5,6,0:1:0:0:
246,336,69385,1,4,0:3:0:0:
259,338,69450,1,4,0:3:0:0:
272,339,69515,1,4,0:3:0:0:
285,337,69580,6,0,P|294:300|295:251,1,70,8|0,0:2|0:0,0:0:0:0:
383,242,69711,2,0,P|368:194|351:162,1,70,8|0,0:2|0:0,0:0:0:0:
429,119,69841,2,0,P|386:62|323:14,1,140,12|8,0:2|0:2,0:0:0:0:
116,39,70102,5,8,0:0:0:0:
102,43,70167,1,8,0:0:0:0:
88,47,70233,2,0,P|93:108|108:148,1,70,8|0,0:0|0:0,0:0:0:0:
36,185,70363,1,4,0:3:0:0:
24,194,70428,1,4,0:3:0:0:
13,203,70494,2,0,P|41:257|70:288,1,70,4|0,0:3|0:0,0:0:0:0:
175,262,70624,6,0,L|245:254,1,70,12|0,0:2|0:0,0:0:0:0:
165,270,70754,2,0,L|235:262,1,70,8|0,0:2|0:0,0:0:0:0:
113,350,70884,6,0,L|181:370,1,70,6|0,0:1|0:0,0:0:0:0:
102,358,71015,2,0,L|169:377,1,70,8|0,0:2|0:0,0:0:0:0:
338,367,71146,6,0,B|371:327|371:327|328:191,1,140,8|4,0:2|0:3,0:0:0:0:
402,139,71406,6,0,L|333:134,1,70,12|0,0:2|0:0,0:0:0:0:
247,134,71537,2,0,L|177:128,1,70,8|0,0:2|0:0,0:0:0:0:
71,206,71667,6,0,L|140:200,1,70,8|0,0:0|0:0,0:0:0:0:
220,173,71798,2,0,L|289:167,1,70,4|0,0:3|0:0,0:0:0:0:
17,195,71928,6,0,B|46:234|46:234|13:378,1,140,6|4,0:1|0:0,0:0:0:0:
171,382,72189,1,8,0:2:0:0:
171,382,72254,1,8,0:2:0:0:
171,382,72320,1,4,0:3:0:0:
22,183,72450,2,0,B|5:156|5:156|33:32,1,140,8|8,0:2|0:2,0:0:0:0:
179,99,72711,5,4,0:3:0:0:
166,103,72776,1,4,0:3:0:0:
152,119,72841,1,4,0:3:0:0:
143,153,72906,1,4,0:3:0:0:
157,202,72972,6,0,B|216:188|264:214|262:379,1,210.000008010865,6|4,0:1|0:3,0:0:0:0:
505,284,73233,6,0,P|490:329|456:358,1,70,4|8,0:3|0:2,0:0:0:0:
392,359,73363,2,0,P|362:340|344:310,1,70,4|8,0:3|0:2,0:0:0:0:
423,282,73493,2,0,L|353:290,1,70,4|8,0:3|0:2,0:0:0:0:
404,199,73624,2,0,B|436:196|436:196|463:193|468:210,1,70,4|8,0:3|0:2,0:0:0:0:
363,126,73754,2,0,B|320:130|320:130|298:114,1,70,4|8,0:3|0:2,0:0:0:0:
409,54,73885,2,0,B|387:38|387:38|344:42,1,70,4|8,0:3|0:2,0:0:0:0:
212,109,74015,2,0,P|189:140|188:197,3,70,4|8|4|8,0:0|0:2|0:3|0:2,0:0:0:0:
128,254,74276,2,0,P|163:265|208:255,1,70,4|8,0:3|0:2,0:0:0:0:
275,286,74406,2,0,P|241:275|207:279,1,70,4|8,0:3|0:2,0:0:0:0:
156,347,74537,2,0,P|112:340|63:308,1,70,4|8,0:3|0:2,0:0:0:0:
42,259,74667,2,0,B|46:202|46:202|70:184,1,70,4|8,0:3|0:2,0:0:0:0:
45,109,74798,2,0,B|41:166|41:166|30:173,3,70,4|8|4|8,0:3|0:2|0:3|0:2,0:0:0:0:
133,122,75059,5,4,0:3:0:0:
133,126,75124,1,4,0:3:0:0:
133,131,75189,1,4,0:3:0:0:
134,135,75254,1,4,0:3:0:0:
134,140,75319,1,8,0:0:0:0:
134,144,75385,1,0,0:0:0:0:
135,149,75450,1,4,0:3:0:0:
135,153,75515,1,4,0:3:0:0:
135,158,75580,1,4,0:3:0:0:
136,162,75645,1,4,0:3:0:0:
136,167,75711,1,8,0:0:0:0:
136,171,75776,1,0,0:0:0:0:
136,176,75841,1,4,0:3:0:0:
137,180,75906,1,4,0:3:0:0:
137,185,75972,1,4,0:3:0:0:
137,189,76037,1,4,0:3:0:0:
138,194,76102,1,8,0:0:0:0:
138,198,76167,1,0,0:0:0:0:
138,203,76232,1,4,0:0:0:0:
139,207,76298,1,4,0:0:0:0:
139,212,76363,1,4,0:0:0:0:
139,216,76428,1,4,0:0:0:0:
140,221,76493,1,8,0:0:0:0:
140,225,76559,1,0,0:0:0:0:
140,230,76624,1,8,0:2:0:0:
141,234,76689,1,8,0:2:0:0:
141,239,76754,1,8,0:2:0:0:
141,243,76819,1,8,0:2:0:0:
142,248,76885,6,0,B|42:213|208:159|238:25|89:23,1,315.000012016297,8|4,0:0|0:3,0:0:0:0:
22,133,77146,6,0,P|99:93|271:122,1,262.5,2|0,0:1|0:0,0:0:0:0:
370,174,77406,2,0,P|278:90|137:63,1,262.5,4|0,0:3|0:0,0:0:0:0:
98,234,77667,2,0,P|151:251|206:248,1,87.5,4|0,0:3|0:0,0:0:0:0:
263,246,77798,2,0,P|210:229|155:232,1,87.5,4|0,0:3|0:0,0:0:0:0:
134,382,77928,6,0,B|354:296|458:390|531:318,1,385,4|0,0:1|0:0,0:0:0:0:
439,249,78711,6,0,P|389:192|464:20,1,262.5,2|0,0:1|0:0,0:0:0:0:
303,9,78972,2,0,P|365:117|304:227,1,262.5,4|0,0:0|0:0,0:0:0:0:
138,121,79232,2,0,P|222:116|241:123,1,87.5,4|0,0:0|0:0,0:0:0:0:
226,59,79363,2,0,P|142:64|123:57,1,87.5,4|0,0:0|0:0,0:0:0:0:
68,1,79493,5,0,1:0:0:0:
70,18,79559,1,0,1:0:0:0:
72,35,79624,1,0,1:0:0:0:
74,52,79689,1,0,1:0:0:0:
50,73,79754,5,0,1:0:0:0:
52,90,79820,1,0,1:0:0:0:
54,107,79885,1,0,1:0:0:0:
56,124,79950,1,0,1:0:0:0:
37,159,80015,5,0,1:0:0:0:
67,151,80080,1,0,1:0:0:0:
90,155,80146,1,0,1:0:0:0:
111,143,80211,1,0,1:0:0:0:
150,112,80276,6,0,L|124:378,1,262.5,6|0,0:1|0:0,0:0:0:0:
229,370,80537,2,0,L|203:108,1,262.5,4|0,0:0|0:0,0:0:0:0:
99,15,80798,2,0,L|87:126,1,87.5,4|0,0:0|0:0,0:0:0:0:
62,120,80928,2,0,L|71:33,1,87.5,4|0,0:0|0:0,0:0:0:0:
232,0,81059,6,0,L|245:120,1,105,6|0,0:1|0:0,0:0:0:0:
187,233,81319,6,0,L|202:195,3,35,2|2|0|0,0:2|0:2|0:0|0:0,0:0:0:0:
249,305,81580,2,0,L|286:288,3,35,2|0|0|0,0:2|0:0|0:0|0:0,0:0:0:0:
129,289,81841,6,0,B|166:245|166:244|400:279,1,262.5,6|0,0:1|0:0,0:0:0:0:
493,266,82102,2,0,B|456:222|456:221|222:256,1,262.5,4|0,0:0|0:0,0:0:0:0:
310,378,82363,2,0,B|336:370|352:351|339:287,1,87.5,4|0,0:0|0:0,0:0:0:0:
346,225,82493,2,0,B|320:233|304:252|317:316,1,87.5,4|0,0:0|0:0,0:0:0:0:
441,323,82624,5,8,0:2:0:0:
450,324,82689,1,8,0:2:0:0:
461,319,82754,1,8,0:2:0:0:
471,305,82819,1,8,0:2:0:0:
471,283,82885,5,8,0:0:0:0:
445,257,82950,1,8,0:0:0:0:
401,250,83015,1,8,0:0:0:0:
360,264,83080,1,8,0:0:0:0:
329,307,83146,1,4,0:3:0:0:
278,320,83211,1,4,0:3:0:0:
232,293,83276,1,4,0:3:0:0:
221,241,83341,1,4,0:3:0:0:
246,195,83406,6,0,B|291:172|291:172|501:214,1,262.5,6|0,0:1|0:0,0:0:0:0:
512,308,83667,2,0,B|467:331|467:331|257:289,1,262.5,4|0,0:0|0:0,0:0:0:0:
226,121,83928,2,0,L|234:218,1,87.5,4|0,0:0|0:0,0:0:0:0:
206,228,84059,2,0,L|198:140,1,87.5,4|0,0:0|0:0,0:0:0:0:
218,20,84189,5,6,0:1:0:0:
226,21,84254,1,0,1:0:0:0:
234,22,84319,1,0,1:0:0:0:
242,23,84385,1,0,1:0:0:0:
250,24,84450,1,0,1:0:0:0:
258,25,84515,1,0,1:0:0:0:
266,26,84580,1,0,1:0:0:0:
274,27,84645,1,0,1:0:0:0:
282,28,84711,5,0,1:0:0:0:
303,55,84776,1,0,1:0:0:0:
336,63,84841,1,0,1:0:0:0:
369,54,84906,1,0,1:0:0:0:
392,27,84972,6,0,L|356:338,1,262.5,6|0,0:1|0:0,0:0:0:0:
471,291,85232,2,0,L|145:257,1,262.5,4|0,0:3|0:0,0:0:0:0:
286,321,85493,2,0,L|313:113,1,175,4|4,0:3|0:0,0:0:0:0:
306,102,85754,6,0,L|288:226,1,87.5,8|4,0:2|0:0,0:0:0:0:
330,284,85885,2,0,L|342:197,1,87.5,8|4,0:2|0:0,0:0:0:0:
318,95,86015,2,0,L|300:219,1,87.5,8|4,0:2|0:0,0:0:0:0:
342,277,86146,2,0,L|354:190,1,87.5,8|4,0:2|0:0,0:0:0:0:
223,210,86276,6,0,B|260:224|260:224|338:212,1,87.5,8|4,0:2|0:0,0:0:0:0:
397,169,86406,2,0,B|360:155|360:155|282:167,1,87.5,8|4,0:2|0:0,0:0:0:0:
376,320,86537,6,0,B|430:339|430:339|458:326,3,87.5,6|4|4|0,0:1|0:0|0:0|0:0,0:0:0:0:
489,296,86798,5,4,0:0:0:0:
486,278,86863,1,4,0:0:0:0:
483,260,86928,1,4,0:0:0:0:
480,242,86993,1,0,0:0:0:0:
463,212,87059,6,0,L|372:201,1,87.5,4|0,0:0|0:0,0:0:0:0:
345,229,87189,2,0,L|431:239,1,87.5,4|0,0:0|0:0,0:0:0:0:
470,65,87319,5,6,0:1:0:0:
462,69,87385,1,0,1:0:0:0:
455,74,87450,1,0,1:0:0:0:
449,80,87515,1,0,1:0:0:0:
444,87,87580,6,0,P|438:141|456:186,3,87.5,0|0|0|0,1:0|1:0|1:0|1:0,0:0:0:0:
353,208,87841,2,0,P|386:250|431:269,3,87.5,0|0|0|0,1:0|1:0|1:0|1:0,0:0:0:0:
508,218,88102,5,6,0:1:0:0:
506,191,88167,1,0,0:0:0:0:
497,166,88232,1,8,0:0:0:0:
477,147,88298,1,8,0:0:0:0:
451,140,88363,2,0,P|414:145|363:177,1,87.5,8|0,0:0|0:0,0:0:0:0:
298,226,88493,2,0,P|335:221|386:189,1,87.5,4|4,0:0|0:0,0:0:0:0:
216,16,88624,6,0,L|205:123,1,87.5,4|0,0:0|0:0,0:0:0:0:
220,125,88754,2,0,L|228:37,1,87.5,4|0,0:0|0:0,0:0:0:0:
49,0,88885,5,6,0:1:0:0:
49,11,89667,6,0,L|58:132,1,87.5,6|8,0:1|0:2,0:0:0:0:
73,251,89798,1,4,0:3:0:0:
89,238,89863,1,8,0:2:0:0:
110,233,89928,1,4,0:0:0:0:
131,234,89993,1,8,0:2:0:0:
150,242,90059,1,4,0:0:0:0:
165,256,90124,1,8,0:2:0:0:
172,272,90189,2,0,P|163:330|143:360,3,87.5,4|8|4|8,0:3|0:2|0:3|0:2,0:0:0:0:
278,365,90450,5,2,0:1:0:0:
276,338,90515,1,8,0:2:0:0:
282,312,90580,1,4,0:3:0:0:
296,290,90645,1,8,0:2:0:0:
316,273,90711,1,4,0:0:0:0:
339,263,90776,1,8,0:2:0:0:
364,259,90841,1,4,0:0:0:0:
388,264,90906,1,8,0:2:0:0:
411,276,90972,1,4,0:0:0:0:
428,295,91037,1,8,0:2:0:0:
440,318,91102,1,4,0:0:0:0:
442,344,91167,1,8,0:2:0:0:
437,369,91232,6,0,P|391:383|351:377,3,87.5,4|8|4|8,0:3|0:2|0:3|0:2,0:0:0:0:
275,295,91493,2,0,P|276:250|303:191,3,87.5,8|4|4|4,0:2|0:3|0:3|0:3,0:0:0:0:
361,140,91754,2,0,P|360:95|333:36,3,87.5,8|12|4|12,0:2|0:3|0:3|0:3,0:0:0:0:
217,3,92015,5,8,0:2:0:0:
214,20,92080,1,12,0:3:0:0:
211,37,92145,1,4,0:3:0:0:
208,54,92211,1,12,0:3:0:0:
204,83,92276,5,8,0:2:0:0:
189,61,92341,1,4,0:3:0:0:
175,38,92406,1,4,0:3:0:0:
160,15,92472,1,12,0:3:0:0:
120,0,92537,6,0,L|111:114,3,87.5,8|8|8|8,0:2|0:2|0:2|0:2,0:0:0:0:
51,193,92798,5,4,0:1:0:0:
64,203,92863,1,4,0:3:0:0:
79,210,92928,1,4,0:3:0:0:
96,211,92993,1,4,0:3:0:0:
113,210,93059,1,4,0:3:0:0:
129,205,93124,1,4,0:3:0:0:
145,199,93189,1,4,0:3:0:0:
158,187,93254,1,4,0:3:0:0:
167,175,93319,2,0,P|163:117|154:84,3,87.5,8|8|8|8,0:2|0:2|0:2|0:2,0:0:0:0:
21,288,93580,5,4,0:3:0:0:
44,276,93645,1,4,0:3:0:0:
70,273,93711,1,4,0:3:0:0:
95,276,93776,1,4,0:3:0:0:
119,285,93841,1,4,0:3:0:0:
140,300,93906,1,4,0:3:0:0:
159,318,93972,1,4,0:3:0:0:
172,340,94037,1,4,0:3:0:0:
175,365,94102,2,0,P|121:381|73:364,3,87.5,8|8|4|4,0:2|0:2|0:3|0:3,0:0:0:0:
123,220,94363,5,8,0:2:0:0:
140,223,94428,1,8,0:2:0:0:
157,226,94493,1,8,0:2:0:0:
174,229,94559,1,8,0:2:0:0:
199,252,94624,5,8,0:2:0:0:
207,250,94689,1,8,0:2:0:0:
215,248,94754,1,8,0:2:0:0:
223,246,94819,1,8,0:2:0:0:
254,234,94885,6,0,L|249:139,3,87.5,8|8|4|4,0:0|0:0|0:3|0:3,0:0:0:0:
374,7,95145,5,8,0:2:0:0:
368,50,95211,1,8,0:2:0:0:
363,93,95276,1,8,0:2:0:0:
358,136,95341,1,8,0:2:0:0:
359,180,95406,2,0,L|451:144,3,87.5,4|4|4|4,0:3|0:3|0:3|0:3,0:0:0:0:
280,18,95667,6,0,L|268:121,1,87.5,8|0,0:2|0:0,0:0:0:0:
281,131,95798,2,0,L|291:44,1,87.5,8|0,0:2|0:0,0:0:0:0:
151,0,95928,6,0,B|87:45|56:90|60:149|52:169|153:310|94:266,1,315.000012016297,6|4,0:1|0:0,0:0:0:0:
38,351,96189,2,0,B|31:322|31:322|78:250,1,87.5,4|8,0:0|0:2,0:0:0:0:
117,211,96319,2,0,B|142:226|142:226|160:310,1,87.5,4|8,0:3|0:2,0:0:0:0:
197,363,96450,2,0,L|206:260,1,87.5,4|8,0:3|0:2,0:0:0:0:
292,243,96580,2,0,L|299:330,1,87.5,4|8,0:3|0:2,0:0:0:0:
400,223,96711,2,0,B|383:202|383:201|311:209,1,87.5,4|4,0:2|0:0,0:0:0:0:
275,192,96841,2,0,B|292:171|292:170|364:178,1,87.5,4|4,0:0|0:0,0:0:0:0:
334,32,96972,2,0,L|322:151,3,87.5,8|4|4|4,0:2|0:0|0:0|0:0,0:0:0:0:
221,167,97232,2,0,L|209:48,1,87.5,8|4,0:2|0:0,0:0:0:0:
109,221,97362,2,0,L|117:133,1,87.5,4|4,0:0|0:0,0:0:0:0:
180,0,97493,5,6,0:1:0:0:
188,15,97559,1,8,0:2:0:0:
195,30,97624,1,4,0:0:0:0:
200,46,97689,1,8,0:2:0:0:
204,62,97754,1,4,0:3:0:0:
206,79,97819,1,8,0:2:0:0:
206,96,97885,1,4,0:3:0:0:
205,113,97950,1,8,0:2:0:0:
198,129,98015,2,0,P|148:131|84:118,3,87.5,4|8|4|8,0:3|0:2|0:3|0:2,0:0:0:0:
53,29,98276,5,4,0:3:0:0:
51,37,98341,1,8,0:2:0:0:
49,45,98406,1,4,0:3:0:0:
47,53,98472,1,8,0:2:0:0:
46,61,98537,2,0,L|56:184,1,87.5,4|8,0:3|0:2,0:0:0:0:
91,171,98667,2,0,L|83:83,1,87.5,4|8,0:0|0:2,0:0:0:0:
28,235,98798,2,0,L|38:358,1,87.5,4|8,0:3|0:2,0:0:0:0:
73,345,98928,2,0,L|65:257,1,87.5,4|8,0:0|0:2,0:0:0:0:
209,242,99059,5,6,0:1:0:0:
194,264,99124,1,8,0:2:0:0:
190,289,99189,1,8,0:2:0:0:
195,314,99254,1,8,0:2:0:0:
207,337,99319,1,8,0:2:0:0:
229,351,99385,1,8,0:2:0:0:
254,358,99450,1,8,0:2:0:0:
280,357,99515,1,8,0:2:0:0:
303,344,99580,6,0,L|322:244,3,87.5,4|4|4|4,0:3|0:3|0:3|0:3,0:0:0:0:
460,212,99841,5,8,0:2:0:0:
458,194,99906,1,8,0:2:0:0:
456,176,99972,1,8,0:2:0:0:
454,158,100037,1,8,0:2:0:0:
452,140,100102,1,4,0:3:0:0:
450,122,100168,1,4,0:3:0:0:
448,104,100233,1,4,0:3:0:0:
446,86,100298,1,4,0:3:0:0:
442,67,100363,6,0,B|473:31|473:31|515:90,1,87.5,4|4,0:3|0:3,0:0:0:0:
501,158,100493,2,0,B|470:194|470:194|428:135,1,87.5,4|4,0:3|0:3,0:0:0:0:
370,163,100624,5,8,0:2:0:0:
361,124,100689,1,8,0:2:0:0:
352,84,100754,1,8,0:2:0:0:
344,45,100819,1,8,0:2:0:0:
320,4,100885,6,0,L|305:118,3,87.5,4|4|4|4,0:3|0:3|0:3|0:3,0:0:0:0:
182,188,101145,5,8,0:2:0:0:
207,179,101211,1,8,0:2:0:0:
231,170,101276,1,4,0:3:0:0:
255,161,101341,1,4,0:3:0:0:
289,133,101406,5,8,0:2:0:0:
283,185,101472,1,8,0:2:0:0:
277,237,101537,1,8,0:2:0:0:
272,289,101602,1,8,0:2:0:0:
261,336,101667,6,0,L|361:287,3,87.5,4|4|4|4,0:3|0:3|0:3|0:3,0:0:0:0:
400,364,101928,2,0,L|500:315,3,87.5,4|4|4|4,0:0|0:0|0:0|0:0,0:0:0:0:
508,232,102189,6,0,B|471:194|471:194|482:104,1,105.000004005432,4|0,0:2|0:0,0:0:0:0:
439,66,102450,2,0,B|380:100|380:100|341:204,1,157.500006008148,2|0,0:0|0:0,0:0:0:0:
346,203,102711,2,0,P|321:213|234:203,1,105.000004005432,2|0,0:0|0:0,0:0:0:0:
137,52,102972,6,0,P|168:94|188:143,1,105.000004005432,8|2,0:2|0:2,0:0:0:0:
187,270,103232,1,2,0:2:0:0:
273,53,103363,6,0,P|277:105|271:158,1,105.000004005432,2|0,0:2|0:0,0:0:0:0:
102,272,103624,1,2,0:2:0:0:
23,244,103754,6,0,P|117:224|158:181,1,157.500006008148,2|0,0:1|0:0,0:0:0:0:
173,165,104015,2,0,B|217:197|217:197|225:279,1,105.000004005432,2|0,0:0|0:0,0:0:0:0:
252,365,104276,2,0,B|291:326|291:326|300:278,1,105.000004005432,2|0,0:0|0:0,0:0:0:0:
486,248,104537,6,0,L|382:258,1,105.000004005432,8|0,0:2|0:0,0:0:0:0:
214,273,104798,2,0,L|161:277,3,52.5000020027161,2|2|2|2,0:2|0:2|0:2|0:2,0:0:0:0:
134,279,105059,2,0,L|81:283,3,52.5000020027161,2|2|2|2,0:2|0:2|0:2|0:2,0:0:0:0:
60,284,105319,6,0,B|45:344|45:344|79:380,1,105.000004005432,4|0,0:2|0:0,0:0:0:0:
91,205,105580,2,0,P|88:152|40:106,1,105.000004005432,2|0,0:0|0:0,0:0:0:0:
172,109,105841,2,0,P|140:67|96:40,1,105.000004005432,2|0,0:0|0:0,0:0:0:0:
8,189,106102,6,0,P|103:200|142:234,1,105.000004005432,8|0,0:2|0:0,0:0:0:0:
190,332,106363,2,0,P|193:375|187:411,3,52.5000020027161,2|2|2|2,0:2|0:2|0:2|0:2,0:0:0:0:
172,323,106624,2,0,P|132:311|102:315,3,52.5000020027161
185,306,106885,6,0,B|179:288|172:273|172:273|221:278|279:307,1,105.000004005432,2|0,0:1|0:0,0:0:0:0:
321,148,107145,5,2,0:0:0:0:
283,223,107276,2,0,P|286:275|317:315,1,105.000004005432,2|0,0:0|0:0,0:0:0:0:
177,314,107537,5,2,0:0:0:0:
365,245,107668,2,0,P|416:251|463:274,1,105.000004005432,8|8,0:2|0:2,0:0:0:0:
463,274,107863,1,8,0:2:0:0:
463,274,107928,5,8,0:2:0:0:
447,364,108059,1,8,0:0:0:0:
437,202,108189,2,0,P|431:147|442:90,1,105.000004005432,8|4,0:0|0:0,0:0:0:0:
363,364,108450,6,0,P|282:316|240:224,1,157.500006008148,2|0,0:1|0:0,0:0:0:0:
241,222,108711,2,0,B|289:203|289:203|291:181|304:147,1,105.000004005432,2|0,0:0|0:0,0:0:0:0:
228,52,108972,2,0,B|203:65|203:65|212:89|216:141,1,105.000004005432,2|0,0:0|0:0,0:0:0:0:
55,30,109232,6,0,P|104:65|110:184,1,157.500006008148,8|0,0:2|0:0,0:0:0:0:
109,186,109493,2,0,P|102:233|128:308,2,105.000004005432,2|0|2,0:0|0:0|0:0,0:0:0:0:
201,64,109885,1,4,0:0:0:0:
198,265,110015,6,0,B|233:300|233:300|377:278,1,157.500006008148,2|0,0:1|0:0,0:0:0:0:
383,287,110276,2,0,P|332:300|342:181,1,210.000008010865,2|2,0:0|0:0,0:0:0:0:
450,201,110667,1,4,0:0:0:0:
226,156,110798,5,8,0:2:0:0:
142,166,110928,2,0,P|128:232|132:288,1,105.000004005432,4|0,0:0|0:0,0:0:0:0:
239,150,111189,5,4,0:0:0:0:
43,241,111319,1,8,0:2:0:0:
190,365,111450,1,8,0:2:0:0:
135,301,111580,6,0,P|128:227|171:113,1,157.500006008148,4|0,0:2|0:0,0:0:0:0:
159,132,111841,2,0,L|271:138,1,105.000004005432,2|0,0:0|0:0,0:0:0:0:
348,142,112102,1,2,0:0:0:0:
501,119,112232,5,4,0:0:0:0:
355,154,112363,2,0,P|344:212|349:270,1,105.000004005432,8|0,0:2|0:0,0:0:0:0:
430,250,112624,6,0,P|436:230|511:209,1,105.000004005432,2|2,0:2|0:2,0:0:0:0:
378,333,112885,2,0,P|398:328|454:382,1,105.000004005432,2|2,0:2|0:2,0:0:0:0:
512,212,113145,6,0,P|510:141|497:82,1,105.000004005432,2|0,0:1|0:0,0:0:0:0:
341,63,113406,2,0,B|352:52|382:46|382:46|411:90|425:150,1,157.500006008148,2|0,0:0|0:0,0:0:0:0:
416,164,113667,2,0,B|449:206|449:206|517:193,1,105.000004005432,2|0,0:0|0:0,0:0:0:0:
296,379,113928,6,0,P|303:341|245:311,1,105.000004005432,8|4,0:2|0:0,0:0:0:0:
172,335,114189,1,4,0:0:0:0:
88,335,114319,1,8,0:0:0:0:
21,283,114450,1,8,0:0:0:0:
3,201,114580,1,8,0:0:0:0:
74,15,114711,6,0,P|83:93|82:172,1,157.500006008148,2|0,0:1|0:0,0:0:0:0:
81,200,114972,2,0,P|125:221|157:281,1,105.000004005432,2|2,0:0|0:0,0:0:0:0:
162,0,115232,2,0,P|169:58|172:109,1,105.000004005432,2|2,0:0|0:0,0:0:0:0:
178,347,115493,6,0,P|186:280|186:216,1,105.000004005432,8|0,0:2|0:0,0:0:0:0:
184,105,115754,1,2,0:0:0:0:
305,333,115885,6,0,P|290:283|270:235,1,105.000004005432,2|0,0:0|0:0,0:0:0:0:
180,91,116145,1,2,0:0:0:0:
406,84,116276,6,0,P|333:108|251:156,1,157.500006008148,4|0,0:2|0:0,0:0:0:0:
244,145,116537,2,0,P|200:172|149:169,1,105.000004005432,2|2,0:0|0:0,0:0:0:0:
50,21,116798,2,0,P|75:67|80:119,1,105.000004005432,2|2,0:0|0:0,0:0:0:0:
34,347,117059,5,8,0:2:0:0:
6,269,117189,1,4,0:0:0:0:
38,192,117319,1,4,0:0:0:0:
114,372,117450,5,8,0:2:0:0:
167,308,117580,1,4,0:0:0:0:
250,297,117710,1,4,0:0:0:0:
456,381,117841,5,2,0:1:0:0:
87,367,118102,5,2,0:0:0:0:
512,306,118363,5,2,0:0:0:0:
21,310,118624,6,0,B|1:272|1:272|28:180,1,105.000004005432,8|0,0:2|0:0,0:0:0:0:
50,134,118885,1,2,0:0:0:0:
258,37,119015,5,2,0:0:0:0:
266,120,119145,1,2,0:0:0:0:
274,203,119276,1,2,0:0:0:0:
247,372,119406,6,0,P|236:323|271:286,1,105.000004005432,4|0,0:2|0:0,0:0:0:0:
454,314,119667,1,8,0:2:0:0:
458,314,119732,1,8,0:2:0:0:
462,315,119798,1,8,0:2:0:0:
466,316,119863,1,8,0:2:0:0:
471,317,119928,2,0,P|464:277|479:235,3,52.5000020027161,4|4|4|4,0:3|0:3|0:3|0:3,0:0:0:0:
471,256,120189,5,8,0:2:0:0:
474,246,120254,1,8,0:2:0:0:
475,235,120319,1,8,0:2:0:0:
474,224,120385,1,0,0:0:0:0:
470,214,120450,2,0,L|386:223,3,52.5000020027161,4|0|4|0,0:0|0:0|0:0|0:0,0:0:0:0:
412,204,120711,5,8,0:2:0:0:
409,188,120776,1,8,0:2:0:0:
410,172,120841,1,8,0:2:0:0:
414,157,120906,1,8,0:2:0:0:
423,143,120972,6,0,B|432:125|446:111|446:111|379:136|351:237,1,157.500006008148,2|0,0:1|0:0,0:0:0:0:
361,211,121232,2,0,P|297:217|248:195,1,105.000004005432,4|4,0:0|0:0,0:0:0:0:
197,342,121493,2,0,P|181:293|184:241,1,105.000004005432,4|4,0:0|0:0,0:0:0:0:
302,22,121754,6,0,P|297:80|269:130,1,105.000004005432,8|0,0:2|0:0,0:0:0:0:
195,146,122015,1,4,0:0:0:0:
115,172,122145,1,4,0:0:0:0:
63,238,122276,1,4,0:0:0:0:
55,321,122406,1,4,0:0:0:0:
205,153,122537,6,0,P|260:161|322:201,1,105.000004005432,4|0,0:2|0:0,0:0:0:0:
380,245,122798,1,4,0:0:0:0:
377,131,122928,6,0,P|389:182|392:235,1,105.000004005432,4|4,0:0|0:0,0:0:0:0:
322,310,123189,1,4,0:0:0:0:
296,103,123319,5,8,0:2:0:0:
357,44,123450,1,4,0:0:0:0:
438,69,123580,1,4,0:0:0:0:
237,33,123711,5,8,0:2:0:0:
285,102,123842,1,4,0:3:0:0:
279,185,123972,1,4,0:3:0:0:
77,264,124102,5,2,0:1:0:0:
110,185,124232,1,4,0:0:0:0:
187,153,124363,1,4,0:0:0:0:
264,185,124493,1,4,0:0:0:0:
296,263,124624,1,4,0:0:0:0:
265,340,124754,1,4,0:0:0:0:
98,175,124885,6,0,P|90:123|101:55,2,105.000004005432,8|4|4,0:2|0:0|0:0,0:0:0:0:
310,260,125276,2,0,P|372:267|427:286,2,105.000004005432,8|4|4,0:2|0:0|0:0,0:0:0:0:
94,185,125667,5,12,0:2:0:0:
96,195,125732,1,8,0:2:0:0:
96,205,125798,1,8,0:2:0:0:
94,215,125863,1,8,0:2:0:0:
90,224,125928,1,4,0:0:0:0:
22,273,126059,1,4,0:0:0:0:
4,354,126189,2,0,P|24:371|66:380,3,52.5000020027161,8|8|8|0,0:0|0:0|0:0|0:0,0:0:0:0:
77,377,126450,6,0,B|96:349|96:349|170:335,1,105.000004005432,2|8,0:1|0:0,0:0:0:0:
116,241,126711,2,0,B|143:226|143:226|208:262,1,105.000004005432,8|4,0:0|0:0,0:0:0:0:
254,146,126972,2,0,B|270:155|270:155|289:240,1,105.000004005432,4|4,0:0|0:0,0:0:0:0:
310,360,127232,5,2,0:1:0:0:
261,16,127493,5,4,0:0:0:0:
230,380,127754,5,0,0:2:0:0:
328,63,128015,5,2,0:1:0:0:
310,144,128145,1,4,0:0:0:0:
331,225,128276,1,4,0:0:0:0:
396,276,128406,1,4,0:3:0:0:
318,46,128537,5,2,0:1:0:0:
247,90,128667,1,4,0:0:0:0:
205,162,128798,1,0,0:0:0:0:
215,244,128928,1,4,0:0:0:0:
307,28,129059,5,2,0:1:0:0:
226,10,129189,1,4,0:0:0:0:
145,31,129320,1,0,0:0:0:0:
94,96,129450,1,4,0:0:0:0:
184,321,129580,5,2,0:1:0:0:
202,240,129710,1,4,0:0:0:0:
181,159,129841,1,8,0:0:0:0:
116,108,129971,1,4,0:0:0:0:
194,338,130102,5,2,0:1:0:0:
265,294,130232,1,4,0:0:0:0:
418,288,130363,5,4,0:2:0:0:
367,353,130493,1,0,0:0:0:0:
205,356,130624,5,4,0:0:0:0:
286,374,130754,1,4,0:0:0:0:
297,140,130885,5,4,0:0:0:0:
307,222,131015,1,4,0:3:0:0:
312,17,131145,5,2,0:1:0:0:
307,101,131276,1,4,0:3:0:0:
302,184,131406,1,4,0:3:0:0:
298,268,131537,1,4,0:3:0:0:
209,66,131667,5,2,0:1:0:0:
214,149,131798,1,4,0:0:0:0:
219,233,131928,1,4,0:0:0:0:
225,317,132059,1,4,0:0:0:0:
120,141,132189,5,2,0:1:0:0:
134,223,132319,1,4,0:0:0:0:
383,156,132450,5,4,0:2:0:0:
392,72,132580,1,4,0:0:0:0:
253,147,132711,5,8,0:2:0:0:
253,157,132776,1,8,0:2:0:0:
253,167,132841,1,8,0:2:0:0:
253,177,132906,1,8,0:2:0:0:
253,187,132972,1,8,0:2:0:0:
249,270,133102,1,8,0:2:0:0:
176,311,133232,1,8,0:2:0:0:
93,294,133363,1,8,0:2:0:0:
68,100,133493,5,2,0:1:0:0:
151,108,133624,1,6,0:0:0:0:
234,116,133754,1,6,0:0:0:0:
53,90,133885,5,6,0:0:0:0:
240,105,134015,1,2,0:1:0:0:
103,178,134145,1,4,0:3:0:0:
318,111,134276,5,8,0:2:0:0:
383,162,134406,1,6,0:0:0:0:
389,246,134537,1,6,0:0:0:0:
323,100,134667,5,6,0:0:0:0:
402,250,134798,1,2,0:1:0:0:
505,160,134928,1,4,0:3:0:0:
222,74,135059,5,4,0:2:0:0:
222,74,135189,1,4,0:3:0:0:
385,164,135319,5,2,0:3:0:0:
385,164,135450,1,4,0:3:0:0:
323,374,135580,5,2,0:1:0:0:
323,374,135711,1,4,0:3:0:0:
354,246,135841,5,8,0:2:0:0:
354,246,135972,1,4,0:0:0:0:
286,151,136102,5,4,0:0:0:0:
286,151,136232,1,4,0:0:0:0:
98,231,136363,5,8,0:2:0:0:
364,254,136493,1,8,0:2:0:0:
285,284,136624,5,2,0:1:0:0:
206,257,136754,1,6,0:0:0:0:
162,185,136885,1,6,0:0:0:0:
176,102,137015,1,4,0:2:0:0:
241,48,137145,1,6,0:0:0:0:
324,45,137276,1,6,0:0:0:0:
26,90,137406,5,2,0:1:0:0:
130,102,137537,1,6,0:0:0:0:
217,158,137667,1,6,0:0:0:0:
286,237,137798,1,4,0:2:0:0:
382,276,137928,1,2,0:2:0:0:
487,280,138059,1,6,0:3:0:0:
442,98,138189,5,8,0:2:0:0:
442,98,138254,1,8,0:2:0:0:
442,98,138319,1,8,0:2:0:0:
442,98,138385,1,8,0:2:0:0:
442,98,138450,2,0,L|451:207,1,105.000004005432,8|4,0:2|0:3,0:0:0:0:
260,301,138711,2,0,L|253:364,3,52.5000020027161,4|0|8|8,0:3|0:0|0:0|0:0,0:0:0:0:
277,284,138972,5,8,0:0:0:0:
265,176,139102,1,8,0:0:0:0:
250,72,139232,1,8,0:0:0:0:
92,170,139363,5,4,0:0:0:0:
250,185,139493,1,4,0:0:0:0:
419,207,139624,1,4,0:0:0:0:
321,368,139754,5,2,0:1:0:0:
109,63,140015,5,4,0:2:0:0:
423,294,140276,5,4,0:0:0:0:
433,292,140341,1,4,0:0:0:0:
443,290,140406,1,4,0:0:0:0:
453,289,140472,1,0,0:0:0:0:
463,289,140537,1,6,0:1:0:0:
256,192,140602,12,0,141254,0:0:0:0:
24,178,141319,5,6,0:1:0:0:
454,217,141580,5,4,0:2:0:0:
28,293,141841,5,4,0:0:0:0:
426,133,142102,5,4,1:0:0:0:
425,127,142167,1,0,1:0:0:0:
425,122,142232,1,0,1:0:0:0:
425,117,142297,1,0,1:0:0:0:
424,112,142362,1,0,1:0:0:0:
424,106,142428,1,0,1:0:0:0:
424,101,142493,1,0,1:0:0:0:
423,96,142559,1,0,1:0:0:0:
423,91,142624,1,0,1:0:0:0:
423,85,142689,1,0,1:0:0:0:
423,80,142754,1,0,1:0:0:0:
422,75,142819,1,0,1:0:0:0:
422,70,142885,5,6,0:1:0:0:
10,29,143145,5,4,0:2:0:0:
368,256,143406,5,4,0:0:0:0:
355,165,143537,1,4,0:0:0:0:
32,214,143667,1,6,0:1:0:0:
23,223,143928,6,0,L|17:286,7,52.5000020027161,2|0|2|2|2|0|2|0,0:2|0:0|0:2|0:2|0:2|0:0|0:2|0:0,0:0:0:0:
29,186,144450,5,6,0:1:0:0:
381,359,144711,5,4,0:2:0:0:
487,79,144972,5,4,0:3:0:0:
484,68,145037,1,4,0:3:0:0:
481,57,145102,1,4,0:3:0:0:
478,46,145167,1,0,0:0:0:0:
475,35,145232,5,8,0:2:0:0:
343,54,145363,2,0,L|301:1,2,52.5000020027161,8|8|8,0:2|0:2|0:2,0:0:0:0:
294,178,145624,1,8,0:2:0:0:
194,264,145754,1,8,0:2:0:0:
62,249,145885,1,8,0:2:0:0:
5,311,146015,5,6,0:1:0:0:
210,352,146145,1,4,0:0:0:0:
210,352,146211,1,4,0:0:0:0:
210,352,146276,2,0,B|291:361|291:361|315:312,1,105.000004005432,4|8,0:0|0:0,0:0:0:0:
474,351,146537,2,0,B|393:342|393:342|369:391,1,105.000004005432,8|8,0:0|0:0,0:0:0:0:
193,136,146798,5,8,0:2:0:0:
182,137,146863,1,8,0:2:0:0:
171,138,146928,1,8,0:2:0:0:
160,139,146993,1,8,0:2:0:0:
149,140,147059,2,0,L|138:210,3,52.5000020027161,8|4|4|4,0:2|0:3|0:3|0:3,0:0:0:0:
123,204,147319,5,8,0:2:0:0:
113,207,147384,1,8,0:2:0:0:
103,211,147449,1,8,0:2:0:0:
93,215,147514,1,8,0:2:0:0:
76,235,147580,6,0,P|93:285|92:320,5,52.5000020027161,6|0|4|4|4|0,0:1|0:0|0:0|0:0|0:0|0:0,0:0:0:0:
117,293,147972,2,0,P|102:346|85:377,4,52.5000020027161,4|8|8|0|8,0:2|0:0|0:0|0:0|0:0,0:0:0:0:
270,384,148363,6,0,P|252:330|252:302,5,52.5000020027161,4|0|0|0|0|0,1:0|1:0|1:0|1:0|1:0|1:0,0:0:0:0:
272,318,148754,2,0,P|285:279|314:240,5,52.5000020027161,4|8|8|8|8|8,0:2|0:0|0:0|0:0|0:0|0:0,0:0:0:0:
309,250,149145,5,6,1:0:0:0:
146,278,149276,2,0,P|137:312|131:360,1,52.5000020027161,4|4,0:0|0:0,0:0:0:0:
27,183,149406,1,4,0:0:0:0:
17,181,149472,1,0,0:0:0:0:
7,180,149537,2,0,P|-3:147|-4:104,5,52.5000020027161,4|8|8|0|8|0,0:2|0:0|0:0|0:0|0:0|0:0,0:0:0:0:
2,121,149928,5,6,0:1:0:0:
12,116,149993,1,8,0:2:0:0:
23,112,150059,1,8,0:2:0:0:
34,109,150124,1,8,0:2:0:0:
45,107,150189,2,0,L|127:113,3,52.5000020027161,8|4|4|4,0:2|0:3|0:3|0:3,0:0:0:0:
106,124,150450,5,12,0:2:0:0:
117,135,150515,1,8,0:2:0:0:
132,140,150580,1,4,0:3:0:0:
148,139,150645,1,4,0:3:0:0:
163,131,150711,1,6,0:1:0:0:
173,118,150776,1,8,0:2:0:0:
176,102,150841,1,8,0:2:0:0:
170,87,150906,1,8,0:2:0:0:
158,77,150972,6,0,P|136:38|141:-4,3,52.5000020027161,8|0|4|8,0:2|0:0|0:2|0:0,0:0:0:0:
138,5,151232,5,8,0:0:0:0:
120,24,151298,1,8,0:0:0:0:
113,49,151363,1,8,0:0:0:0:
117,74,151428,1,0,0:0:0:0:
130,97,151493,5,6,0:1:0:0:
256,192,151559,12,0,153776,0:0:0:0:
373,66,153841,5,6,0:1:0:0:
358,80,153906,1,8,0:2:0:0:
352,100,153972,1,4,0:3:0:0:
354,120,154037,1,8,0:2:0:0:
365,136,154102,1,4,0:0:0:0:
384,144,154167,1,8,0:2:0:0:
404,142,154232,1,4,0:0:0:0:
421,131,154298,1,8,0:2:0:0:
428,120,154363,2,0,P|431:77|412:32,3,87.5,4|8|4|8,0:3|0:2|0:3|0:2,0:0:0:0:
291,9,154624,5,2,0:1:0:0:
299,33,154689,1,8,0:2:0:0:
297,59,154754,1,4,0:3:0:0:
290,84,154819,1,8,0:2:0:0:
271,103,154885,1,4,0:0:0:0:
248,115,154950,1,8,0:2:0:0:
221,114,155015,1,4,0:0:0:0:
198,100,155080,1,8,0:2:0:0:
183,78,155145,1,4,0:0:0:0:
181,51,155211,1,8,0:2:0:0:
191,26,155276,1,4,0:0:0:0:
210,8,155341,1,8,0:2:0:0:
240,7,155406,6,0,P|256:72|240:150,3,87.5,4|8|4|8,0:3|0:2|0:3|0:2,0:0:0:0:
201,184,155667,2,0,P|167:213|106:216,3,87.5,8|4|4|4,0:2|0:3|0:3|0:3,0:0:0:0:
15,107,155928,2,0,P|18:151|59:196,3,87.5,8|12|4|12,0:2|0:3|0:3|0:3,0:0:0:0:
131,48,156189,5,8,0:2:0:0:
128,74,156254,1,12,0:3:0:0:
125,100,156319,1,4,0:3:0:0:
122,126,156385,1,12,0:3:0:0:
117,168,156450,5,8,0:2:0:0:
143,144,156515,1,4,0:3:0:0:
169,120,156580,1,4,0:3:0:0:
195,97,156645,1,12,0:3:0:0:
220,63,156711,6,0,L|241:180,3,87.5,8|8|8|8,0:2|0:2|0:2|0:2,0:0:0:0:
241,319,156972,5,4,0:1:0:0:
211,336,157037,1,4,0:3:0:0:
176,336,157102,1,4,0:3:0:0:
149,313,157167,1,4,0:3:0:0:
142,278,157232,1,4,0:3:0:0:
155,245,157298,1,4,0:3:0:0:
184,226,157363,1,4,0:3:0:0:
218,228,157428,1,4,0:3:0:0:
244,250,157493,2,0,P|253:301|236:361,3,87.5,8|8|8|8,0:2|0:2|0:2|0:2,0:0:0:0:
354,379,157754,5,4,0:3:0:0:
340,347,157819,1,4,0:3:0:0:
337,311,157885,1,4,0:3:0:0:
349,278,157950,1,4,0:3:0:0:
372,252,158015,1,4,0:3:0:0:
403,237,158080,1,4,0:3:0:0:
437,238,158145,1,4,0:3:0:0:
468,254,158211,1,4,0:3:0:0:
489,281,158276,2,0,L|481:376,3,87.5,8|8|4|4,0:2|0:2|0:3|0:3,0:0:0:0:
347,380,158537,5,8,0:2:0:0:
342,372,158602,1,8,0:2:0:0:
337,364,158667,1,8,0:2:0:0:
339,320,158732,1,8,0:2:0:0:
341,275,158798,2,0,L|435:302,3,87.5,8|8|8|8,0:2|0:2|0:2|0:2,0:0:0:0:
496,172,159059,5,8,0:0:0:0:
453,183,159124,1,8,0:0:0:0:
411,194,159189,1,4,0:3:0:0:
414,176,159254,1,4,0:3:0:0:
417,158,159319,6,0,L|402:49,3,87.5,8|8|8|8,0:2|0:2|0:2|0:2,0:0:0:0:
303,2,159580,1,4,0:3:0:0:
301,19,159645,1,4,0:3:0:0:
299,36,159711,1,4,0:3:0:0:
297,53,159776,1,4,0:3:0:0:
295,73,159841,6,0,L|398:49,1,87.5,8|0,0:2|0:0,0:0:0:0:
256,175,159972,2,0,L|170:156,1,87.5,8|0,0:2|0:0,0:0:0:0:
485,1,160102,6,0,B|497:110|511:223|457:41|466:159|391:178|426:306|520:244,1,315.000012016297,6|8,0:1|0:2,0:0:0:0:
510,208,160363,2,0,B|480:200|480:200|409:222,1,87.5,4|4,0:3|0:3,0:0:0:0:
328,247,160493,2,0,B|358:239|358:239|429:261,1,87.5,4|4,0:3|0:3,0:0:0:0:
374,358,160624,2,0,L|368:246,1,87.5,8|8,0:2|0:2,0:0:0:0:
278,314,160754,2,0,L|284:202,1,87.5,8|8,0:2|0:2,0:0:0:0:
231,166,160885,2,0,B|251:194|251:194|338:186,1,87.5,4|4,0:3|0:3,0:0:0:0:
385,130,161015,2,0,B|365:158|365:158|278:150,1,87.5,4|4,0:3|0:3,0:0:0:0:
194,76,161145,2,0,L|203:202,3,87.5,8|8|8|8,0:2|0:2|0:2|0:2,0:0:0:0:
97,173,161406,2,0,L|88:299,1,87.5,4|4,0:3|0:3,0:0:0:0:
172,263,161537,2,0,L|163:389,1,87.5,4|4,0:3|0:3,0:0:0:0:
250,370,161667,5,4,0:3:0:0:
248,361,161732,1,8,0:2:0:0:
247,352,161798,1,4,0:3:0:0:
248,343,161863,1,8,0:2:0:0:
249,334,161928,1,4,0:3:0:0:
251,325,161993,1,8,0:2:0:0:
254,317,162059,1,4,0:3:0:0:
258,309,162124,1,8,0:2:0:0:
260,300,162189,2,0,P|301:269|361:268,3,87.5,4|8|4|8,0:3|0:2|0:3|0:2,0:0:0:0:
422,332,162450,5,4,0:3:0:0:
427,324,162515,1,8,0:2:0:0:
430,316,162580,1,4,0:3:0:0:
433,307,162645,1,8,0:2:0:0:
434,298,162711,6,0,L|419:181,1,87.5,4|8,0:3|0:2,0:0:0:0:
392,198,162841,2,0,L|403:284,1,87.5,4|8,0:3|0:2,0:0:0:0:
455,132,162972,2,0,L|470:15,1,87.5,4|8,0:3|0:2,0:0:0:0:
497,32,163102,2,0,L|485:118,1,87.5,4|8,0:3|0:2,0:0:0:0:
310,190,163232,5,8,0:2:0:0:
292,170,163298,1,8,0:2:0:0:
284,144,163363,1,8,0:2:0:0:
287,118,163428,1,8,0:2:0:0:
297,94,163493,1,8,0:2:0:0:
316,75,163559,1,8,0:2:0:0:
340,65,163624,1,8,0:2:0:0:
366,63,163689,1,8,0:2:0:0:
390,71,163754,2,0,L|384:184,3,87.5,4|4|4|4,0:3|0:3|0:3|0:3,0:0:0:0:
486,261,164015,5,8,0:2:0:0:
504,241,164081,1,8,0:2:0:0:
512,215,164146,1,8,0:2:0:0:
509,189,164211,1,8,0:2:0:0:
499,165,164276,2,0,L|375:197,1,87.5,4|4,0:3|0:3,0:0:0:0:
392,221,164406,2,0,L|476:199,1,87.5,4|4,0:3|0:3,0:0:0:0:
501,97,164537,2,0,L|302:80,1,175,8|4,0:2|0:3,0:0:0:0:
165,68,164798,5,8,0:2:0:0:
169,120,164863,1,8,0:2:0:0:
173,172,164928,1,8,0:2:0:0:
178,224,164993,1,8,0:2:0:0:
161,266,165059,2,0,L|70:248,3,87.5,4|4|4|4,0:3|0:3|0:3|0:3,0:0:0:0:
11,147,165319,5,8,0:2:0:0:
61,131,165385,1,8,0:2:0:0:
111,115,165450,2,0,L|103:219,1,87.5,4|4,0:3|0:3,0:0:0:0:
35,354,165580,5,8,0:2:0:0:
86,342,165645,1,8,0:2:0:0:
137,330,165711,1,8,0:2:0:0:
188,318,165776,1,8,0:2:0:0:
238,293,165841,6,0,L|222:380,3,87.5,4|4|4|4,0:3|0:3|0:3|0:3,0:0:0:0:
345,381,166102,5,8,0:2:0:0:
338,329,166167,1,8,0:2:0:0:
331,277,166232,2,0,B|350:253|350:253|417:263,1,87.5,8|8,0:2|0:2,0:0:0:0:
503,177,166363,5,6,0:1:0:0:
502,159,166428,1,8,0:2:0:0:
498,141,166493,1,4,0:3:0:0:
490,125,166559,1,8,0:2:0:0:
478,112,166624,1,4,0:0:0:0:
463,101,166689,1,8,0:2:0:0:
447,93,166754,1,4,0:0:0:0:
429,89,166819,1,8,0:2:0:0:
411,89,166885,2,0,P|390:141|392:202,3,87.5,4|8|4|8,0:3|0:2|0:3|0:2,0:0:0:0:
417,285,167145,5,2,0:1:0:0:
397,303,167211,1,8,0:2:0:0:
371,310,167276,1,4,0:3:0:0:
344,312,167341,1,8,0:2:0:0:
318,307,167406,1,4,0:0:0:0:
296,291,167472,1,8,0:2:0:0:
282,268,167537,1,4,0:0:0:0:
275,242,167602,1,8,0:2:0:0:
279,216,167667,1,4,0:0:0:0:
293,194,167732,1,8,0:2:0:0:
314,178,167798,1,4,0:0:0:0:
338,169,167863,1,8,0:2:0:0:
364,168,167928,6,0,P|371:217|365:286,3,87.5,4|8|4|8,0:3|0:2|0:3|0:2,0:0:0:0:
293,351,168189,2,0,P|246:367|182:361,3,87.5,8|4|4|4,0:2|0:3|0:3|0:3,0:0:0:0:
151,279,168450,2,0,P|104:263|40:269,3,87.5,8|12|4|12,0:2|0:3|0:3|0:3,0:0:0:0:
18,374,168711,5,8,0:2:0:0:
60,363,168776,1,12,0:3:0:0:
102,353,168841,1,4,0:3:0:0:
144,343,168906,1,12,0:3:0:0:
188,333,168972,5,8,0:2:0:0:
140,311,169037,1,4,0:3:0:0:
92,289,169102,1,4,0:3:0:0:
43,268,169167,1,12,0:3:0:0:
11,232,169232,6,0,L|18:329,3,87.5,8|8|8|8,0:2|0:2|0:2|0:2,0:0:0:0:
51,144,169493,5,4,0:1:0:0:
66,122,169559,1,4,0:3:0:0:
89,110,169624,1,4,0:3:0:0:
114,106,169689,1,4,0:3:0:0:
139,109,169754,1,4,0:3:0:0:
162,119,169819,1,4,0:3:0:0:
182,136,169885,1,4,0:3:0:0:
196,157,169950,1,4,0:3:0:0:
203,182,170015,2,0,P|191:236|153:277,3,87.5,8|8|8|8,0:2|0:2|0:2|0:2,0:0:0:0:
24,255,170276,6,0,P|13:203|34:141,1,87.5,4|4,0:3|0:3,0:0:0:0:
94,57,170406,1,4,0:3:0:0:
120,59,170472,1,4,0:3:0:0:
146,61,170537,1,8,0:3:0:0:
171,63,170602,1,0,0:3:0:0:
196,66,170667,1,4,0:3:0:0:
221,68,170732,1,4,0:3:0:0:
245,72,170798,6,0,L|226:202,3,87.5,4|4|8|0,0:3|0:3|0:3|0:3,0:0:0:0:
382,178,171059,1,4,0:3:0:0:
356,180,171125,1,4,0:3:0:0:
330,182,171190,1,4,0:3:0:0:
305,184,171255,1,4,0:3:0:0:
280,187,171320,1,8,0:3:0:0:
255,189,171385,1,0,0:2:0:0:
231,193,171451,6,0,L|250:323,1,87.5,4|4,0:3|0:3,0:0:0:0:
341,365,171580,1,4,0:3:0:0:
366,363,171645,1,4,0:3:0:0:
391,360,171710,1,8,0:3:0:0:
416,358,171775,1,0,0:3:0:0:
440,354,171841,6,0,L|421:224,3,87.5,8|8|8|8,0:2|0:2|0:2|0:2,0:0:0:0:
318,117,172102,5,4,0:3:0:0:
309,168,172167,1,4,0:3:0:0:
300,219,172232,1,4,0:3:0:0:
307,214,172298,1,4,0:3:0:0:
315,211,172363,2,0,L|324:98,1,87.5,8|0,0:2|0:0,0:0:0:0:
297,106,172493,2,0,L|290:193,1,87.5,8|0,0:2|0:0,0:0:0:0:
506,216,172624,6,0,B|494:194|484:187|415:171|358:165|285:171|303:273|315:275|199:239|153:248,1,315.000012016297,6|0,0:1|0:2,0:0:0:0:
154,188,172885,2,0,P|177:253|158:322,1,105.000004005432,4|4,0:3|0:3,0:0:0:0:
54,355,173015,2,0,P|69:302|123:256,1,105.000004005432,4|4,0:3|0:3,0:0:0:0:
205,320,173145,2,0,B|180:339|180:339|78:323,1,105.000004005432,8|8,0:2|0:2,0:0:0:0:
297,266,173276,2,0,B|272:247|272:247|170:263,1,105.000004005432,8|8,0:2|0:2,0:0:0:0:
300,380,173406,2,0,L|311:254,1,105.000004005432,4|4,0:3|0:3,0:0:0:0:
406,339,173537,2,0,L|395:213,1,105.000004005432,4|4,0:3|0:3,0:0:0:0:
338,109,173667,2,0,L|349:235,3,105.000004005432,8|8|8|8,0:2|0:2|0:2|0:2,0:0:0:0:
246,250,173928,2,0,B|270:227|276:226|376:241,1,105.000004005432,4|4,0:3|0:3,0:0:0:0:
411,328,174059,2,0,B|387:351|381:352|281:337,1,105.000004005432,4|4,0:3|0:3,0:0:0:0:
218,276,174189,5,6,0:1:0:0:
211,256,174254,1,8,0:2:0:0:
208,235,174319,1,4,0:3:0:0:
207,213,174385,1,8,0:2:0:0:
211,192,174450,1,4,0:3:0:0:
218,172,174515,1,8,0:2:0:0:
229,154,174580,1,4,0:3:0:0:
243,139,174645,1,8,0:2:0:0:
260,126,174711,2,0,P|295:148|319:220,3,105.000004005432,4|8|4|8,0:3|0:2|0:3|0:2,0:0:0:0:
430,140,174972,5,4,0:3:0:0:
423,120,175037,1,8,0:2:0:0:
412,102,175102,1,4,0:3:0:0:
398,87,175167,1,8,0:2:0:0:
381,74,175233,2,0,P|346:96|322:168,3,105.000004005432,4|8|4|8,0:3|0:2|0:3|0:2,0:0:0:0:
382,297,175493,2,0,P|434:290|502:236,1,105.000004005432,4|8,0:3|0:2,0:0:0:0:
498,215,175624,2,0,P|445:221|377:275,1,105.000004005432,4|8,0:3|0:2,0:0:0:0:
437,383,175754,5,6,0:1:0:0:
448,353,175819,1,8,0:2:0:0:
440,321,175885,1,8,0:2:0:0:
419,297,175950,1,8,0:2:0:0:
390,282,176015,1,8,0:2:0:0:
358,283,176080,1,8,0:2:0:0:
331,299,176145,1,8,0:2:0:0:
315,326,176211,1,8,0:2:0:0:
309,356,176276,2,0,P|364:374|432:349,3,105.000004005432,4|4|4|4,0:3|0:3|0:3|0:3,0:0:0:0:
237,287,176537,5,8,0:2:0:0:
226,257,176602,1,8,0:2:0:0:
234,225,176668,1,8,0:2:0:0:
255,201,176733,1,8,0:2:0:0:
284,186,176798,1,4,0:3:0:0:
316,187,176863,1,4,0:3:0:0:
343,203,176928,1,4,0:3:0:0:
359,230,176994,1,4,0:3:0:0:
365,260,177059,2,0,P|363:320|343:365,1,105.000004005432,8|8,0:2|0:2,0:0:0:0:
316,373,177189,2,0,P|315:320|334:271,1,105.000004005432,4|4,0:3|0:3,0:0:0:0:
426,197,177319,5,8,0:2:0:0:
366,204,177385,1,8,0:2:0:0:
308,211,177450,1,8,0:2:0:0:
250,218,177515,1,8,0:2:0:0:
201,243,177580,6,0,L|186:96,3,105.000004005432,4|4|4|4,0:3|0:3|0:3|0:3,0:0:0:0:
310,105,177841,2,0,L|325:-42,3,105.000004005432,4|4|4|4,0:3|0:3|0:3|0:3,0:0:0:0:
452,58,178102,5,8,0:2:0:0:
444,124,178167,1,8,0:2:0:0:
438,190,178232,1,8,0:2:0:0:
432,258,178298,1,8,0:2:0:0:
455,323,178363,6,0,L|331:298,3,105.000004005432,8|8|8|8,0:2|0:2|0:2|0:2,0:0:0:0:
229,223,178624,2,0,L|105:248,3,105.000004005432,8|8|8|8,0:2|0:2|0:2|0:2,0:0:0:0:
37,328,178885,5,2,0:2:0:0:
