osu file format v14

[General]
AudioFilename: audio.mp3
AudioLeadIn: 0
PreviewTime: 89592
Countdown: 0
SampleSet: Drum
StackLeniency: 0.7
Mode: 0
LetterboxInBreaks: 0
WidescreenStoryboard: 1

[Editor]
DistanceSpacing: 1
BeatDivisor: 4
GridSize: 32
TimelineZoom: 2.1

[Metadata]
Title:The Skin Thief
TitleUnicode:The Skin Thief
Artist:Nekrogoblikon
ArtistUnicode:Nekrogoblikon
Creator:LMT
Version:Normal
Source:
Tags:goblin melodic death metal melodeath welcome to bonkers featured artist mappers guild hectic h4d0uk3n1 itswinter SILENCE PLAYER english
BeatmapID:2269416
BeatmapSetID:1061535

[Difficulty]
HPDrainRate:3
CircleSize:3
OverallDifficulty:4
ApproachRate:6
SliderMultiplier:0.8
SliderTickRate:1

[Events]
//Background and Video events
0,0,"skinthief_bg.jpg",0,0
//Break Periods
//Storyboard Layer 0 (Background)
//Storyboard Layer 1 (Fail)
//Storyboard Layer 2 (Pass)
//Storyboard Layer 3 (Foreground)
//Storyboard Layer 4 (Overlay)
//Storyboard Sound Samples

[TimingPoints]
204,291.26213592233,4,3,1,40,1,0
1672,291.26213592233,4,3,1,40,1,0
2545,291.26213592233,4,3,1,40,1,0
5748,283.018867924528,4,3,1,40,1,0
7163,270.00027000027,4,3,1,40,1,0
9322,260.869565217391,4,3,1,40,1,0
13495,-100,4,3,1,50,0,0
17669,-100,4,3,1,50,0,0
26017,-100,4,3,1,60,0,0
34365,260.869565217391,3,3,1,50,1,0
46886,-100,3,3,1,65,0,0
59407,260.869565217391,4,3,1,50,1,0
68798,-100,4,3,1,60,0,0
77146,260.869565217391,3,3,1,50,1,0
88950,-100,3,3,1,5,0,0
89015,-100,3,3,1,50,0,0
89667,-100,3,3,1,65,0,0
102189,-100,3,3,1,50,0,0
114711,-100,3,3,1,55,0,0
127232,-100,3,3,1,50,0,0
146015,-100,3,3,1,60,0,0
153580,-100,3,3,1,5,0,0
153841,-100,3,3,1,65,0,0

[Colours]
Combo1 : 162,208,208
Combo2 : 194,194,133
Combo3 : 204,204,204
Combo4 : 166,166,255

[HitObjects]
83,114,9322,5,4,0:1:0:0:
360,190,10365,1,4,0:1:0:0:
85,277,11408,1,4,0:1:0:0:
363,349,12452,1,4,0:1:0:0:
242,45,13495,6,0,B|236:72|236:72|216:90|216:90|204:185|204:185|214:196|214:196|196:349,2,320,4|2|4,0:1|0:1|0:3,0:0:0:0:
388,110,16104,1,4,0:3:0:0:
336,261,16626,2,0,L|319:340,1,80,4|4,0:3|0:3,0:0:0:0:
239,351,17148,2,0,L|225:272,1,80,8|0,0:0|1:0,0:0:0:0:
176,208,17669,5,4,0:1:0:0:
97,194,17930,1,4,0:3:0:0:
24,228,18191,1,4,0:3:0:0:
11,68,18713,5,4,0:3:0:0:
90,55,18974,1,8,0:2:0:0:
169,66,19235,1,4,0:3:0:0:
288,172,19756,6,0,L|278:219,2,40,4|8|4,0:3|0:2|0:3,0:0:0:0:
329,103,20278,2,0,L|426:92,1,80,4|4,0:3|0:3,0:0:0:0:
486,76,20800,1,4,0:3:0:0:
506,153,21061,1,4,0:3:0:0:
451,211,21321,2,0,L|440:300,1,80,8|4,0:2|0:3,0:0:0:0:
372,332,21843,5,2,0:1:0:0:
211,320,22365,2,0,L|203:363,2,40,4|8|4,0:3|0:2|0:3,0:0:0:0:
151,266,22887,1,4,0:3:0:0:
165,187,23148,1,8,0:2:0:0:
182,109,23408,1,4,0:3:0:0:
313,17,23930,5,4,0:1:0:0:
345,90,24191,2,0,L|331:143,2,40,4|8|4,0:3|0:2|0:3,0:0:0:0:
421,65,24713,2,0,B|463:84|463:84|483:122,1,80,8|4,0:0|0:1,0:0:0:0:
487,193,25235,2,0,B|484:227|484:227|465:281,1,80,8|8,0:2|0:0,0:0:0:0:
407,321,25756,6,0,L|399:361,2,40,8|8|6,0:2|0:2|0:1,0:0:0:0:
356,258,26278,1,12,0:2:0:0:
277,275,26539,1,6,0:1:0:0:
219,219,26800,6,0,L|203:179,2,40,8|8|12,0:2|0:2|0:2,0:0:0:0:
158,271,27321,1,8,0:0:0:0:
81,247,27582,1,4,0:3:0:0:
12,289,27843,6,0,L|6:338,2,40,12|8|6,0:2|0:2|0:1,0:0:0:0:
5,208,28365,1,8,0:2:0:0:
42,137,28626,6,0,L|9:92,2,40,12|8|8,0:2|0:2|0:0,0:0:0:0:
81,143,29017,1,4,0:3:0:0:
122,134,29148,2,0,L|207:113,1,80,2|4,0:1|0:3,0:0:0:0:
255,57,29669,2,0,L|342:44,1,80,8|4,0:2|0:3,0:0:0:0:
408,70,30191,6,0,B|427:96|427:96|414:155,1,80,6|4,0:1|0:3,0:0:0:0:
472,200,30713,2,0,B|382:190|382:190|356:198|356:198|294:193|294:193|275:182|275:182|153:169,1,320,4|4,0:3|0:3,0:0:0:0:
33,270,32278,5,4,0:3:0:0:
95,319,32539,2,0,B|128:325|128:325|218:290,1,120,8|8,0:0|0:0,0:0:0:0:
288,295,33191,1,4,0:3:0:0:
322,255,33321,2,0,L|441:281,1,120,8|8,0:0|0:0,0:0:0:0:
482,212,33974,1,4,0:3:0:0:
497,175,34104,1,8,0:0:0:0:
444,114,34365,5,2,0:1:0:0:
367,136,34625,1,4,0:3:0:0:
287,127,34886,1,4,0:3:0:0:
228,72,35147,1,4,0:1:0:0:
6,163,35930,5,2,0:1:0:0:
86,165,36191,1,4,0:0:0:0:
153,208,36451,1,4,0:0:0:0:
188,279,36712,2,0,B|200:307|200:307|310:322|310:322|332:296,1,160,6|0,1:0|1:0,0:0:0:0:
380,252,37495,5,2,0:1:0:0:
386,172,37756,1,4,0:0:0:0:
347,101,38017,1,4,0:0:0:0:
284,50,38278,1,4,0:1:0:0:
68,155,39060,5,2,0:1:0:0:
107,224,39321,1,4,0:0:0:0:
178,260,39582,1,4,0:0:0:0:
256,243,39843,2,0,B|274:224|274:224|343:214,2,80,8|4|8,0:2|0:3|0:2,0:0:0:0:
289,315,40625,5,4,0:1:0:0:
366,336,40886,1,4,0:0:0:0:
443,314,41147,1,4,0:0:0:0:
493,251,41408,2,0,L|482:128,1,120,4|2,1:1|0:1,0:0:0:0:
387,57,42191,5,6,0:1:0:0:
308,41,42451,1,4,0:3:0:0:
228,53,42712,1,4,0:3:0:0:
168,106,42973,2,0,L|163:148,2,40,8|8|8,0:2|0:2|0:2,0:0:0:0:
95,72,43495,5,8,0:2:0:0:
61,93,43625,1,8,0:2:0:0:
25,118,43756,1,6,0:1:0:0:
47,194,44017,1,4,0:0:0:0:
67,271,44278,1,4,0:0:0:0:
89,347,44538,2,0,B|97:363|97:363|169:373,1,80,4|8,0:1|0:2,0:0:0:0:
310,321,45321,5,8,0:2:0:0:
321,241,45582,1,4,0:3:0:0:
332,161,45843,1,8,0:0:0:0:
344,81,46104,1,4,0:1:0:0:
108,36,46886,6,0,B|135:50|135:50|159:181,1,160,6|4,0:1|0:3,0:0:0:0:
94,226,47669,2,0,P|144:211|247:349,1,240,2|4,0:1|0:3,0:0:0:0:
322,369,48712,1,8,0:2:0:0:
402,369,48973,1,8,0:2:0:0:
466,321,49234,1,8,0:2:0:0:
469,241,49495,1,8,0:2:0:0:
416,180,49756,1,8,0:2:0:0:
337,196,50017,6,0,L|214:175,1,120,4|4,0:1|0:3,0:0:0:0:
191,146,50538,1,8,0:2:0:0:
139,206,50799,2,0,P|99:271|55:258,1,120,4|4,0:3|0:3,0:0:0:0:
36,238,51321,1,8,0:2:0:0:
27,158,51582,6,0,B|73:50|73:50|121:34,1,160,8|8,0:2|0:0,0:0:0:0:
179,80,52364,2,0,P|235:117|327:95,1,160,8|8,0:2|0:2,0:0:0:0:
351,71,53017,1,8,0:2:0:0:
377,40,53147,6,0,B|430:60|430:60|451:171,1,160,4|8,0:1|0:2,0:0:0:0:
408,230,53930,1,4,0:3:0:0:
379,305,54191,2,0,L|295:286,1,80,8|4,0:2|0:3,0:0:0:0:
245,229,54712,2,0,P|183:232|132:325,1,160,4|4,0:3|0:3,0:0:0:0:
55,334,55495,2,0,L|36:251,1,80,4|4,0:3|0:3,0:0:0:0:
21,177,56017,1,4,0:3:0:0:
48,101,56278,6,0,B|82:73|82:73|210:63,1,160,8|4,0:2|0:3,0:0:0:0:
272,92,57060,2,0,B|305:109|305:109|396:94|396:94|425:56,1,160,8|4,0:2|0:3,0:0:0:0:
494,71,57843,6,0,L|505:17,2,40,8|8|8,0:2|0:2|0:2,0:0:0:0:
466,146,58364,1,4,0:3:0:0:
479,183,58495,1,4,0:3:0:0:
491,220,58625,2,0,L|247:276,1,240,8|8,0:2|0:0,0:0:0:0:
25,52,60450,5,4,0:1:0:0:
84,105,60711,1,4,0:3:0:0:
163,101,60972,1,4,0:3:0:0:
294,192,61493,5,4,0:3:0:0:
361,148,61754,1,8,0:2:0:0:
440,158,62015,1,4,0:3:0:0:
437,318,62537,6,0,L|429:367,2,40,4|8|4,0:3|0:2|0:3,0:0:0:0:
363,284,63059,2,0,B|336:275|336:275|269:285,1,80,4|4,0:3|0:3,0:0:0:0:
207,301,63580,1,4,0:3:0:0:
75,209,64102,1,4,0:3:0:0:
86,129,64363,1,4,0:3:0:0:
102,50,64624,1,2,0:1:0:0:
262,46,65146,5,4,0:3:0:0:
306,112,65406,1,4,0:3:0:0:
341,94,65537,1,8,0:2:0:0:
377,77,65667,2,0,B|396:90|396:90|416:156,1,80,4|8,0:3|0:2,0:0:0:0:
489,166,66189,1,4,0:3:0:0:
462,323,66711,5,4,0:1:0:0:
386,349,66972,1,4,0:3:0:0:
309,323,67233,1,4,0:3:0:0:
262,258,67493,1,8,0:0:0:0:
260,217,67624,1,8,0:0:0:0:
260,177,67754,2,0,B|229:154|229:154|93:138,1,160,4|8,0:1|0:0,0:0:0:0:
48,194,68537,6,0,L|2:185,2,40,8|8|6,0:2|0:2|0:1,0:0:0:0:
69,271,69059,1,12,0:2:0:0:
143,300,69320,1,6,0:1:0:0:
219,276,69580,6,0,L|234:226,2,40,8|8|12,0:2|0:2|0:2,0:0:0:0:
279,328,70102,1,8,0:0:0:0:
358,332,70363,1,4,0:3:0:0:
431,300,70624,6,0,L|468:337,2,40,12|8|6,0:2|0:2|0:1,0:0:0:0:
451,222,71146,1,8,0:2:0:0:
406,155,71406,6,0,L|432:108,2,40,12|8|8,0:2|0:2|0:0,0:0:0:0:
366,164,71798,1,4,0:3:0:0:
327,154,71928,2,0,L|232:141,1,80,0|4,0:1|0:3,0:0:0:0:
218,68,72450,2,0,L|130:57,1,80,8|4,0:2|0:3,0:0:0:0:
66,91,72972,6,0,B|56:113|56:113|66:176,1,80,6|4,0:1|0:3,0:0:0:0:
7,223,73493,2,0,B|65:198|65:198|257:257|257:257|317:226,1,320,4|4,0:3|0:3,0:0:0:0:
382,90,75059,5,4,0:3:0:0:
441,143,75320,1,8,0:0:0:0:
467,218,75580,1,4,0:3:0:0:
476,257,75711,2,0,L|438:374,1,120,8|8,0:0|0:0,0:0:0:0:
359,366,76363,1,4,0:0:0:0:
341,330,76493,2,0,B|325:307|325:307|224:296,1,120,8|8,0:0|0:0,0:0:0:0:
156,320,77146,5,2,0:1:0:0:
128,245,77406,1,4,0:3:0:0:
106,167,77667,1,4,0:3:0:0:
28,145,77928,1,4,0:1:0:0:
237,27,78711,5,2,0:1:0:0:
286,89,78972,1,4,0:0:0:0:
361,115,79232,1,4,0:0:0:0:
401,114,79363,1,4,0:0:0:0:
437,97,79493,2,0,L|459:12,2,80,6|0|0,1:0|1:0|1:0,0:0:0:0:
479,165,80276,5,6,0:1:0:0:
429,227,80537,1,4,0:0:0:0:
351,246,80798,1,4,0:0:0:0:
271,233,81059,1,6,0:1:0:0:
47,145,81841,5,6,0:1:0:0:
106,91,82102,1,4,0:0:0:0:
183,70,82363,1,4,0:0:0:0:
222,77,82493,1,4,0:0:0:0:
254,100,82624,2,0,B|281:123|281:123|410:105,1,160,8|4,0:2|0:3,0:0:0:0:
431,180,83406,5,6,0:1:0:0:
376,238,83667,1,4,0:0:0:0:
389,316,83928,1,4,0:0:0:0:
454,361,84189,2,0,B|423:344|423:344|281:342,1,160,6|0,0:1|1:0,0:0:0:0:
218,352,84972,5,6,0:1:0:0:
138,349,85232,1,8,0:2:0:0:
67,310,85493,1,4,0:3:0:0:
29,239,85754,2,0,L|-2:204,2,40,8|8|8,0:2|0:2|0:2,0:0:0:0:
105,213,86276,5,8,0:2:0:0:
121,176,86406,1,8,0:2:0:0:
138,140,86537,1,6,0:1:0:0:
198,88,86798,1,4,0:0:0:0:
277,77,87059,1,4,0:0:0:0:
349,110,87319,2,0,L|363:200,1,80,6|0,0:1|1:0,0:0:0:0:
396,209,87711,1,0,1:0:0:0:
337,313,88102,5,6,0:1:0:0:
259,294,88363,1,8,0:0:0:0:
182,269,88624,1,4,0:0:0:0:
144,256,88754,1,4,0:0:0:0:
105,245,88885,1,6,0:1:0:0:
105,245,89667,6,0,L|82:69,1,160,6|4,0:1|0:3,0:0:0:0:
6,106,90450,2,0,B|60:124|60:124|175:78|175:78|242:99,1,240,2|4,0:1|0:3,0:0:0:0:
304,127,91493,1,8,0:2:0:0:
355,187,91754,1,8,0:2:0:0:
351,266,92015,1,8,0:2:0:0:
292,320,92276,1,8,0:2:0:0:
212,327,92537,1,8,0:2:0:0:
143,285,92798,6,0,B|158:244|158:244|247:220,1,120,4|4,0:1|0:3,0:0:0:0:
262,199,93319,1,8,0:2:0:0:
337,226,93580,2,0,B|426:246|426:246|456:230,1,120,4|4,0:3|0:3,0:0:0:0:
478,203,94102,1,8,0:2:0:0:
438,133,94363,6,0,B|418:120|418:120|329:136|329:136|285:113,1,160,8|8,0:2|0:0,0:0:0:0:
209,129,95145,2,0,B|173:108|173:108|55:137,1,160,8|8,0:2|0:2,0:0:0:0:
43,173,95798,1,8,0:2:0:0:
32,211,95928,6,0,P|46:272|132:295,1,160,6|4,0:1|0:3,0:0:0:0:
162,268,96580,1,4,0:3:0:0:
190,239,96711,1,4,0:2:0:0:
267,218,96972,1,8,0:2:0:0:
344,234,97232,1,8,0:2:0:0:
393,297,97493,2,0,L|404:129,1,160,6|4,0:1|0:3,0:0:0:0:
327,112,98276,2,0,B|321:57|321:57|291:37,2,80,4|4|4,0:3|0:3|0:3,0:0:0:0:
251,140,99059,6,0,B|165:165|165:165|101:124,1,160,6|4,0:1|0:3,0:0:0:0:
64,195,99841,2,0,B|92:214|92:214|115:307,1,120,8|4,0:2|0:3,0:0:0:0:
120,336,100363,1,4,0:3:0:0:
199,332,100624,6,0,P|264:344|295:263,1,160,8|8,0:2|0:2,0:0:0:0:
274,236,101276,1,4,0:3:0:0:
252,202,101406,2,0,B|276:56|276:56|378:26,1,240,8|4,0:2|0:2,0:0:0:0:
455,162,102711,5,2,0:0:0:0:
403,222,102972,1,8,0:2:0:0:
384,299,103232,1,2,0:2:0:0:
393,338,103363,2,0,B|349:351|349:351|266:339,1,120,2|2,0:2|0:1,0:0:0:0:
56,274,104537,5,8,0:2:0:0:
108,213,104798,1,2,0:2:0:0:
110,133,105059,1,2,0:2:0:0:
64,67,105319,1,4,0:2:0:0:
223,81,105841,1,2,0:0:0:0:
284,29,106102,1,8,0:2:0:0:
361,169,106624,1,2,0:2:0:0:
438,189,106885,6,0,B|459:219|459:219|474:314,1,120,2|2,0:1|0:0,0:0:0:0:
405,346,107537,1,2,0:0:0:0:
370,326,107667,2,0,L|281:323,1,80,8|8,0:2|0:2,0:0:0:0:
222,279,108189,1,8,0:0:0:0:
141,279,108450,6,0,B|109:240|109:240|91:122,1,160,2|2,0:1|0:0,0:0:0:0:
39,71,109232,1,8,0:2:0:0:
190,20,109754,1,2,0:0:0:0:
207,97,110015,2,0,L|292:103,1,80,2|2,0:1|0:0,0:0:0:0:
446,115,110798,5,8,0:2:0:0:
437,153,110928,1,4,0:0:0:0:
338,220,111319,2,0,L|353:258,1,40,8|8,0:2|0:2,0:0:0:0:
375,290,111580,6,0,P|347:357|265:357,1,160,4|2,0:2|0:0,0:0:0:0:
196,322,112363,1,8,0:2:0:0:
47,261,112885,1,2,0:2:0:0:
62,182,113145,1,2,0:1:0:0:
187,69,113667,5,2,0:0:0:0:
255,111,113928,1,8,0:2:0:0:
335,113,114189,1,4,0:0:0:0:
411,88,114450,1,8,0:0:0:0:
459,24,114711,1,2,0:1:0:0:
492,180,115232,5,2,0:0:0:0:
416,206,115493,1,8,0:2:0:0:
345,244,115754,1,2,0:0:0:0:
337,283,115885,1,2,0:0:0:0:
236,348,116276,1,4,0:2:0:0:
98,265,116798,6,0,L|47:261,2,40,2|2|8,0:0|0:0|0:2,0:0:0:0:
154,208,117319,1,4,0:0:0:0:
194,210,117450,1,8,0:2:0:0:
268,116,117841,1,2,0:1:0:0:
431,89,118363,5,2,0:0:0:0:
404,164,118624,1,8,0:2:0:0:
253,218,119145,1,2,0:0:0:0:
274,294,119406,1,4,0:2:0:0:
201,327,119667,5,8,0:2:0:0:
121,336,119928,1,4,0:3:0:0:
45,308,120189,1,8,0:2:0:0:
11,235,120450,1,4,0:0:0:0:
13,155,120711,1,8,0:2:0:0:
59,89,120972,6,0,L|142:79,1,80,2|4,0:1|0:0,0:0:0:0:
250,193,121754,1,8,0:2:0:0:
304,134,122015,2,0,L|388:123,1,80,4|4,0:0|0:0,0:0:0:0:
443,176,122537,6,0,P|467:222|420:272,1,120,4|4,0:2|0:0,0:0:0:0:
338,339,123319,2,0,B|305:311|305:311|226:310,1,120,8|8,0:2|0:2,0:0:0:0:
112,341,124102,2,0,L|92:255,1,80,2|4,0:1|0:0,0:0:0:0:
20,120,124885,1,8,0:2:0:0:
94,91,125145,1,4,0:0:0:0:
104,52,125276,1,8,0:2:0:0:
214,5,125667,5,12,0:2:0:0:
274,57,125928,1,4,0:0:0:0:
353,63,126189,1,8,0:0:0:0:
392,55,126319,1,8,0:0:0:0:
425,33,126450,2,0,L|411:203,1,160,2|4,0:1|0:0,0:0:0:0:
453,261,127232,6,0,P|362:263|323:319,1,160,2|0,0:1|0:2,0:0:0:0:
260,362,128015,1,8,0:2:0:0:
128,270,128537,1,4,0:0:0:0:
189,218,128798,2,0,L|204:123,1,80,2|4,0:1|0:0,0:0:0:0:
253,78,129319,1,2,0:1:0:0:
191,26,129580,2,0,P|149:15|41:65,1,160,8|2,0:2|0:1,0:0:0:0:
15,133,130363,5,4,0:2:0:0:
104,265,130885,1,4,0:0:0:0:
240,146,131406,1,2,0:1:0:0:
391,276,131928,1,2,0:1:0:0:
476,83,132450,1,4,0:2:0:0:
417,24,132711,2,0,B|383:49|383:49|370:182,1,160,8|8,0:2|0:2,0:0:0:0:
307,214,133493,6,0,L|312:267,2,40,2|6|6,0:1|0:0|0:0,0:0:0:0:
230,190,134015,1,2,0:1:0:0:
167,240,134276,2,0,L|184:285,2,40,8|6|6,0:2|0:0|0:0,0:0:0:0:
91,211,134798,1,2,0:1:0:0:
17,243,135059,6,0,B|20:271|20:271|46:318,2,80,4|2|2,0:2|0:3|0:1,0:0:0:0:
6,163,135841,1,8,0:2:0:0:
130,62,136363,1,8,0:2:0:0:
170,69,136493,1,8,0:2:0:0:
208,80,136624,6,0,L|216:133,2,40,2|6|6,0:1|0:0|0:0,0:0:0:0:
279,44,137145,1,6,0:0:0:0:
348,83,137406,2,0,L|338:136,2,40,2|6|6,0:1|0:0|0:0,0:0:0:0:
422,53,137928,1,2,0:2:0:0:
486,99,138189,6,0,L|471:262,1,160,8|4,0:2|0:3,0:0:0:0:
391,267,138972,2,0,L|406:355,1,80,8|8,0:0|0:0,0:0:0:0:
326,364,139493,2,0,L|309:321,1,40,4|4,0:0|0:0,0:0:0:0:
292,291,139754,5,2,0:1:0:0:
217,261,140015,1,4,0:2:0:0:
137,258,140276,1,4,0:0:0:0:
97,264,140406,1,4,0:0:0:0:
60,280,140537,1,6,0:1:0:0:
82,41,141319,5,6,0:1:0:0:
142,92,141580,1,4,0:2:0:0:
221,101,141841,1,4,0:0:0:0:
260,96,141972,1,4,0:0:0:0:
295,77,142102,2,0,B|326:51|326:51|454:38,1,160,4|0,1:0|1:0,0:0:0:0:
497,99,142885,5,6,0:1:0:0:
481,177,143145,1,4,0:2:0:0:
469,256,143406,1,4,0:0:0:0:
464,295,143537,1,4,0:0:0:0:
459,334,143667,1,6,0:1:0:0:
219,343,144450,5,6,0:1:0:0:
189,268,144711,1,4,0:2:0:0:
134,209,144972,1,4,0:3:0:0:
100,187,145102,1,4,0:3:0:0:
61,177,145232,1,8,0:2:0:0:
18,109,145493,2,0,B|41:74|41:74|90:53,1,80,8|8,0:2|0:2,0:0:0:0:
152,35,146015,5,6,0:1:0:0:
218,79,146276,1,4,0:0:0:0:
297,76,146537,1,8,0:0:0:0:
336,68,146667,1,8,0:0:0:0:
370,43,146798,2,0,B|401:59|401:59|435:197,1,160,8|8,0:2|0:2,0:0:0:0:
378,241,147580,5,6,0:1:0:0:
306,276,147841,1,4,0:0:0:0:
225,278,148102,1,8,0:0:0:0:
187,264,148232,1,8,0:0:0:0:
156,238,148363,2,0,B|119:228|119:228|65:248,2,80,4|0|8,1:0|1:0|0:0,0:0:0:0:
216,185,149145,5,6,1:0:0:0:
295,177,149406,1,4,0:0:0:0:
366,213,149667,1,8,0:0:0:0:
392,243,149798,1,8,0:0:0:0:
403,281,149928,2,0,B|385:305|385:305|252:318,1,160,6|12,0:1|0:2,0:0:0:0:
175,326,150711,5,6,0:1:0:0:
150,249,150972,1,8,0:2:0:0:
93,192,151232,1,8,0:0:0:0:
70,225,151363,1,8,0:0:0:0:
67,264,151493,1,6,0:1:0:0:
256,192,151754,12,0,153059,0:0:0:0:
116,112,153841,6,0,B|146:134|146:134|179:260,1,160,6|4,0:1|0:3,0:0:0:0:
107,293,154624,2,0,P|168:270|294:375,1,240,2|4,0:1|0:3,0:0:0:0:
372,356,155667,1,8,0:2:0:0:
451,343,155928,1,8,0:2:0:0:
483,269,156189,1,8,0:2:0:0:
466,190,156450,1,8,0:2:0:0:
398,147,156711,1,8,0:2:0:0:
319,164,156972,6,0,B|286:153|286:153|248:17,1,160,4|8,0:1|0:2,0:0:0:0:
174,49,157754,2,0,P|144:88|41:77,1,160,4|8,0:3|0:2,0:0:0:0:
10,152,158537,1,8,0:2:0:0:
65,209,158798,1,8,0:2:0:0:
60,248,158928,2,0,L|49:332,1,80,8|0,0:2|0:0,0:0:0:0:
73,359,159319,2,0,P|108:324|221:346,1,160,8|8,0:2|0:2,0:0:0:0:
243,358,159972,1,8,0:2:0:0:
280,345,160102,6,0,L|308:174,1,160,6|8,0:1|0:2,0:0:0:0:
379,154,160885,1,4,0:3:0:0:
448,192,161145,2,0,B|477:179|477:179|498:116,1,80,8|4,0:2|0:3,0:0:0:0:
440,71,161667,2,0,P|399:20|246:62,1,240,4|4,0:3|0:3,0:0:0:0:
190,112,162711,1,4,0:3:0:0:
111,125,162972,1,4,0:3:0:0:
31,115,163232,6,0,B|68:146|68:146|80:235,1,120,8|8,0:2|0:2,0:0:0:0:
55,250,163754,1,4,0:3:0:0:
116,301,164015,2,0,P|179:288|218:332,1,120,8|4,0:2|0:3,0:0:0:0:
222,363,164537,1,8,0:2:0:0:
297,335,164798,6,0,B|316:219|316:219|350:182,1,160,8|8,0:2|0:2,0:0:0:0:
378,166,165450,1,4,0:3:0:0:
413,148,165580,1,8,0:2:0:0:
398,69,165841,1,4,0:3:0:0:
329,28,166102,1,8,0:2:0:0:
249,40,166363,6,0,P|217:81|109:79,1,160,6|4,0:1|0:3,0:0:0:0:
43,118,167145,2,0,B|72:166|72:166|106:358,1,240,2|4,0:1|0:3,0:0:0:0:
181,366,168189,1,8,0:2:0:0:
260,361,168450,1,8,0:2:0:0:
322,310,168711,1,8,0:2:0:0:
339,231,168972,1,8,0:2:0:0:
304,159,169232,1,8,0:2:0:0:
235,117,169493,6,0,B|248:76|248:76|371:47,1,160,4|8,0:1|0:2,0:0:0:0:
441,62,170276,2,0,L|457:150,1,80,4|8,0:3|0:3,0:0:0:0:
425,167,170667,1,4,0:3:0:0:
332,243,171059,2,0,L|323:323,1,80,4|8,0:3|0:3,0:0:0:0:
297,353,171450,1,4,0:3:0:0:
204,277,171841,2,0,L|120:259,1,80,8|4,0:2|0:3,0:0:0:0:
49,233,172363,1,8,0:2:0:0:
37,194,172493,1,8,0:2:0:0:
26,155,172624,6,0,L|114:135,1,80,6|4,0:1|0:3,0:0:0:0:
160,80,173145,2,0,L|248:62,1,80,8|4,0:2|0:3,0:0:0:0:
301,113,173667,2,0,L|396:94,1,80,8|4,0:2|0:3,0:0:0:0:
449,57,174189,2,0,P|419:91|503:239,1,240,6|4,0:1|0:3,0:0:0:0:
475,316,175232,1,4,0:3:0:0:
401,347,175493,1,4,0:3:0:0:
360,348,175624,1,4,0:3:0:0:
320,344,175754,6,0,B|279:306|279:306|163:295,1,160,6|4,0:1|0:3,0:0:0:0:
113,245,176537,2,0,L|89:163,1,80,8|4,0:2|0:3,0:0:0:0:
66,91,177059,1,8,0:2:0:0:
117,30,177319,5,8,0:2:0:0:
151,50,177450,1,8,0:2:0:0:
185,70,177580,2,0,L|346:58,1,160,4|8,0:3|0:2,0:0:0:0:
369,89,178232,1,8,0:2:0:0:
392,121,178363,2,0,L|482:110,1,80,8|8,0:2|0:2,0:0:0:0:
503,185,178885,1,2,0:2:0:0:
