osu file format v14

[General]
AudioFilename: audio.mp3
AudioLeadIn: 0
PreviewTime: 89592
Countdown: 0
SampleSet: Drum
StackLeniency: 0.7
Mode: 0
LetterboxInBreaks: 0
WidescreenStoryboard: 1

[Editor]
DistanceSpacing: 0.8
BeatDivisor: 4
GridSize: 32
TimelineZoom: 2.1

[Metadata]
Title:The Skin Thief
TitleUnicode:The Skin Thief
Artist:Nekrogoblikon
ArtistUnicode:Nekrogoblikon
Creator:LMT
Version:Insane
Source:
Tags:goblin melodic death metal melodeath welcome to bonkers featured artist mappers guild hectic h4d0uk3n1 itswinter SILENCE PLAYER english
BeatmapID:2223742
BeatmapSetID:1061535

[Difficulty]
HPDrainRate:5
CircleSize:3
OverallDifficulty:8
ApproachRate:9
SliderMultiplier:1.4
SliderTickRate:1

[Events]
//Background and Video events
0,0,"skinthief_bg.jpg",0,0
//Break Periods
//Storyboard Layer 0 (Background)
//Storyboard Layer 1 (Fail)
//Storyboard Layer 2 (Pass)
//Storyboard Layer 3 (Foreground)
//Storyboard Layer 4 (Overlay)
//Storyboard Sound Samples

[TimingPoints]
204,291.26213592233,4,3,1,40,1,0
1672,291.26213592233,4,3,1,40,1,0
2545,291.26213592233,4,3,1,40,1,0
5748,283.018867924528,4,3,1,40,1,0
7163,270.00027000027,4,3,1,40,1,0
9322,260.869565217391,4,3,1,40,1,0
9322,-50,4,3,1,40,0,0
9843,-100,4,3,1,40,0,0
10365,-50,4,3,1,40,0,0
10887,-100,4,3,1,40,0,0
11408,-50,4,3,1,40,0,0
11800,-100,4,3,1,40,0,0
12452,-50,4,3,1,40,0,0
12974,-100,4,3,1,40,0,0
13495,-1000,4,3,1,40,0,0
15582,-100,4,3,1,40,0,0
16626,-100,4,3,1,40,0,0
17669,-100,4,3,1,50,0,0
26017,-66.6666666666667,4,3,1,60,0,0
34365,260.869565217391,3,3,1,50,1,0
35147,-1000,3,3,1,50,0,0
35930,-100,3,3,1,50,0,0
38278,-1000,3,3,1,50,0,0
39060,-100,3,3,1,50,0,0
43234,-66.6666666666667,3,3,1,50,0,0
43495,-50,3,3,1,50,0,0
43756,-100,3,3,1,50,0,0
46886,-100,3,3,1,65,0,0
59407,260.869565217391,4,3,1,50,1,0
68798,-66.6666666666667,4,3,1,60,0,0
77146,260.869565217391,3,3,1,50,1,0
77928,-1000,3,3,1,50,0,0
78711,-100,3,3,1,50,0,0
86015,-66.6666666666667,3,3,1,50,0,0
86276,-50,3,3,1,50,0,0
86537,-100,3,3,1,50,0,0
88885,-1000,3,3,1,50,0,0
88950,-100,3,3,1,5,0,0
89015,-100,3,3,1,50,0,0
89667,-100,3,3,1,65,0,0
102189,-100,3,3,1,50,0,0
114711,-100,3,3,1,55,0,0
127232,-66.6666666666667,3,3,1,50,0,0
140537,-1000,3,3,1,50,0,0
141319,-100,3,3,1,50,0,0
143667,-1000,3,3,1,50,0,0
144450,-100,3,3,1,50,0,0
146015,-100,3,3,1,60,0,0
153580,-66.6666666666667,3,3,1,5,0,0
153841,-100,3,3,1,65,0,0

[Colours]
Combo1 : 162,208,208
Combo2 : 194,194,133
Combo3 : 204,204,204
Combo4 : 166,166,255

[HitObjects]
305,125,9322,6,0,B|288:119|288:33|377:11|433:110|419:183|364:240,1,280,4|0,0:1|0:0,0:0:0:0:
315,279,9843,1,0,0:0:0:0:
239,247,10104,1,0,0:0:0:0:
160,262,10235,1,0,0:0:0:0:
112,165,10365,6,0,B|64:197|6:142|41:48|147:46|225:126,1,280,4|0,0:1|0:0,0:0:0:0:
255,35,10887,1,0,0:0:0:0:
303,101,11148,1,0,0:0:0:0:
379,129,11278,1,0,0:0:0:0:
353,26,11408,6,0,B|363:37|363:37|361:115|361:115|353:126|353:126|348:187|348:187|355:198|355:198|348:323,1,280,4|0,0:1|0:0,0:0:0:0:
269,303,11930,1,0,0:0:0:0:
191,328,12061,1,0,0:0:0:0:
108,321,12191,1,0,0:0:0:0:
49,267,12321,1,0,0:0:0:0:
58,186,12452,6,0,B|44:185|44:185|37:167|37:167|120:166|120:166|129:175|129:175|176:174|176:174|188:162|188:162|281:159,1,280,4|0,0:1|0:0,0:0:0:0:
354,141,12974,1,0,0:0:0:0:
350,57,13235,1,0,0:0:0:0:
278,15,13366,1,0,0:0:0:0:
188,36,13495,6,0,B|162:30|162:30|131:36,2,56,4|2|4,0:1|0:1|0:3,0:0:0:0:
259,95,15713,5,0,1:2:0:0:
259,95,15778,1,0,1:2:0:0:
259,95,15843,1,0,1:2:0:0:
214,162,15974,2,0,B|182:167|182:167|135:145,1,70,0|4,1:0|0:3,0:0:0:0:
323,249,16235,5,0,1:0:0:0:
323,249,16300,1,0,1:0:0:0:
323,249,16365,2,0,B|353:235|353:235|390:248,1,70,0|0,1:0|1:0,0:0:0:0:
244,310,16626,6,0,L|240:361,2,35,4|0|8,0:3|0:0|0:0,0:0:0:0:
176,266,16887,2,0,B|128:240|128:240|35:257,1,140,4|8,0:3|0:0,0:0:0:0:
305,131,17408,5,0,1:0:0:0:
305,131,17474,1,0,1:0:0:0:
305,131,17539,1,0,1:0:0:0:
251,58,17669,2,0,B|241:48|241:48|172:40,1,70,4|4,0:1|0:3,0:0:0:0:
441,86,17930,2,0,B|464:49|464:49|495:40,1,70,4|8,0:3|0:2,0:0:0:0:
384,265,18191,2,0,B|394:280|394:280|398:321|398:321|391:345,1,70,4|4,0:3|0:3,0:0:0:0:
225,334,18452,5,4,0:3:0:0:
145,316,18582,1,8,0:2:0:0:
67,296,18713,2,0,B|16:282|16:282|6:250,1,70,4|4,0:3|0:3,0:0:0:0:
200,182,18974,2,0,L|127:158,1,70,8|4,0:2|0:3,0:0:0:0:
335,82,19235,2,0,B|329:65|329:65|278:51,1,70,4|4,0:3|0:3,0:0:0:0:
455,231,19495,5,4,0:3:0:0:
455,231,19561,1,4,0:3:0:0:
455,231,19626,1,8,0:2:0:0:
370,244,19756,2,0,B|364:260|364:260|364:321,1,70,4|8,0:3|0:2,0:0:0:0:
449,105,20017,2,0,B|451:53|451:53|464:39,1,70,4|8,0:3|0:2,0:0:0:0:
379,160,20278,5,4,0:3:0:0:
298,149,20408,1,8,0:2:0:0:
215,139,20539,1,4,0:3:0:0:
134,127,20669,1,8,0:2:0:0:
74,186,20800,6,0,B|16:175|16:175|0:155,1,70,4|4,0:3|0:3,0:0:0:0:
250,258,21061,2,0,L|239:331,1,70,8|4,0:2|0:3,0:0:0:0:
438,241,21321,2,0,B|496:252|496:252|512:272,1,70,8|4,0:2|0:3,0:0:0:0:
385,178,21582,5,4,0:3:0:0:
402,99,21713,1,8,0:2:0:0:
418,18,21843,2,0,B|439:13|439:13|499:25,1,70,2|8,0:1|0:2,0:0:0:0:
199,89,22104,1,4,0:3:0:0:
199,89,22169,1,4,0:3:0:0:
199,89,22235,1,8,0:2:0:0:
286,49,22365,2,0,B|276:62|276:62|282:107|282:107|268:135,1,70,4|8,0:3|0:2,0:0:0:0:
22,37,22626,5,4,0:3:0:0:
22,37,22691,1,4,0:3:0:0:
22,37,22756,1,8,0:2:0:0:
108,15,22887,2,0,L|94:113,1,70,4|4,0:3|0:3,0:0:0:0:
40,166,23148,2,0,B|26:173|26:173|15:248,1,70,8|4,0:2|0:3,0:0:0:0:
96,287,23408,2,0,B|107:302|107:302|104:344|104:344|86:361,1,70,4|8,0:3|0:2,0:0:0:0:
310,328,23669,5,4,0:3:0:0:
310,328,23735,1,4,0:3:0:0:
310,328,23800,1,8,0:2:0:0:
225,293,23930,2,0,L|219:203,1,70,4|8,0:1|0:2,0:0:0:0:
281,164,24191,1,4,0:3:0:0:
356,193,24321,1,8,0:2:0:0:
418,139,24452,1,4,0:3:0:0:
391,61,24582,1,8,0:2:0:0:
313,29,24713,2,0,L|295:77,2,35,8|8|8,0:0|0:0|0:0,0:0:0:0:
198,77,24974,6,0,L|30:58,1,140,4|8,0:1|0:2,0:0:0:0:
58,61,25300,1,8,0:2:0:0:
58,61,25365,1,8,0:2:0:0:
89,146,25495,2,0,B|149:153|149:153|167:175,1,70,8|8,0:0|0:0,0:0:0:0:
260,242,25756,5,8,0:2:0:0:
352,289,25887,1,8,0:2:0:0:
353,180,26017,2,0,B|352:140|352:140|365:109|365:109|354:83|357:46|380:2,1,157.500006008148,6|0,0:1|0:0,0:0:0:0:
375,28,26278,2,0,B|363:46|360:83|371:109|371:109|358:140|358:140|359:180,1,157.500006008148,12|0,0:2|0:0,0:0:0:0:
366,182,26539,1,6,0:1:0:0:
140,113,26800,5,8,0:2:0:0:
194,177,26930,1,8,0:2:0:0:
219,100,27061,2,0,B|223:63|223:63|234:49,2,52.5000020027161,12|8|8,0:2|0:2|0:2,0:0:0:0:
107,196,27321,2,0,B|89:196|89:196|40:229,2,52.5000020027161,8|8|8,0:0|0:0|0:0,0:0:0:0:
255,230,27582,2,0,B|266:246|266:246|272:309,2,52.5000020027161,4|4|4,0:3|0:3|0:3,0:0:0:0:
406,174,27843,5,12,0:2:0:0:
378,302,27974,1,8,0:2:0:0:
478,218,28104,1,6,0:1:0:0:
347,229,28235,1,8,0:2:0:0:
459,298,28365,1,8,0:2:0:0:
459,298,28626,5,12,0:2:0:0:
378,302,28757,1,8,0:2:0:0:
347,229,28887,1,8,0:0:0:0:
406,174,29018,1,4,0:3:0:0:
478,218,29148,1,6,0:1:0:0:
478,218,29408,1,8,0:2:0:0:
351,90,29669,5,8,0:2:0:0:
348,83,29735,1,8,0:2:0:0:
345,76,29800,1,8,0:2:0:0:
270,51,29930,1,4,0:3:0:0:
191,60,30061,1,4,0:3:0:0:
137,119,30191,6,0,B|152:150|152:150|139:235|139:235|84:270,1,157.500006008148,6|0,0:1|0:0,0:0:0:0:
98,261,30452,2,0,L|85:329,3,52.5000020027161,4|8|4|8,0:3|0:2|0:3|0:2,0:0:0:0:
172,320,30713,2,0,L|164:384,3,52.5000020027161,4|8|4|8,0:3|0:2|0:3|0:2,0:0:0:0:
270,253,30974,6,0,L|260:321,1,52.5000020027161,4|8,0:3|0:2,0:0:0:0:
347,216,31104,2,0,B|358:233|358:233|374:293,1,52.5000020027161,4|8,0:3|0:2,0:0:0:0:
396,146,31235,2,0,B|432:171|432:171|460:172,3,52.5000020027161,4|8|4|8,0:3|0:2|0:3|0:2,0:0:0:0:
374,68,31495,2,0,B|391:60|391:60|452:53,3,52.5000020027161,4|8|4|8,0:3|0:2|0:3|0:2,0:0:0:0:
289,49,31756,2,0,B|293:35|293:35|319:-1,7,52.5000020027161,4|8|4|8|4|8|4|8,0:3|0:2|0:3|0:2|0:3|0:2|0:3|0:2,0:0:0:0:
207,66,32278,5,4,0:3:0:0:
132,94,32408,1,4,0:3:0:0:
132,94,32474,1,4,0:3:0:0:
132,94,32539,2,0,B|103:21|103:21|67:2,1,105.000004005432,8|4,0:0|0:3,0:0:0:0:
163,240,32800,1,4,0:3:0:0:
163,240,32865,1,4,0:3:0:0:
163,240,32930,2,0,B|186:161|186:161|223:146,1,105.000004005432,8|4,0:0|0:3,0:0:0:0:
97,304,33191,1,4,0:3:0:0:
97,304,33256,1,4,0:3:0:0:
97,304,33321,2,0,B|35:280|35:280|-16:284,1,105.000004005432,8|4,0:0|0:0,0:0:0:0:
200,327,33582,5,4,0:0:0:0:
200,327,33648,1,4,0:0:0:0:
200,327,33713,1,8,0:0:0:0:
272,282,33843,2,0,L|281:203,2,52.5000020027161,8|8|8,0:2|0:2|0:2,0:0:0:0:
340,327,34104,1,8,0:0:0:0:
360,331,34169,1,8,0:0:0:0:
379,327,34235,1,4,0:3:0:0:
392,319,34300,1,4,0:3:0:0:
401,304,34365,5,2,0:1:0:0:
351,149,34625,1,4,0:3:0:0:
499,61,34886,1,4,0:3:0:0:
449,145,35017,1,4,0:3:0:0:
394,61,35147,2,0,B|388:41|388:41|395:26,1,35,4|0,0:1|0:0,0:0:0:0:
308,3,35930,5,2,0:1:0:0:
236,154,36191,1,4,0:0:0:0:
69,98,36451,1,4,0:0:0:0:
166,60,36582,1,4,0:0:0:0:
143,171,36712,6,0,L|140:226,3,35,0|0|0|0,1:0|1:0|1:0|1:0,0:0:0:0:
54,192,36973,1,0,1:0:0:0:
55,209,37038,1,0,1:0:0:0:
56,226,37103,1,0,1:0:0:0:
57,244,37168,1,0,1:0:0:0:
60,263,37234,2,0,L|62:317,3,35,0|0|0|0,1:0|1:0|1:0|1:0,0:0:0:0:
139,321,37495,5,2,0:1:0:0:
292,232,37756,1,4,0:0:0:0:
433,375,38017,1,4,0:0:0:0:
342,344,38147,1,4,0:0:0:0:
477,285,38278,2,0,B|467:270|467:270|449:270,1,35,4|2,0:1|0:2,0:0:0:0:
394,212,39060,5,2,0:1:0:0:
199,199,39321,1,4,0:0:0:0:
318,6,39582,1,4,0:0:0:0:
318,114,39712,1,4,0:3:0:0:
227,67,39843,5,8,0:2:0:0:
222,60,39908,1,8,0:2:0:0:
219,54,39973,1,8,0:2:0:0:
137,38,40104,2,0,B|129:21|129:21|109:3,2,35,4|4|4,0:3|0:3|0:3,0:0:0:0:
107,112,40364,1,8,0:2:0:0:
103,132,40429,1,8,0:2:0:0:
91,150,40494,1,8,0:2:0:0:
74,161,40559,1,8,0:2:0:0:
54,166,40624,5,4,0:1:0:0:
205,223,40886,1,4,0:0:0:0:
355,277,41147,1,4,0:0:0:0:
428,307,41278,1,4,0:0:0:0:
499,340,41408,6,0,L|487:377,7,35,4|4|4|4|4|4|2|0,1:1|0:3|0:3|0:3|0:3|0:3|0:1|0:0,0:0:0:0:
509,266,41930,1,4,0:3:0:0:
511,239,41995,1,4,0:3:0:0:
501,215,42060,1,4,0:3:0:0:
482,198,42125,1,4,0:3:0:0:
455,188,42191,6,0,B|402:198|402:198|376:182,1,70,6|0,0:1|0:0,0:0:0:0:
245,111,42451,2,0,B|240:58|240:58|259:33,1,70,4|0,0:3|0:0,0:0:0:0:
100,177,42712,2,0,B|86:167|86:167|19:159,1,70,4|4,0:3|0:0,0:0:0:0:
16,287,42973,6,0,L|19:340,1,35,8|4,0:2|0:0,0:0:0:0:
96,283,43104,2,0,L|100:337,1,35,8|4,0:2|0:0,0:0:0:0:
185,216,43234,6,0,B|176:237|176:237|191:289,1,52.5000020027161,8|4,0:2|0:0,0:0:0:0:
266,212,43364,2,0,B|274:239|274:239|258:283,1,52.5000020027161,8|4,0:2|0:0,0:0:0:0:
351,279,43495,6,0,B|344:299|344:299|356:371,1,70,8|4,0:2|0:0,0:0:0:0:
434,277,43625,2,0,B|445:295|445:295|436:368,1,70,8|4,0:2|0:0,0:0:0:0:
504,216,43756,5,6,0:1:0:0:
482,85,44017,1,4,0:0:0:0:
322,35,44278,1,4,0:0:0:0:
217,23,44408,1,4,0:0:0:0:
248,117,44538,6,0,L|253:171,3,35,4|4|4|0,0:1|0:3|0:3|0:1,0:0:0:0:
165,155,44799,1,8,0:2:0:0:
148,175,44864,1,8,0:2:0:0:
124,184,44929,1,8,0:2:0:0:
98,180,44994,1,8,0:2:0:0:
77,165,45060,2,0,L|84:225,3,35,8|8|8|8,0:0|0:0|0:0|0:0,0:0:0:0:
43,271,45321,5,8,0:2:0:0:
45,280,45386,1,8,0:2:0:0:
48,291,45451,1,8,0:2:0:0:
126,311,45582,2,0,L|121:367,2,35,4|4|4,0:3|0:3|0:3,0:0:0:0:
212,274,45843,5,8,0:0:0:0:
297,193,45973,1,8,0:0:0:0:
416,218,46104,1,4,0:1:0:0:
363,303,46886,5,6,0:1:0:0:
375,314,46951,1,8,0:2:0:0:
389,321,47017,1,4,0:3:0:0:
402,322,47082,1,8,0:2:0:0:
416,319,47147,2,0,B|403:344|403:344|395:379,3,35,4|8|4|8,0:0|0:2|0:0|0:2,0:0:0:0:
492,345,47408,2,0,L|471:396,3,35,4|8|4|8,0:3|0:2|0:3|0:2,0:0:0:0:
490,236,47669,5,2,0:1:0:0:
464,239,47734,1,8,0:2:0:0:
440,230,47799,1,4,0:3:0:0:
424,210,47864,1,8,0:2:0:0:
420,182,47930,2,0,L|437:131,7,35,4|8|4|8|4|8|4|8,0:0|0:2|0:0|0:2|0:0|0:2|0:0|0:2,0:0:0:0:
342,161,48451,2,0,L|358:109,3,35,4|8|4|8,0:3|0:2|0:3|0:2,0:0:0:0:
252,185,48712,5,8,0:2:0:0:
252,185,48778,1,4,0:3:0:0:
252,185,48843,2,0,L|265:233,1,35,4|4,0:3|0:3,0:0:0:0:
179,239,48973,2,0,L|192:286,3,35,8|12|4|12,0:2|0:3|0:3|0:3,0:0:0:0:
119,175,49234,5,8,0:2:0:0:
119,175,49299,1,12,0:3:0:0:
119,175,49364,2,0,L|97:130,1,35,4|12,0:3|0:3,0:0:0:0:
23,164,49495,2,0,L|10:117,3,35,8|4|4|12,0:2|0:3|0:3|0:3,0:0:0:0:
67,66,49756,2,0,L|53:24,3,35,8|8|8|8,0:2|0:2|0:2|0:2,0:0:0:0:
153,29,50017,5,4,0:1:0:0:
166,44,50082,1,4,0:3:0:0:
183,53,50147,1,4,0:3:0:0:
203,52,50212,1,4,0:3:0:0:
219,45,50278,2,0,L|214:104,3,35,4|4|4|4,0:3|0:3|0:3|0:3,0:0:0:0:
300,47,50538,2,0,L|296:105,3,35,8|8|8|8,0:2|0:2|0:2|0:2,0:0:0:0:
381,129,50799,5,4,0:3:0:0:
377,154,50864,1,4,0:3:0:0:
390,177,50929,1,4,0:3:0:0:
413,187,50994,1,4,0:3:0:0:
438,178,51060,2,0,B|431:190|431:190|424:242,3,35,4|4|4|4,0:3|0:3|0:3|0:3,0:0:0:0:
373,287,51321,2,0,B|368:268|368:268|353:249,3,35,8|8|4|4,0:2|0:2|0:3|0:3,0:0:0:0:
263,276,51582,6,0,B|254:251|254:251|221:239,1,35,8|8,0:2|0:2,0:0:0:0:
183,305,51712,2,0,B|192:328|192:328|222:347,1,35,8|8,0:2|0:2,0:0:0:0:
97,329,51843,2,0,B|106:344|106:344|105:394,3,35,8|8|8|8,0:2|0:2|0:2|0:2,0:0:0:0:
52,257,52104,2,0,B|46:234|46:234|26:227,3,35,8|8|4|4,0:0|0:0|0:3|0:3,0:0:0:0:
60,136,52364,5,8,0:2:0:0:
74,141,52430,1,8,0:2:0:0:
89,141,52495,1,8,0:2:0:0:
104,139,52560,1,8,0:2:0:0:
116,131,52625,2,0,L|112:181,3,35,4|4|4|4,0:3|0:3|0:3|0:3,0:0:0:0:
178,53,52886,1,8,0:2:0:0:
281,57,53017,1,8,0:2:0:0:
336,148,53147,6,0,L|327:211,5,35,4|4|4|4|4|4,0:1|0:3|0:3|0:3|0:3|0:3,0:0:0:0:
254,207,53538,1,4,0:3:0:0:
237,208,53603,1,4,0:3:0:0:
219,202,53669,2,0,L|227:259,5,35,8|8|8|8|4|4,0:2|0:2|0:2|0:2|0:3|0:3,0:0:0:0:
293,289,54060,1,4,0:3:0:0:
309,294,54125,1,4,0:3:0:0:
325,304,54191,2,0,L|336:247,5,35,8|8|8|8|4|4,0:2|0:2|0:2|0:2|0:3|0:3,0:0:0:0:
210,318,54582,1,4,0:3:0:0:
192,326,54647,1,4,0:3:0:0:
179,340,54712,6,0,L|168:401,15,35,4|8|4|8|4|8|4|8|4|8|4|8|4|8|4|8,0:3|0:2|0:3|0:2|0:3|0:2|0:3|0:2|0:3|0:2|0:3|0:2|0:3|0:2|0:3|0:2,0:0:0:0:
101,309,55756,2,0,L|95:249,3,35,4|8|4|8,0:3|0:2|0:3|0:2,0:0:0:0:
155,203,56017,2,0,L|146:145,3,35,4|8|4|0,0:3|0:2|0:3|0:0,0:0:0:0:
189,88,56278,5,8,0:2:0:0:
213,100,56343,1,8,0:2:0:0:
243,94,56408,1,8,0:2:0:0:
264,74,56473,1,8,0:2:0:0:
271,48,56538,2,0,B|288:35|288:35|323:32,7,35,8|8|8|8|4|4|4|4,0:2|0:2|0:2|0:2|0:3|0:3|0:3|0:3,0:0:0:0:
366,101,57060,5,8,0:2:0:0:
389,85,57125,1,8,0:2:0:0:
411,78,57191,1,8,0:2:0:0:
435,79,57256,1,8,0:2:0:0:
454,86,57321,2,0,B|465:103|465:103|462:144,3,35,4|4|4|4,0:3|0:3|0:3|0:3,0:0:0:0:
409,184,57582,2,0,B|405:199|405:199|411:232,3,35,4|8|4|4,0:3|0:2|0:3|0:3,0:0:0:0:
326,260,57843,5,8,0:2:0:0:
290,279,57908,1,8,0:2:0:0:
249,281,57973,1,8,0:2:0:0:
213,267,58038,1,8,0:2:0:0:
188,240,58104,2,0,L|176:292,3,35,8|8|8|8,0:2|0:2|0:2|0:2,0:0:0:0:
289,165,58364,6,0,L|299:100,1,35,4|4,0:3|0:3,0:0:0:0:
205,95,58495,2,0,L|211:50,1,35,4|4,0:3|0:3,0:0:0:0:
111,131,58625,2,0,L|110:183,7,35,8|8|8|8|8|8|8|8,0:2|0:2|0:2|0:2|0:2|0:2|0:2|0:2,0:0:0:0:
46,85,59147,1,4,0:3:0:0:
46,85,59212,1,0,0:0:0:0:
46,85,59278,1,4,0:3:0:0:
7,163,59407,6,0,L|12:256,1,70,8|8,0:0|0:0,0:0:0:0:
10,232,59602,1,8,0:0:0:0:
10,232,59667,1,8,0:0:0:0:
26,319,59798,1,8,0:3:0:0:
106,250,59928,6,0,L|113:330,1,70,4|4,0:3|0:3,0:0:0:0:
112,319,60124,1,4,0:3:0:0:
112,319,60189,1,4,0:3:0:0:
193,365,60320,1,4,0:3:0:0:
265,312,60450,6,0,B|284:289|284:289|347:275,1,70,4|4,0:1|0:3,0:0:0:0:
401,261,60711,1,4,0:3:0:0:
480,275,60841,1,8,0:2:0:0:
496,185,60972,6,0,B|450:173|450:173|437:149,1,70,4|4,0:3|0:3,0:0:0:0:
404,80,61233,1,4,0:3:0:0:
484,83,61363,1,8,0:2:0:0:
358,155,61493,6,0,B|308:147|308:147|278:118,1,70,4|4,0:3|0:3,0:0:0:0:
136,85,61754,2,0,L|121:-8,1,70,8|4,0:2|0:3,0:0:0:0:
7,245,62015,2,0,B|57:237|57:237|87:208,1,70,4|4,0:3|0:3,0:0:0:0:
151,191,62276,5,4,0:3:0:0:
202,255,62407,1,8,0:2:0:0:
279,279,62537,1,4,0:3:0:0:
360,265,62667,1,8,0:2:0:0:
426,218,62798,2,0,L|432:156,2,35,4|4|8,0:3|0:3|0:2,0:0:0:0:
276,271,63059,5,4,0:3:0:0:
359,273,63189,1,8,0:2:0:0:
428,312,63320,1,4,0:3:0:0:
426,320,63385,1,4,0:0:0:0:
424,328,63450,1,8,0:2:0:0:
501,271,63580,6,0,L|510:195,1,70,4|4,0:3|0:3,0:0:0:0:
486,126,63841,2,0,L|494:40,1,70,4|8,0:3|0:2,0:0:0:0:
359,47,64102,5,4,0:3:0:0:
347,128,64233,1,8,0:2:0:0:
267,113,64363,1,4,0:3:0:0:
278,35,64493,1,8,0:2:0:0:
347,137,64624,6,0,L|332:216,1,70,2|8,0:1|0:2,0:0:0:0:
100,244,64885,1,4,0:3:0:0:
100,244,64950,1,4,0:3:0:0:
100,244,65015,1,8,0:2:0:0:
175,197,65146,2,0,B|188:222|188:222|185:289,1,70,4|8,0:3|0:2,0:0:0:0:
261,356,65406,5,4,0:3:0:0:
339,331,65537,1,8,0:2:0:0:
417,310,65667,2,0,B|472:298|472:298|490:272,1,70,4|4,0:3|0:3,0:0:0:0:
424,74,65928,1,8,0:2:0:0:
424,74,65993,1,4,0:3:0:0:
424,74,66059,1,4,0:3:0:0:
350,113,66189,2,0,L|341:168,2,35,4|4|8,0:3|0:0|0:2,0:0:0:0:
270,90,66450,1,4,0:3:0:0:
214,28,66580,1,8,0:2:0:0:
123,72,66711,6,0,B|112:63|112:63|51:52,1,70,4|8,0:1|0:2,0:0:0:0:
233,221,66972,2,0,L|140:204,1,70,4|8,0:3|0:2,0:0:0:0:
383,340,67233,2,0,L|290:323,1,70,4|8,0:3|0:2,0:0:0:0:
226,322,67493,1,8,0:0:0:0:
224,330,67559,1,8,0:0:0:0:
221,338,67624,1,8,0:0:0:0:
138,305,67754,6,0,L|125:360,2,35,4|4|4,0:1|0:0|0:0,0:0:0:0:
31,257,68015,1,8,0:2:0:0:
34,239,68080,1,8,0:2:0:0:
38,222,68145,1,8,0:2:0:0:
42,205,68210,1,8,0:2:0:0:
46,186,68276,2,0,L|58:133,2,35,8|8|8,0:0|0:0|0:0,0:0:0:0:
146,122,68537,1,8,0:2:0:0:
166,21,68667,1,8,0:2:0:0:
247,97,68798,6,0,B|259:124|259:124|242:227|242:227|265:272,1,157.500006008148,6|0,0:1|0:0,0:0:0:0:
261,247,69059,2,0,B|250:226|250:226|267:123|267:123|255:96,1,157.500006008148,12|0,0:2|0:0,0:0:0:0:
259,90,69320,1,6,0:1:0:0:
437,91,69580,5,8,0:2:0:0:
486,158,69710,1,8,0:2:0:0:
443,229,69841,2,0,B|437:243|437:243|449:310,2,52.5000020027161,12|8|8,0:2|0:2|0:2,0:0:0:0:
343,329,70102,2,0,B|354:345|354:345|360:408,2,52.5000020027161,8|8|8,0:0|0:0|0:0,0:0:0:0:
257,256,70363,2,0,B|245:249|245:249|196:252,2,52.5000020027161,4|4|4,0:3|0:3|0:3,0:0:0:0:
339,169,70623,5,12,0:2:0:0:
331,88,70754,1,8,0:2:0:0:
270,33,70884,1,6,0:1:0:0:
190,30,71015,1,8,0:2:0:0:
128,83,71145,1,8,0:2:0:0:
128,83,71406,5,12,0:2:0:0:
190,30,71536,1,8,0:2:0:0:
331,88,71667,1,8,0:0:0:0:
270,33,71797,1,4,0:3:0:0:
339,169,71928,1,6,0:1:0:0:
220,256,72189,6,0,L|227:322,2,52.5000020027161,8|8|4,0:2|0:2|0:3,0:0:0:0:
148,219,72449,1,8,0:2:0:0:
145,212,72515,1,8,0:2:0:0:
142,205,72580,1,8,0:2:0:0:
77,255,72711,1,4,0:3:0:0:
16,203,72841,1,4,0:3:0:0:
82,142,72972,6,0,L|73:63,3,52.5000020027161,6|8|4|8,0:1|0:2|0:3|0:2,0:0:0:0:
160,58,73233,1,4,0:3:0:0:
162,77,73298,1,8,0:2:0:0:
176,91,73363,1,4,0:3:0:0:
194,95,73428,1,8,0:2:0:0:
214,90,73493,2,0,L|205:157,7,52.5000020027161,4|8|4|8|4|8|4|8,0:3|0:2|0:3|0:2|0:3|0:2|0:3|0:2,0:0:0:0:
302,177,74015,6,0,B|291:188|291:188|272:242,3,52.5000020027161,4|8|4|8,0:0|0:2|0:3|0:2,0:0:0:0:
376,137,74276,2,0,B|375:101|375:101|356:73,3,52.5000020027161,4|8|4|8,0:3|0:2|0:3|0:2,0:0:0:0:
434,195,74537,2,0,B|445:204|445:204|505:198,3,52.5000020027161,4|8|4|8,0:3|0:2|0:3|0:2,0:0:0:0:
367,260,74798,2,0,B|381:278|381:278|395:372,1,105.000004005432,4|4,0:3|0:3,0:0:0:0:
242,310,75059,5,4,0:3:0:0:
167,274,75188,1,4,0:3:0:0:
167,274,75254,1,4,0:3:0:0:
167,274,75319,2,0,B|138:347|138:347|102:366,1,105.000004005432,8|4,0:0|0:3,0:0:0:0:
97,193,75580,1,4,0:3:0:0:
97,193,75645,1,4,0:3:0:0:
97,193,75710,2,0,B|17:171|17:171|1:134,1,105.000004005432,0|4,0:0|0:3,0:0:0:0:
189,183,75971,1,4,0:3:0:0:
189,183,76036,1,4,0:3:0:0:
189,183,76102,2,0,B|213:121|213:121|209:70,1,105.000004005432,8|4,0:0|0:0,0:0:0:0:
307,70,76363,6,0,B|312:44|312:44|342:22,2,52.5000020027161,4|4|8,0:0|0:0|0:0,0:0:0:0:
353,138,76624,1,8,0:2:0:0:
359,156,76689,1,8,0:2:0:0:
374,168,76754,1,8,0:2:0:0:
393,169,76819,1,8,0:2:0:0:
410,158,76885,2,0,B|425:134|425:134|512:118,1,105.000004005432,8|4,0:0|0:3,0:0:0:0:
509,240,77146,5,2,0:1:0:0:
378,354,77406,1,4,0:3:0:0:
247,235,77667,1,4,0:3:0:0:
170,218,77798,1,4,0:3:0:0:
94,252,77928,2,0,L|102:288,1,35,4|0,0:1|0:0,0:0:0:0:
3,172,78711,5,2,0:1:0:0:
136,68,78972,1,4,0:0:0:0:
279,166,79232,1,4,0:0:0:0:
357,189,79363,1,4,0:0:0:0:
423,134,79493,6,0,L|420:79,3,35,0|0|0|0,1:0|1:0|1:0|1:0,0:0:0:0:
482,192,79754,1,0,1:0:0:0:
483,209,79819,1,0,1:0:0:0:
484,226,79884,1,0,1:0:0:0:
485,244,79949,1,0,1:0:0:0:
488,263,80015,2,0,L|490:317,3,35,0|0|0|0,1:0|1:0|1:0|1:0,0:0:0:0:
414,329,80276,5,6,0:1:0:0:
257,369,80537,1,4,0:0:0:0:
167,237,80798,1,4,0:0:0:0:
90,255,80928,1,4,0:0:0:0:
14,275,81059,1,6,0:1:0:0:
27,108,81319,5,2,0:2:0:0:
27,108,81450,1,2,0:2:0:0:
27,108,81580,1,2,0:2:0:0:
158,24,81841,5,6,0:1:0:0:
277,127,82102,1,4,0:0:0:0:
425,41,82363,1,4,0:0:0:0:
495,90,82493,1,4,0:0:0:0:
453,168,82624,5,8,0:2:0:0:
448,161,82689,1,8,0:2:0:0:
445,155,82754,1,8,0:2:0:0:
388,229,82885,2,0,B|380:212|380:212|360:194,2,35,8|8|8,0:0|0:0|0:0,0:0:0:0:
311,269,83145,1,4,0:3:0:0:
307,289,83210,1,4,0:3:0:0:
295,307,83275,1,4,0:3:0:0:
278,318,83340,1,4,0:3:0:0:
258,323,83405,5,6,0:1:0:0:
92,278,83667,1,4,0:0:0:0:
23,117,83928,1,4,0:0:0:0:
92,46,84059,1,4,0:0:0:0:
126,140,84189,6,0,L|114:177,7,35,6|0|0|0|0|0|0|0,0:1|1:0|1:0|1:0|1:0|1:0|1:0|1:0,0:0:0:0:
212,116,84711,1,0,1:0:0:0:
210,95,84776,1,0,1:0:0:0:
217,77,84841,1,0,1:0:0:0:
232,64,84906,1,0,1:0:0:0:
249,59,84972,6,0,B|302:69|302:69|328:53,1,70,6|4,0:1|0:3,0:0:0:0:
387,185,85232,2,0,B|409:136|409:136|438:124,1,70,8|0,0:2|0:2,0:0:0:0:
277,264,85493,2,0,B|292:271|292:271|333:325,1,70,4|4,0:3|0:0,0:0:0:0:
138,356,85754,6,0,L|135:303,1,35,8|4,0:2|0:0,0:0:0:0:
58,360,85885,2,0,L|54:306,1,35,8|4,0:2|0:0,0:0:0:0:
19,248,86015,6,0,B|15:201|15:201|2:177,1,52.5000020027161,8|4,0:2|0:0,0:0:0:0:
100,231,86145,2,0,B|94:190|94:190|117:161,1,52.5000020027161,8|4,0:2|0:0,0:0:0:0:
149,102,86276,6,0,B|164:77|164:77|159:25,1,70,8|4,0:2|0:0,0:0:0:0:
66,99,86406,2,0,B|50:74|50:74|55:22,1,70,8|4,0:2|0:0,0:0:0:0:
190,179,86537,6,0,L|292:167,1,70,6|4,0:1|0:0,0:0:0:0:
342,100,86798,2,0,L|351:40,2,35,4|4|4,0:0|0:0|0:0,0:0:0:0:
409,180,87059,1,4,0:0:0:0:
404,192,87124,1,4,0:0:0:0:
400,204,87189,1,4,0:0:0:0:
454,272,87319,6,0,L|459:326,3,35,6|0|0|0,0:1|1:0|1:0|1:0,0:0:0:0:
382,349,87580,1,0,1:0:0:0:
365,329,87645,1,0,1:0:0:0:
341,320,87710,1,0,1:0:0:0:
315,324,87775,1,0,1:0:0:0:
294,339,87841,2,0,L|301:279,3,35,0|0|0|0,1:0|1:0|1:0|1:0,0:0:0:0:
202,280,88102,6,0,L|206:369,1,70,6|8,0:1|0:0,0:0:0:0:
120,233,88363,1,8,0:0:0:0:
161,163,88493,1,4,0:0:0:0:
161,154,88559,1,4,0:0:0:0:
156,146,88624,5,4,0:0:0:0:
113,28,88754,1,4,0:0:0:0:
0,72,88885,1,6,0:1:0:0:
0,284,89667,5,6,0:1:0:0:
12,273,89732,1,8,0:2:0:0:
26,266,89798,1,4,0:3:0:0:
39,265,89863,1,8,0:2:0:0:
53,268,89928,2,0,B|65:247|65:247|91:237,3,35,4|8|4|8,0:0|0:2|0:0|0:2,0:0:0:0:
128,309,90189,2,0,L|107:360,3,35,4|8|4|8,0:3|0:2|0:3|0:2,0:0:0:0:
200,258,90450,5,2,0:1:0:0:
226,255,90515,1,8,0:2:0:0:
250,264,90580,1,4,0:3:0:0:
266,284,90645,1,8,0:2:0:0:
270,312,90711,2,0,L|301:277,3,35,4|8|4|8,0:0|0:2|0:0|0:2,0:0:0:0:
376,301,90972,2,0,L|430:319,3,35,4|8|4|8,0:0|0:2|0:0|0:2,0:0:0:0:
499,237,91232,6,0,L|487:278,3,35,4|8|4|8,0:3|0:2|0:3|0:2,0:0:0:0:
421,208,91493,1,8,0:2:0:0:
421,208,91559,1,4,0:3:0:0:
421,208,91624,2,0,L|434:160,1,35,4|4,0:3|0:3,0:0:0:0:
333,176,91754,2,0,L|317:227,3,35,8|12|4|12,0:2|0:3|0:3|0:3,0:0:0:0:
305,88,92015,5,8,0:2:0:0:
305,88,92080,1,12,0:3:0:0:
305,88,92145,2,0,L|283:43,1,35,4|12,0:3|0:3,0:0:0:0:
223,111,92276,2,0,L|210:64,3,35,8|4|4|12,0:2|0:3|0:3|0:3,0:0:0:0:
142,134,92537,2,0,L|126:80,3,35,8|8|8|8,0:2|0:2|0:2|0:2,0:0:0:0:
88,213,92798,5,4,0:1:0:0:
101,228,92863,1,4,0:3:0:0:
118,237,92928,1,4,0:3:0:0:
138,236,92993,1,4,0:3:0:0:
154,229,93059,2,0,L|149:288,3,35,4|4|4|4,0:3|0:3|0:3|0:3,0:0:0:0:
85,316,93319,2,0,L|81:374,3,35,8|8|8|8,0:2|0:2|0:2|0:2,0:0:0:0:
182,366,93580,5,4,0:3:0:0:
188,348,93645,1,4,0:3:0:0:
205,337,93710,1,4,0:3:0:0:
224,339,93775,1,4,0:3:0:0:
239,346,93841,2,0,B|238:332|238:332|258:283,3,35,4|4|4|4,0:3|0:3|0:3|0:3,0:0:0:0:
339,304,94102,2,0,B|334:285|334:285|319:266,3,35,8|8|4|4,0:2|0:2|0:3|0:3,0:0:0:0:
435,231,94363,5,8,0:2:0:0:
421,207,94428,1,8,0:2:0:0:
402,191,94493,1,8,0:2:0:0:
377,182,94559,1,8,0:2:0:0:
351,183,94624,2,0,L|341:129,3,35,8|8|8|8,0:2|0:2|0:2|0:2,0:0:0:0:
259,211,94885,2,0,B|250:197|250:197|214:188,3,35,8|8|4|4,0:0|0:0|0:3|0:3,0:0:0:0:
148,165,95145,5,8,0:2:0:0:
134,160,95211,1,8,0:2:0:0:
119,160,95276,1,8,0:2:0:0:
104,162,95341,1,8,0:2:0:0:
92,170,95406,2,0,L|96:120,3,35,4|4|4|4,0:3|0:3|0:3|0:3,0:0:0:0:
9,92,95667,1,8,0:2:0:0:
80,20,95798,1,8,0:2:0:0:
174,60,95928,6,0,L|226:51,3,35,6|4|4|4,0:1|0:0|0:0|0:0,0:0:0:0:
269,112,96189,2,0,L|315:104,1,35,4|8,0:0|0:2,0:0:0:0:
292,20,96319,2,0,L|347:12,1,35,4|8,0:3|0:2,0:0:0:0:
383,81,96450,2,0,L|441:70,3,35,4|8|4|8,0:3|0:2|0:3|0:2,0:0:0:0:
389,167,96711,5,4,0:2:0:0:
377,183,96776,1,4,0:0:0:0:
373,202,96841,1,4,0:0:0:0:
376,221,96906,1,4,0:0:0:0:
384,240,96972,2,0,L|436:242,3,35,8|4|4|4,0:2|0:0|0:0|0:0,0:0:0:0:
327,305,97232,2,0,L|286:298,3,35,8|4|4|4,0:2|0:0|0:0|0:0,0:0:0:0:
267,216,97493,5,6,0:1:0:0:
253,201,97558,1,8,0:2:0:0:
236,192,97623,1,4,0:0:0:0:
216,190,97688,1,8,0:2:0:0:
197,196,97754,2,0,L|190:250,7,35,4|8|4|8|4|8|4|8,0:3|0:2|0:3|0:2|0:3|0:2|0:3|0:2,0:0:0:0:
102,266,98276,6,0,L|112:316,1,35,4|8,0:3|0:2,0:0:0:0:
29,321,98406,2,0,L|40:377,1,35,4|8,0:3|0:2,0:0:0:0:
18,238,98537,2,0,L|9:191,3,35,4|8|4|8,0:3|0:2|0:0|0:2,0:0:0:0:
68,146,98798,2,0,L|58:91,3,35,4|8|4|8,0:3|0:2|0:0|0:2,0:0:0:0:
135,62,99059,5,6,0:1:0:0:
159,74,99124,1,8,0:2:0:0:
189,68,99189,1,8,0:2:0:0:
210,48,99254,1,8,0:2:0:0:
217,22,99319,2,0,B|234:9|234:9|269:6,7,35,8|8|8|8|4|4|4|4,0:2|0:2|0:2|0:2|0:3|0:3|0:3|0:3,0:0:0:0:
315,93,99841,5,8,0:2:0:0:
290,103,99906,1,8,0:2:0:0:
268,121,99971,1,8,0:2:0:0:
255,145,100036,1,8,0:2:0:0:
246,173,100102,2,0,L|260:232,3,35,4|4|4|4,0:3|0:3|0:3|0:3,0:0:0:0:
166,225,100363,2,0,B|171:234|171:234|168:273,3,35,4|4|4|4,0:3|0:3|0:3|0:3,0:0:0:0:
224,328,100624,5,8,0:2:0:0:
260,308,100689,1,8,0:2:0:0:
300,307,100754,1,8,0:2:0:0:
336,320,100819,1,8,0:2:0:0:
362,347,100885,2,0,L|375:279,3,35,4|4|4|4,0:3|0:3|0:3|0:3,0:0:0:0:
424,247,101145,6,0,L|432:195,1,35,8|8,0:2|0:2,0:0:0:0:
372,149,101276,2,0,L|383:91,1,35,4|4,0:3|0:3,0:0:0:0:
320,53,101406,2,0,L|329:4,3,35,8|8|8|8,0:2|0:2|0:2|0:2,0:0:0:0:
238,84,101667,5,4,0:3:0:0:
238,84,101732,1,4,0:3:0:0:
238,84,101798,1,4,0:3:0:0:
162,121,101928,1,4,0:0:0:0:
84,95,102059,1,4,0:0:0:0:
15,141,102189,6,0,L|24:297,2,140,4|2|2,0:2|0:0|0:0,0:0:0:0:
151,242,102972,2,0,L|135:389,1,140,8|2,0:2|0:2,0:0:0:0:
219,368,103363,1,2,0:2:0:0:
395,354,103624,1,2,0:2:0:0:
327,305,103754,6,0,L|343:148,2,140,2|2|2,0:1|0:0|0:0,0:0:0:0:
213,175,104537,2,0,L|209:28,2,140,8|2|2,0:2|0:2|0:2,0:0:0:0:
17,176,105319,5,4,0:2:0:0:
81,294,105580,1,2,0:0:0:0:
209,259,105841,1,2,0:0:0:0:
86,307,106102,5,8,0:2:0:0:
211,268,106363,1,2,0:2:0:0:
312,360,106624,1,2,0:2:0:0:
441,307,106885,5,2,0:1:0:0:
441,307,107145,1,2,0:0:0:0:
468,227,107276,1,2,0:0:0:0:
364,134,107537,1,2,0:0:0:0:
384,56,107667,6,0,L|291:36,1,70,8|8,0:2|0:2,0:0:0:0:
315,41,107863,1,8,0:2:0:0:
315,41,107928,1,8,0:2:0:0:
256,96,108059,1,8,0:0:0:0:
198,38,108189,2,0,B|182:25|182:25|121:17,1,70,8|4,0:0|0:0,0:0:0:0:
29,77,108450,6,0,L|42:221,2,140,2|2|2,0:1|0:0|0:0,0:0:0:0:
182,171,109232,2,0,B|162:187|162:187|144:321,2,140,8|2|2,0:2|0:0|0:0,0:0:0:0:
337,223,109885,1,4,0:0:0:0:
268,266,110015,5,2,0:1:0:0:
301,137,110276,1,2,0:0:0:0:
333,17,110537,1,2,0:0:0:0:
413,43,110667,5,4,0:0:0:0:
413,43,110798,2,0,L|494:33,1,70,8|4,0:2|0:0,0:0:0:0:
407,187,111189,1,4,0:0:0:0:
407,187,111319,2,0,B|430:177|430:177|494:169,1,70,8|8,0:2|0:2,0:0:0:0:
358,287,111580,6,0,L|496:265,2,140,4|2|2,0:2|0:0|0:0,0:0:0:0:
220,358,112232,1,4,0:0:0:0:
186,283,112363,2,0,B|162:261|162:261|43:255,2,140,8|2|2,0:2|0:2|0:2,0:0:0:0:
133,65,113145,5,2,0:1:0:0:
252,120,113406,1,2,0:0:0:0:
376,184,113667,1,2,0:0:0:0:
172,161,113928,5,8,0:2:0:0:
252,127,114059,1,4,0:0:0:0:
252,134,114124,1,4,0:0:0:0:
252,140,114189,2,0,L|247:223,1,70,4|8,0:0|0:0,0:0:0:0:
360,22,114450,2,0,L|354:99,1,70,8|8,0:0|0:0,0:0:0:0:
484,135,114711,5,2,0:1:0:0:
484,135,114972,2,0,L|476:217,1,70,2|2,0:0|0:0,0:0:0:0:
400,265,115232,2,0,L|392:356,1,70,2|2,0:0|0:0,0:0:0:0:
143,343,115493,5,8,0:2:0:0:
143,343,115754,1,2,0:0:0:0:
150,261,115885,2,0,L|158:168,1,70,2|0,0:0|0:0,0:0:0:0:
2,55,116145,1,2,0:0:0:0:
91,22,116276,5,4,0:2:0:0:
91,22,116537,1,2,0:0:0:0:
91,22,116798,2,0,L|84:105,1,70,2|2,0:0|0:0,0:0:0:0:
260,25,117059,5,8,0:2:0:0:
296,99,117189,1,4,0:0:0:0:
377,110,117319,1,4,0:0:0:0:
451,75,117450,2,0,L|460:-3,1,70,8|4,0:2|0:0,0:0:0:0:
414,243,117711,1,4,0:0:0:0:
495,217,117841,5,2,0:1:0:0:
495,217,118102,2,0,L|485:319,1,70,2|2,0:0|0:0,0:0:0:0:
342,301,118363,2,0,L|334:382,1,70,2|2,0:0|0:0,0:0:0:0:
208,188,118624,5,8,0:2:0:0:
208,188,118885,1,2,0:0:0:0:
214,107,119015,2,0,L|227:35,1,70,8|2,0:2|0:0,0:0:0:0:
14,141,119276,1,4,0:3:0:0:
8,226,119406,5,4,0:2:0:0:
8,226,119667,2,0,L|-1:280,2,35,8|8|8,0:2|0:2|0:2,0:0:0:0:
87,213,119928,1,4,0:3:0:0:
154,257,120059,1,4,0:3:0:0:
177,334,120189,6,0,L|167:379,2,35,8|8|8,0:2|0:2|0:2,0:0:0:0:
247,289,120450,1,4,0:0:0:0:
330,287,120580,1,4,0:0:0:0:
402,324,120711,1,8,0:2:0:0:
400,332,120776,1,8,0:2:0:0:
398,340,120841,1,8,0:2:0:0:
484,293,120972,6,0,L|470:127,1,140,2|4,0:1|0:0,0:0:0:0:
390,139,121363,1,4,0:0:0:0:
390,139,121493,2,0,L|381:38,1,70,4|4,0:0|0:0,0:0:0:0:
219,42,121754,6,0,L|233:205,1,140,8|4,0:2|0:0,0:0:0:0:
158,220,122145,1,4,0:0:0:0:
158,220,122276,2,0,L|164:298,1,70,4|4,0:0|0:0,0:0:0:0:
10,155,122537,5,4,0:2:0:0:
10,155,122798,1,4,0:0:0:0:
82,112,122928,1,4,0:0:0:0:
164,119,123059,1,4,0:0:0:0:
229,171,123189,1,4,0:0:0:0:
307,129,123319,6,0,L|315:45,1,70,8|4,0:2|0:0,0:0:0:0:
420,214,123580,1,4,0:0:0:0:
481,160,123711,2,0,L|488:80,1,70,8|4,0:2|0:3,0:0:0:0:
298,253,123972,1,4,0:3:0:0:
354,317,124102,5,2,0:1:0:0:
354,317,124363,1,4,0:0:0:0:
280,359,124493,1,4,0:0:0:0:
198,353,124624,1,4,0:0:0:0:
132,302,124754,1,4,0:0:0:0:
129,218,124885,5,8,0:2:0:0:
129,218,125145,1,4,0:0:0:0:
172,149,125276,1,8,0:2:0:0:
156,67,125406,1,4,0:0:0:0:
85,22,125537,1,4,0:0:0:0:
7,54,125667,6,0,L|6:96,2,35,12|8|8,0:2|0:2|0:2,0:0:0:0:
41,166,125928,2,0,L|39:251,1,70,4|4,0:0|0:0,0:0:0:0:
98,313,126189,1,8,0:0:0:0:
97,324,126254,1,8,0:0:0:0:
95,334,126319,1,8,0:0:0:0:
192,293,126450,5,2,0:1:0:0:
260,343,126580,1,8,0:0:0:0:
326,342,126711,1,8,0:0:0:0:
370,300,126841,1,4,0:0:0:0:
375,250,126972,1,4,0:0:0:0:
349,213,127102,1,4,0:0:0:0:
317,208,127232,6,0,B|330:227|330:227|400:232|400:232|415:222|415:222|494:229|494:229|513:260,2,210.000008010865,2|4|0,0:1|0:0|0:2,0:0:0:0:
40,79,128015,1,8,0:2:0:0:
117,49,128145,1,4,0:0:0:0:
192,76,128276,1,4,0:0:0:0:
207,155,128406,1,8,0:2:0:0:
150,216,128537,2,0,L|141:335,1,105.000004005432,4|4,0:0|0:0,0:0:0:0:
194,82,128798,5,2,0:1:0:0:
212,159,128928,1,4,0:0:0:0:
283,194,129059,1,4,0:0:0:0:
365,186,129189,1,4,0:0:0:0:
430,136,129319,2,0,L|435:19,1,105.000004005432,2|4,0:1|0:0,0:0:0:0:
480,257,129580,6,0,L|360:280,1,105.000004005432,8|4,0:2|0:0,0:0:0:0:
150,305,129841,2,0,L|18:322,1,105.000004005432,8|4,0:0|0:0,0:0:0:0:
246,379,130102,2,0,L|266:252,1,105.000004005432,2|4,0:1|0:0,0:0:0:0:
186,125,130363,5,4,0:2:0:0:
249,70,130493,1,0,0:0:0:0:
330,55,130624,1,4,0:0:0:0:
410,75,130754,1,4,0:0:0:0:
465,134,130885,2,0,L|448:263,1,105.000004005432,4|0,0:0|0:0,0:0:0:0:
188,136,131145,5,8,0:2:0:0:
111,173,131276,1,4,0:3:0:0:
42,125,131406,2,0,L|31:-5,1,105.000004005432,2|0,0:1|0:0,0:0:0:0:
195,143,131667,5,4,0:0:0:0:
253,202,131798,1,4,0:0:0:0:
260,286,131928,2,0,L|160:336,1,105.000004005432,2|4,0:1|0:0,0:0:0:0:
194,134,132189,5,4,0:0:0:0:
261,86,132319,1,4,0:0:0:0:
345,96,132450,2,0,L|463:116,1,105.000004005432,4|4,0:2|0:0,0:0:0:0:
485,287,132711,5,8,0:2:0:0:
482,296,132776,1,8,0:2:0:0:
479,304,132841,1,8,0:2:0:0:
395,357,132972,1,8,0:2:0:0:
298,339,133102,1,8,0:2:0:0:
220,273,133232,2,0,L|219:139,1,105.000004005432,8|8,0:2|0:2,0:0:0:0:
63,58,133493,5,2,0:1:0:0:
142,35,133624,1,6,0:0:0:0:
221,59,133754,2,0,L|209:185,1,105.000004005432,6|6,0:0|0:0,0:0:0:0:
357,132,134015,5,2,0:1:0:0:
433,170,134145,1,4,0:3:0:0:
512,153,134276,5,8,0:2:0:0:
427,180,134406,1,6,0:0:0:0:
406,262,134537,2,0,L|417:370,1,105.000004005432,6|6,0:0|0:0,0:0:0:0:
252,184,134798,2,0,L|262:73,1,105.000004005432,2|4,0:1|0:3,0:0:0:0:
182,283,135059,5,4,0:2:0:0:
105,314,135189,1,4,0:3:0:0:
30,282,135319,1,2,0:3:0:0:
8,202,135450,1,4,0:3:0:0:
63,139,135580,2,0,L|171:126,1,105.000004005432,2|4,0:1|0:3,0:0:0:0:
337,232,135841,5,8,0:2:0:0:
420,230,135972,1,4,0:0:0:0:
480,172,136102,1,4,0:0:0:0:
474,90,136232,1,4,0:0:0:0:
398,52,136363,2,0,L|381:172,1,105.000004005432,8|8,0:2|0:2,0:0:0:0:
488,358,136624,5,2,0:1:0:0:
411,322,136754,1,6,0:0:0:0:
334,356,136885,1,6,0:0:0:0:
264,308,137015,5,4,0:2:0:0:
200,356,137145,1,6,0:0:0:0:
118,354,137276,1,6,0:0:0:0:
49,306,137406,6,0,L|32:190,1,105.000004005432,2|6,0:1|0:0,0:0:0:0:
111,174,137667,2,0,L|92:49,1,105.000004005432,6|4,0:0|0:2,0:0:0:0:
423,66,137928,1,2,0:2:0:0:
423,66,138189,6,0,L|356:74,2,52.5000020027161,8|8|8,0:2|0:2|0:2,0:0:0:0:
502,136,138450,1,8,0:2:0:0:
420,152,138580,1,4,0:3:0:0:
337,167,138711,1,4,0:3:0:0:
308,247,138841,5,8,0:0:0:0:
305,257,138906,1,8,0:0:0:0:
301,266,138972,1,8,0:0:0:0:
205,281,139102,1,8,0:0:0:0:
104,298,139232,2,0,L|-15:318,1,105.000004005432,8|4,0:0|0:0,0:0:0:0:
393,331,139493,2,0,L|535:302,1,105.000004005432,4|4,0:0|0:0,0:0:0:0:
192,129,139754,5,2,0:1:0:0:
96,30,140015,1,4,0:2:0:0:
12,138,140276,1,4,0:0:0:0:
15,150,140341,1,4,0:0:0:0:
18,163,140406,1,4,0:0:0:0:
21,176,140471,1,0,0:0:0:0:
27,191,140537,6,0,L|35:155,1,35,6|0,0:1|0:0,0:0:0:0:
131,202,141319,5,6,0:1:0:0:
233,289,141580,1,4,0:2:0:0:
346,204,141841,1,4,0:0:0:0:
417,240,141972,1,4,0:0:0:0:
479,185,142102,1,4,1:0:0:0:
476,173,142167,1,0,1:0:0:0:
473,160,142232,1,0,1:0:0:0:
471,147,142297,1,0,1:0:0:0:
467,132,142363,2,0,L|480:81,3,35,0|0|0|0,1:0|1:0|1:0|1:0,0:0:0:0:
381,124,142624,2,0,B|377:104|377:104|356:67,3,35,0|0|0|0,1:0|1:0|1:0|1:0,0:0:0:0:
295,143,142885,5,6,0:1:0:0:
194,239,143145,1,4,0:2:0:0:
89,152,143406,1,4,0:0:0:0:
55,226,143537,1,4,0:0:0:0:
20,297,143667,2,0,L|38:327,1,35,6|2,0:1|0:2,0:0:0:0:
139,313,144450,5,6,0:1:0:0:
263,364,144711,1,4,0:2:0:0:
395,275,144972,2,0,L|449:267,2,35,4|4|4,0:3|0:3|0:3,0:0:0:0:
312,191,145232,5,8,0:2:0:0:
235,214,145363,1,8,0:2:0:0:
231,223,145428,1,8,0:2:0:0:
228,232,145493,1,8,0:2:0:0:
148,218,145624,1,8,0:2:0:0:
74,147,145754,1,8,0:2:0:0:
88,47,145885,1,8,0:2:0:0:
184,22,146015,6,0,L|261:16,1,70,6|4,0:1|0:0,0:0:0:0:
331,80,146276,2,0,L|428:72,1,70,4|8,0:0|0:0,0:0:0:0:
426,181,146537,1,8,0:0:0:0:
506,172,146667,1,8,0:0:0:0:
377,265,146798,6,0,L|325:256,2,35,8|8|8,0:2|0:2|0:2,0:0:0:0:
267,341,147059,2,0,L|320:352,2,35,8|4|4,0:2|0:3|0:3,0:0:0:0:
231,244,147319,1,8,0:2:0:0:
206,236,147384,1,8,0:2:0:0:
182,241,147449,1,8,0:2:0:0:
161,256,147514,1,8,0:2:0:0:
151,277,147580,6,0,L|58:262,1,70,6|4,0:1|0:0,0:0:0:0:
237,129,147841,1,4,0:0:0:0:
244,138,147906,1,0,0:0:0:0:
249,148,147972,2,0,L|326:159,1,70,4|8,0:2|0:0,0:0:0:0:
126,63,148232,1,8,0:0:0:0:
123,73,148298,1,0,0:0:0:0:
121,83,148363,6,0,L|110:140,2,35,4|0|0,1:0|1:0|1:0,0:0:0:0:
9,117,148624,1,0,1:0:0:0:
15,127,148689,1,0,1:0:0:0:
22,138,148754,2,0,L|9:228,1,70,4|8,0:2|0:0,0:0:0:0:
102,275,149015,1,8,0:0:0:0:
96,285,149080,1,8,0:0:0:0:
89,296,149145,6,0,L|102:386,1,70,6|4,1:0|0:0,0:0:0:0:
168,202,149406,1,4,0:0:0:0:
164,193,149472,1,0,0:0:0:0:
160,183,149537,1,4,0:2:0:0:
221,126,149667,1,8,0:0:0:0:
303,119,149798,1,8,0:0:0:0:
380,153,149928,6,0,L|370:196,2,35,6|8|8,0:1|0:2|0:2,0:0:0:0:
487,84,150189,2,0,L|495:38,2,35,8|4|4,0:2|0:3|0:3,0:0:0:0:
473,219,150450,1,12,0:2:0:0:
474,236,150515,1,8,0:2:0:0:
476,253,150580,1,4,0:3:0:0:
478,271,150645,1,4,0:3:0:0:
482,287,150711,6,0,L|475:342,2,35,6|8|8,0:1|0:2|0:2,0:0:0:0:
361,353,150972,1,8,0:2:0:0:
358,344,151037,1,4,0:0:0:0:
354,335,151102,1,4,0:2:0:0:
266,287,151232,1,8,0:0:0:0:
174,286,151363,1,8,0:0:0:0:
88,331,151493,1,6,0:1:0:0:
122,47,153841,5,6,0:1:0:0:
137,70,153906,1,8,0:2:0:0:
153,101,153972,1,4,0:3:0:0:
155,130,154037,1,8,0:2:0:0:
151,163,154102,2,0,B|198:190|198:190|205:202,3,35,4|8|4|8,0:0|0:2|0:0|0:2,0:0:0:0:
98,260,154363,2,0,L|77:311,3,35,4|8|4|8,0:3|0:2|0:3|0:2,0:0:0:0:
162,336,154624,5,2,0:1:0:0:
201,340,154689,1,8,0:2:0:0:
237,327,154754,1,4,0:3:0:0:
261,297,154819,1,8,0:2:0:0:
267,255,154885,2,0,L|307:298,3,35,4|8|4|8,0:0|0:2|0:0|0:2,0:0:0:0:
333,196,155145,1,4,0:3:0:0:
330,174,155211,1,8,0:2:0:0:
318,156,155276,1,4,0:3:0:0:
299,142,155341,1,8,0:2:0:0:
283,136,155406,6,0,L|271:95,3,35,4|8|4|8,0:3|0:2|0:3|0:2,0:0:0:0:
363,78,155667,1,8,0:2:0:0:
363,78,155733,1,4,0:3:0:0:
363,78,155798,2,0,L|376:30,1,35,4|4,0:3|0:3,0:0:0:0:
437,125,155928,2,0,L|473:85,3,35,8|12|4|12,0:2|0:3|0:3|0:3,0:0:0:0:
506,212,156189,5,8,0:2:0:0:
506,212,156254,1,12,0:3:0:0:
506,212,156319,2,0,L|484:257,1,35,4|12,0:3|0:3,0:0:0:0:
431,300,156450,2,0,L|444:347,3,35,8|4|4|12,0:2|0:3|0:3|0:3,0:0:0:0:
347,314,156711,2,0,L|293:330,3,35,8|8|8|8,0:2|0:2|0:2|0:2,0:0:0:0:
258,241,156972,5,4,0:1:0:0:
245,226,157037,1,4,0:3:0:0:
228,217,157102,1,4,0:3:0:0:
208,218,157167,1,4,0:3:0:0:
192,225,157233,2,0,L|197:166,3,35,4|4|4|4,0:3|0:3|0:3|0:3,0:0:0:0:
114,176,157493,1,8,0:2:0:0:
114,176,157559,1,8,0:2:0:0:
114,176,157624,2,0,L|104:242,1,35,4|0,0:3|0:0,0:0:0:0:
49,110,157754,5,4,0:3:0:0:
55,92,157819,1,4,0:3:0:0:
72,81,157884,1,4,0:3:0:0:
91,83,157949,1,4,0:3:0:0:
106,90,158015,2,0,B|105:76|105:76|125:27,3,35,4|4|4|4,0:3|0:3|0:3|0:3,0:0:0:0:
191,103,158276,2,0,B|198:73|198:73|211:49,3,35,8|8|4|4,0:2|0:2|0:3|0:3,0:0:0:0:
280,17,158537,5,8,0:2:0:0:
276,51,158602,1,8,0:2:0:0:
295,79,158667,1,8,0:2:0:0:
328,87,158732,1,8,0:2:0:0:
359,72,158798,2,0,L|348:131,3,35,8|4|4|4,0:2|0:3|0:3|0:3,0:0:0:0:
414,157,159059,2,0,L|400:206,3,35,4|4|4|4,0:3|0:3|0:3|0:3,0:0:0:0:
451,298,159319,5,8,0:2:0:0:
442,282,159384,1,8,0:2:0:0:
425,274,159450,2,0,L|413:331,3,35,8|4|0|0,0:2|0:3|0:0|0:0,0:0:0:0:
338,268,159711,5,4,0:3:0:0:
332,279,159776,1,4,0:3:0:0:
324,290,159841,1,8,0:2:0:0:
296,367,159972,1,8,0:2:0:0:
221,334,160102,6,0,L|169:325,3,35,6|8|8|8,0:1|0:2|0:2|0:2,0:0:0:0:
188,241,160363,2,0,L|185:185,1,35,4|4,0:3|0:3,0:0:0:0:
107,244,160493,2,0,L|103:194,1,35,4|4,0:3|0:3,0:0:0:0:
52,316,160624,2,0,L|17:322,3,35,8|8|8|8,0:2|0:2|0:2|0:2,0:0:0:0:
16,238,160885,5,4,0:3:0:0:
4,222,160950,1,4,0:3:0:0:
0,203,161015,1,4,0:3:0:0:
3,184,161080,1,4,0:3:0:0:
11,165,161146,2,0,L|33:123,3,35,8|8|8|8,0:2|0:2|0:2|0:2,0:0:0:0:
112,115,161406,2,0,L|148:81,3,35,4|4|4|4,0:3|0:3|0:3|0:3,0:0:0:0:
185,161,161667,5,4,0:3:0:0:
199,176,161732,1,8,0:2:0:0:
216,185,161797,1,4,0:3:0:0:
236,187,161862,1,8,0:2:0:0:
255,181,161928,2,0,L|262:127,7,35,4|8|4|8|4|8|4|8,0:3|0:2|0:3|0:2|0:3|0:2|0:3|0:2,0:0:0:0:
328,95,162450,5,4,0:3:0:0:
354,101,162515,1,8,0:2:0:0:
374,118,162580,1,4,0:3:0:0:
386,143,162645,1,8,0:2:0:0:
389,169,162711,2,0,L|395:203,3,35,4|8|4|8,0:3|0:2|0:3|0:2,0:0:0:0:
488,233,162972,2,0,L|494:267,3,35,4|8|4|8,0:3|0:2|0:3|0:2,0:0:0:0:
427,336,163233,5,8,0:2:0:0:
403,348,163298,1,8,0:2:0:0:
373,342,163363,1,8,0:2:0:0:
352,322,163428,1,8,0:2:0:0:
345,296,163493,2,0,B|328:283|328:283|293:280,7,35,8|8|8|8|4|4|4|4,0:2|0:2|0:2|0:2|0:3|0:3|0:3|0:3,0:0:0:0:
311,186,164015,5,8,0:2:0:0:
273,201,164080,1,8,0:2:0:0:
240,228,164145,1,8,0:2:0:0:
221,264,164210,1,8,0:2:0:0:
207,306,164276,2,0,L|224:370,3,35,4|4|4|4,0:3|0:3|0:3|0:3,0:0:0:0:
117,283,164537,2,0,B|122:292|122:292|119:331,3,35,8|8|4|4,0:2|0:2|0:3|0:3,0:0:0:0:
30,265,164798,5,8,0:2:0:0:
49,229,164863,1,8,0:2:0:0:
51,188,164928,1,8,0:2:0:0:
37,152,164993,1,8,0:2:0:0:
10,126,165059,2,0,L|61:115,3,35,4|4|4|4,0:3|0:3|0:3|0:3,0:0:0:0:
119,51,165319,5,8,0:2:0:0:
150,55,165384,1,8,0:2:0:0:
183,60,165449,1,8,0:2:0:0:
216,64,165514,1,8,0:2:0:0:
247,68,165580,2,0,L|253:33,3,35,8|8|8|8,0:2|0:2|0:2|0:2,0:0:0:0:
221,150,165841,6,0,L|235:217,1,35,4|4,0:3|0:3,0:0:0:0:
310,171,165972,2,0,L|320:230,1,35,4|4,0:3|0:3,0:0:0:0:
398,188,166102,1,8,0:2:0:0:
401,202,166167,1,8,0:2:0:0:
405,216,166232,2,0,L|413:261,1,35,8|8,0:2|0:2,0:0:0:0:
427,332,166363,6,0,B|411:335|411:335|386:367,3,35,6|8|4|8,0:1|0:2|0:3|0:2,0:0:0:0:
309,314,166624,2,0,B|304:322|304:322|299:368,3,35,4|8|4|8,0:0|0:2|0:0|0:2,0:0:0:0:
202,340,166885,2,0,B|207:364|207:364|231:387,3,35,4|8|4|8,0:3|0:2|0:3|0:2,0:0:0:0:
159,256,167145,5,2,0:1:0:0:
134,244,167211,1,8,0:2:0:0:
111,240,167276,1,4,0:3:0:0:
91,241,167341,1,8,0:2:0:0:
73,250,167406,2,0,L|62:308,3,35,4|8|4|8,0:0|0:2|0:0|0:2,0:0:0:0:
0,198,167667,2,0,L|8:143,3,35,4|8|4|8,0:0|0:2|0:0|0:2,0:0:0:0:
88,90,167928,6,0,B|71:72|71:72|41:71,3,35,4|8|4|8,0:3|0:2|0:3|0:2,0:0:0:0:
174,60,168189,1,8,0:2:0:0:
174,60,168255,1,4,0:3:0:0:
174,60,168320,2,0,L|187:12,1,35,4|4,0:3|0:3,0:0:0:0:
245,104,168450,2,0,B|262:106|262:106|303:83,3,35,8|12|4|12,0:2|0:3|0:3|0:3,0:0:0:0:
322,198,168711,5,8,0:2:0:0:
322,198,168776,1,12,0:3:0:0:
322,198,168841,2,0,L|311:250,1,35,4|12,0:3|0:3,0:0:0:0:
394,260,168972,2,0,L|407:307,3,35,8|4|4|12,0:2|0:3|0:3|0:3,0:0:0:0:
461,205,169233,2,0,B|475:196|475:196|494:195,3,35,8|8|8|8,0:2|0:2|0:2|0:2,0:0:0:0:
433,111,169494,5,4,0:1:0:0:
420,96,169559,1,4,0:3:0:0:
403,87,169624,1,4,0:3:0:0:
383,88,169689,1,4,0:3:0:0:
367,95,169755,2,0,L|372:36,3,35,4|4|4|4,0:3|0:3|0:3|0:3,0:0:0:0:
273,91,170015,2,0,B|264:78|264:78|228:64,3,35,8|8|8|8,0:2|0:2|0:2|0:2,0:0:0:0:
200,158,170276,5,4,0:3:0:0:
194,168,170341,1,4,0:3:0:0:
188,179,170406,2,0,L|203:235,3,35,4|4|8|0,0:3|0:3|0:3|0:3,0:0:0:0:
113,258,170667,5,4,0:3:0:0:
102,255,170732,1,4,0:3:0:0:
89,252,170798,2,0,L|63:285,3,35,4|4|8|0,0:3|0:3|0:3|0:3,0:0:0:0:
192,300,171059,5,4,0:3:0:0:
201,316,171124,1,4,0:3:0:0:
208,330,171189,2,0,L|267:324,3,35,4|4|8|0,0:3|0:3|0:3|0:2,0:0:0:0:
308,270,171450,5,4,0:3:0:0:
324,278,171515,1,4,0:3:0:0:
337,284,171580,2,0,L|332:343,3,35,4|4|8|0,0:3|0:3|0:3|0:3,0:0:0:0:
420,330,171841,5,8,0:2:0:0:
432,326,171906,1,8,0:2:0:0:
445,319,171972,2,0,L|492:302,3,35,4|4|4|4,0:3|0:3|0:3|0:3,0:0:0:0:
393,220,172233,5,4,0:3:0:0:
387,209,172298,1,0,0:0:0:0:
379,198,172363,1,8,0:2:0:0:
371,117,172494,1,8,0:2:0:0:
407,43,172624,6,0,L|459:34,3,35,6|8|8|8,0:1|0:2|0:2|0:2,0:0:0:0:
329,18,172885,2,0,L|281:11,1,35,4|4,0:3|0:3,0:0:0:0:
292,94,173015,2,0,L|236:90,1,35,4|4,0:3|0:3,0:0:0:0:
211,18,173146,2,0,L|169:27,3,35,8|8|8|8,0:2|0:2|0:2|0:2,0:0:0:0:
148,106,173407,5,4,0:3:0:0:
132,118,173472,1,4,0:3:0:0:
113,122,173537,1,4,0:3:0:0:
94,119,173602,1,4,0:3:0:0:
78,110,173668,2,0,L|58:64,3,35,8|8|8|8,0:2|0:2|0:2|0:2,0:0:0:0:
10,159,173928,2,0,L|32:210,3,35,4|4|4|4,0:3|0:3|0:3|0:3,0:0:0:0:
104,235,174189,5,6,0:1:0:0:
118,220,174254,1,8,0:2:0:0:
135,211,174319,1,4,0:3:0:0:
155,209,174384,1,8,0:2:0:0:
174,215,174450,2,0,L|181:269,7,35,4|8|4|8|4|8|4|8,0:3|0:2|0:3|0:2|0:3|0:2|0:3|0:2,0:0:0:0:
252,306,174972,6,0,L|295:299,1,35,4|8,0:3|0:2,0:0:0:0:
260,218,175102,2,0,L|320:213,1,35,4|8,0:3|0:2,0:0:0:0:
376,207,175233,2,0,L|374:147,3,35,4|8|4|8,0:3|0:2|0:3|0:2,0:0:0:0:
459,207,175494,2,0,L|458:157,3,35,4|8|4|8,0:3|0:2|0:3|0:2,0:0:0:0:
418,93,175755,5,6,0:1:0:0:
416,66,175820,1,8,0:2:0:0:
396,43,175885,1,8,0:2:0:0:
368,35,175950,1,8,0:2:0:0:
342,41,176015,2,0,B|322:32|322:32|302:3,7,35,8|8|8|8|4|4|4|4,0:2|0:2|0:2|0:2|0:3|0:3|0:3|0:3,0:0:0:0:
248,79,176537,5,8,0:2:0:0:
210,94,176602,1,8,0:2:0:0:
177,121,176667,1,8,0:2:0:0:
157,157,176732,1,8,0:2:0:0:
144,199,176798,2,0,L|162:246,3,35,4|4|4|4,0:3|0:3|0:3|0:3,0:0:0:0:
57,189,177059,2,0,B|62:198|62:198|59:237,3,35,8|8|4|4,0:2|0:2|0:3|0:3,0:0:0:0:
15,295,177319,5,8,0:2:0:0:
44,316,177384,1,8,0:2:0:0:
80,327,177449,1,8,0:2:0:0:
116,330,177514,1,8,0:2:0:0:
150,321,177580,2,0,L|192:332,3,35,4|4|4|4,0:3|0:3|0:3|0:3,0:0:0:0:
265,320,177841,2,0,L|269:377,1,35,4|4,0:3|0:3,0:0:0:0:
341,277,177972,2,0,L|347:329,1,35,4|4,0:3|0:3,0:0:0:0:
355,195,178102,5,8,0:2:0:0:
391,177,178167,1,8,0:2:0:0:
435,175,178232,1,8,0:2:0:0:
473,190,178297,1,8,0:2:0:0:
508,220,178363,2,0,L|496:273,3,35,8|8|8|8,0:2|0:2|0:2|0:2,0:0:0:0:
505,110,178624,5,8,0:2:0:0:
396,52,178754,2,0,L|301:65,1,70,8|2,0:2|0:2,0:0:0:0:
