osu file format v14

[General]
AudioFilename: audio.mp3
AudioLeadIn: 0
PreviewTime: 39767
Countdown: 0
SampleSet: Normal
StackLeniency: 0.7
Mode: 1
LetterboxInBreaks: 0
WidescreenStoryboard: 1

[Editor]
DistanceSpacing: 0.8
BeatDivisor: 4
GridSize: 8
TimelineZoom: 3.899998

[Metadata]
Title:Powercore
TitleUnicode:Powercore
Artist:Nekrogoblikon
ArtistUnicode:Nekrogoblikon
Creator:roxan
Version:Muzukashii
Source:osu!
Tags:english goblin metal metalcore core power fantasy comedy hard rock melodic death electronic featured artist fa welcome to bonkers
BeatmapID:2677327
BeatmapSetID:1289196

[Difficulty]
HPDrainRate:5
CircleSize:5
OverallDifficulty:5
ApproachRate:5
SliderMultiplier:1.4
SliderTickRate:1

[Events]
//Background and Video events
0,0,"FIyEEF.jpg",0,110
//Break Periods
2,130567,138767
//Storyboard Layer 0 (Background)
//Storyboard Layer 1 (Fail)
//Storyboard Layer 2 (Pass)
//Storyboard Layer 3 (Foreground)
//Storyboard Layer 4 (Overlay)
//Storyboard Sound Samples

[TimingPoints]
-433,300,4,1,0,100,1,0
167,-133.333333333333,4,1,0,100,0,0
767,-100,4,1,0,100,0,0
39167,300,4,1,0,100,1,8
39767,300,4,1,0,100,1,1
58967,-100,4,1,0,100,0,0
110567,300,4,1,0,100,1,8
111167,300,4,1,0,100,1,1
130367,-100,4,1,0,100,0,0
139967,-142.857142857143,4,1,0,70,0,0
149792,-138.888888888889,4,1,0,70,0,0
150017,-135.135135135135,4,1,0,70,0,0
150167,-131.578947368421,4,1,0,70,0,0
150467,-128.205128205128,4,1,0,70,0,0
150767,300,4,1,0,100,1,0
150767,-125,4,1,0,100,0,0
169367,-121.951219512195,4,1,0,100,0,0
169517,-119.047619047619,4,1,0,100,0,0
169667,-116.279069767442,4,1,0,100,0,0
169817,-113.636363636364,4,1,0,100,0,0
169967,-111.111111111111,4,1,0,100,0,0
190367,300,4,1,0,100,1,1
190367,-100,4,1,0,100,0,1
228767,-100,4,1,0,100,0,0

[HitObjects]
445,294,167,5,8,0:0:0:0:
434,272,467,1,8,0:0:0:0:
141,74,767,1,0,0:0:0:0:
174,73,1067,1,0,0:0:0:0:
212,78,1217,1,0,0:0:0:0:
392,328,1367,1,8,0:0:0:0:
173,92,1667,1,0,0:0:0:0:
373,274,1817,1,8,0:0:0:0:
159,66,1967,1,0,0:0:0:0:
141,94,2117,1,0,0:0:0:0:
402,310,2267,1,8,0:0:0:0:
431,271,2567,1,8,0:0:0:0:
141,98,2717,1,0,0:0:0:0:
184,76,2867,1,0,0:0:0:0:
197,100,3017,1,0,0:0:0:0:
450,246,3167,1,8,0:0:0:0:
143,100,3467,1,0,0:0:0:0:
80,65,3617,1,0,0:0:0:0:
388,313,3767,1,8,0:0:0:0:
140,92,4067,1,0,0:0:0:0:
371,334,4367,1,8,0:0:0:0:
178,73,4817,1,0,0:0:0:0:
384,340,4967,1,8,0:0:0:0:
377,307,5267,1,8,0:0:0:0:
164,26,5567,1,0,0:0:0:0:
167,52,5867,1,0,0:0:0:0:
224,65,6017,1,0,0:0:0:0:
387,279,6167,1,8,0:0:0:0:
397,279,6467,1,8,0:0:0:0:
145,78,6617,1,0,0:0:0:0:
390,288,6767,1,8,0:0:0:0:
366,350,6917,1,8,0:0:0:0:
200,138,7067,1,0,0:0:0:0:
396,329,7367,1,8,0:0:0:0:
135,69,7517,1,0,0:0:0:0:
174,51,7667,1,0,0:0:0:0:
170,92,7817,1,0,0:0:0:0:
336,299,7967,1,8,0:0:0:0:
170,92,8267,1,0,0:0:0:0:
94,41,8417,1,0,0:0:0:0:
410,267,8567,1,8,0:0:0:0:
201,96,8867,1,0,0:0:0:0:
417,264,9167,1,8,0:0:0:0:
100,62,9617,1,0,0:0:0:0:
406,276,9767,1,8,0:0:0:0:
163,82,10067,1,0,0:0:0:0:
194,89,10367,1,0,0:0:0:0:
193,48,10667,1,0,0:0:0:0:
148,98,10817,1,0,0:0:0:0:
392,244,10967,1,8,0:0:0:0:
148,98,11267,1,0,0:0:0:0:
391,306,11417,1,8,0:0:0:0:
197,111,11567,1,0,0:0:0:0:
27,134,11717,1,0,0:0:0:0:
393,274,11867,1,8,0:0:0:0:
370,296,12167,1,8,0:0:0:0:
191,66,12317,1,0,0:0:0:0:
160,74,12467,1,0,0:0:0:0:
164,97,12617,1,0,0:0:0:0:
399,276,12767,1,8,0:0:0:0:
201,135,13067,1,0,0:0:0:0:
189,124,13217,1,0,0:0:0:0:
459,240,13367,1,8,0:0:0:0:
180,75,13667,1,0,0:0:0:0:
407,241,13967,1,8,0:0:0:0:
203,114,14417,1,0,0:0:0:0:
399,243,14567,1,8,0:0:0:0:
412,333,14867,1,8,0:0:0:0:
177,65,15167,1,0,0:0:0:0:
147,98,15467,1,0,0:0:0:0:
147,98,15617,1,0,0:0:0:0:
348,286,15767,1,8,0:0:0:0:
380,301,16067,1,8,0:0:0:0:
129,41,16217,1,0,0:0:0:0:
367,267,16367,1,8,0:0:0:0:
342,325,16517,1,8,0:0:0:0:
141,51,16667,1,0,0:0:0:0:
364,250,16967,1,8,0:0:0:0:
183,78,17117,1,0,0:0:0:0:
164,100,17267,1,0,0:0:0:0:
169,97,17417,1,0,0:0:0:0:
350,288,17567,1,8,0:0:0:0:
184,60,17867,1,0,0:0:0:0:
184,60,18017,1,0,0:0:0:0:
424,242,18167,1,8,0:0:0:0:
407,241,18467,1,8,0:0:0:0:
477,212,18767,1,8,0:0:0:0:
425,249,18842,1,8,0:0:0:0:
372,288,18917,1,8,0:0:0:0:
399,309,19067,1,8,0:0:0:0:
399,309,19217,1,8,0:0:0:0:
391,114,19967,1,4,0:0:0:0:
159,53,20267,1,0,0:0:0:0:
181,82,20567,1,0,0:0:0:0:
436,238,20717,1,8,0:0:0:0:
325,325,21017,1,8,0:0:0:0:
387,286,21317,1,8,0:0:0:0:
407,276,21617,1,8,0:0:0:0:
175,78,21767,1,0,0:0:0:0:
412,303,21917,1,8,0:0:0:0:
367,309,22217,1,8,0:0:0:0:
347,286,22517,1,8,0:0:0:0:
229,62,22667,1,0,0:0:0:0:
423,282,22817,1,8,0:0:0:0:
191,49,22967,1,0,0:0:0:0:
171,95,23267,1,0,0:0:0:0:
380,301,23417,1,8,0:0:0:0:
429,293,23717,1,8,0:0:0:0:
420,282,24017,1,8,0:0:0:0:
409,295,24317,1,8,0:0:0:0:
383,322,24467,1,8,0:0:0:0:
372,296,24542,1,8,0:0:0:0:
346,351,24617,1,8,0:0:0:0:
351,278,25067,1,8,0:0:0:0:
414,255,25367,1,8,0:0:0:0:
119,55,25517,1,0,0:0:0:0:
418,297,25817,1,8,0:0:0:0:
371,333,26117,1,8,0:0:0:0:
197,62,26267,1,0,0:0:0:0:
387,303,26417,1,8,0:0:0:0:
167,32,26567,1,0,0:0:0:0:
75,73,26867,1,0,0:0:0:0:
385,279,27017,1,8,0:0:0:0:
326,259,27317,1,8,0:0:0:0:
124,82,27467,1,0,0:0:0:0:
376,291,27617,1,8,0:0:0:0:
175,44,27767,1,0,0:0:0:0:
431,267,27917,1,8,0:0:0:0:
430,251,28217,1,8,0:0:0:0:
431,254,28517,1,8,0:0:0:0:
176,94,28667,1,0,0:0:0:0:
441,262,28817,1,8,0:0:0:0:
93,45,28967,1,0,0:0:0:0:
426,291,29267,1,8,0:0:0:0:
407,317,29342,1,8,0:0:0:0:
407,317,29417,1,8,0:0:0:0:
385,102,29567,1,4,0:0:0:0:
385,102,29867,1,4,0:0:0:0:
366,328,30167,1,8,0:0:0:0:
412,289,30317,1,8,0:0:0:0:
181,83,30467,1,0,0:0:0:0:
367,133,30767,1,4,0:0:0:0:
163,126,31367,1,0,0:0:0:0:
163,126,31517,1,0,0:0:0:0:
424,296,31667,1,8,0:0:0:0:
388,88,31967,1,4,0:0:0:0:
388,88,32267,1,4,0:0:0:0:
328,318,32567,1,8,0:0:0:0:
164,51,32867,1,0,0:0:0:0:
416,257,33017,1,8,0:0:0:0:
376,318,33167,1,8,0:0:0:0:
376,318,33242,1,8,0:0:0:0:
414,343,33317,1,8,0:0:0:0:
395,322,33617,1,8,0:0:0:0:
163,61,33767,1,0,0:0:0:0:
163,61,33842,1,0,0:0:0:0:
82,34,33917,1,0,0:0:0:0:
312,353,34067,1,8,0:0:0:0:
197,62,34367,1,0,0:0:0:0:
384,303,34517,1,8,0:0:0:0:
151,106,34667,1,0,0:0:0:0:
441,220,34817,1,8,0:0:0:0:
342,295,34967,1,8,0:0:0:0:
369,280,35417,1,8,0:0:0:0:
156,112,35567,1,0,0:0:0:0:
315,317,35717,1,8,0:0:0:0:
381,318,36017,1,8,0:0:0:0:
413,266,36317,1,8,0:0:0:0:
431,267,36467,1,8,0:0:0:0:
207,92,36617,1,0,0:0:0:0:
370,304,36767,1,8,0:0:0:0:
169,65,37067,1,0,0:0:0:0:
360,323,37217,1,8,0:0:0:0:
160,58,37367,1,0,0:0:0:0:
74,33,37667,1,0,0:0:0:0:
400,249,37817,1,8,0:0:0:0:
375,293,37967,1,8,0:0:0:0:
375,293,38042,1,8,0:0:0:0:
364,339,38117,1,8,0:0:0:0:
348,319,38267,1,8,0:0:0:0:
365,298,38567,1,8,0:0:0:0:
377,276,38717,1,8,0:0:0:0:
164,66,38867,1,0,0:0:0:0:
411,259,39017,1,8,0:0:0:0:
178,247,39767,1,12,0:0:0:0:
443,276,40367,1,8,0:0:0:0:
134,74,40667,1,0,0:0:0:0:
167,69,40817,1,0,0:0:0:0:
405,265,40967,1,8,0:0:0:0:
196,75,41267,1,0,0:0:0:0:
412,300,41567,1,8,0:0:0:0:
177,101,41717,1,0,0:0:0:0:
421,276,42017,1,8,0:0:0:0:
177,101,42167,1,0,0:0:0:0:
185,68,42467,1,0,0:0:0:0:
426,273,43067,1,8,0:0:0:0:
105,108,43367,1,0,0:0:0:0:
148,83,43667,1,0,0:0:0:0:
180,92,43817,1,0,0:0:0:0:
427,247,43967,1,8,0:0:0:0:
177,60,44267,1,0,0:0:0:0:
370,302,44567,1,8,0:0:0:0:
145,110,44867,1,0,0:0:0:0:
177,110,45467,1,0,0:0:0:0:
112,96,45617,1,0,0:0:0:0:
372,282,45767,1,8,0:0:0:0:
153,87,46067,1,0,0:0:0:0:
409,296,46367,1,8,0:0:0:0:
162,81,46517,1,0,0:0:0:0:
389,295,46817,1,8,0:0:0:0:
162,81,46967,1,0,0:0:0:0:
375,302,47567,1,8,0:0:0:0:
472,249,47867,1,8,0:0:0:0:
162,70,48167,1,0,0:0:0:0:
141,107,48467,1,0,0:0:0:0:
141,107,48617,1,0,0:0:0:0:
412,282,48767,1,8,0:0:0:0:
187,116,49067,1,0,0:0:0:0:
170,73,49367,1,0,0:0:0:0:
158,100,49517,1,0,0:0:0:0:
170,73,49667,1,0,0:0:0:0:
461,252,49967,1,8,0:0:0:0:
202,110,50267,1,0,0:0:0:0:
202,110,50417,1,0,0:0:0:0:
430,276,50567,1,8,0:0:0:0:
179,90,50867,1,0,0:0:0:0:
437,294,51167,1,8,0:0:0:0:
196,122,51317,1,0,0:0:0:0:
381,297,51617,1,8,0:0:0:0:
154,107,51767,1,0,0:0:0:0:
327,372,52367,1,8,0:0:0:0:
411,305,52667,1,8,0:0:0:0:
158,58,52967,1,0,0:0:0:0:
179,81,53267,1,0,0:0:0:0:
184,96,53417,1,0,0:0:0:0:
365,305,53567,1,8,0:0:0:0:
396,291,54017,1,8,0:0:0:0:
171,84,54167,1,0,0:0:0:0:
180,57,54467,1,0,0:0:0:0:
366,352,54767,1,8,0:0:0:0:
160,91,55067,1,0,0:0:0:0:
394,311,55217,1,8,0:0:0:0:
413,268,55367,1,8,0:0:0:0:
147,78,55667,1,0,0:0:0:0:
359,291,55967,1,8,0:0:0:0:
167,62,56117,1,0,0:0:0:0:
375,302,56417,1,8,0:0:0:0:
201,80,56567,1,0,0:0:0:0:
304,342,57167,1,8,0:0:0:0:
156,62,57767,1,0,0:0:0:0:
156,62,58067,1,0,0:0:0:0:
472,228,58367,1,8,0:0:0:0:
109,51,58517,1,0,0:0:0:0:
405,289,58817,1,8,0:0:0:0:
173,84,58967,1,0,0:0:0:0:
196,96,59267,1,0,0:0:0:0:
165,101,59417,1,0,0:0:0:0:
373,295,59567,1,8,0:0:0:0:
87,62,59867,1,0,0:0:0:0:
459,299,60017,1,8,0:0:0:0:
156,50,60167,1,0,0:0:0:0:
196,106,60317,1,0,0:0:0:0:
400,284,60467,1,8,0:0:0:0:
376,301,60767,1,8,0:0:0:0:
173,97,60917,1,0,0:0:0:0:
178,93,61067,1,0,0:0:0:0:
151,55,61217,1,0,0:0:0:0:
455,271,61367,1,8,0:0:0:0:
146,108,61667,1,0,0:0:0:0:
146,108,61817,1,0,0:0:0:0:
398,292,61967,1,8,0:0:0:0:
177,115,62267,1,0,0:0:0:0:
364,253,62567,1,8,0:0:0:0:
233,96,63017,1,0,0:0:0:0:
392,327,63167,1,8,0:0:0:0:
408,278,63467,1,8,0:0:0:0:
204,117,63767,1,0,0:0:0:0:
166,90,64067,1,0,0:0:0:0:
168,91,64217,1,0,0:0:0:0:
447,250,64367,1,8,0:0:0:0:
415,248,64667,1,8,0:0:0:0:
135,71,64817,1,0,0:0:0:0:
417,280,64967,1,8,0:0:0:0:
360,312,65117,1,8,0:0:0:0:
141,78,65267,1,0,0:0:0:0:
443,289,65567,1,8,0:0:0:0:
157,49,65717,1,0,0:0:0:0:
159,75,65867,1,0,0:0:0:0:
162,95,66017,1,0,0:0:0:0:
386,270,66167,1,8,0:0:0:0:
118,32,66467,1,0,0:0:0:0:
167,61,66617,1,0,0:0:0:0:
415,260,66767,1,8,0:0:0:0:
376,289,66917,1,8,0:0:0:0:
120,48,67217,1,0,0:0:0:0:
140,50,67367,1,0,0:0:0:0:
365,278,67667,1,8,0:0:0:0:
365,278,67817,1,8,0:0:0:0:
145,84,68117,1,0,0:0:0:0:
159,87,68267,1,0,0:0:0:0:
174,48,68567,1,0,0:0:0:0:
400,300,68717,1,8,0:0:0:0:
155,71,68867,1,0,0:0:0:0:
159,87,69017,1,0,0:0:0:0:
444,270,69167,1,8,0:0:0:0:
170,109,69467,1,0,0:0:0:0:
391,305,69617,1,8,0:0:0:0:
176,95,69767,1,0,0:0:0:0:
156,71,69917,1,0,0:0:0:0:
374,300,70067,1,8,0:0:0:0:
340,299,70367,1,8,0:0:0:0:
171,80,70517,1,0,0:0:0:0:
165,90,70667,1,0,0:0:0:0:
152,76,70817,1,0,0:0:0:0:
377,290,70967,1,8,0:0:0:0:
162,80,71267,1,0,0:0:0:0:
165,90,71417,1,0,0:0:0:0:
411,276,71567,1,8,0:0:0:0:
162,72,71867,1,0,0:0:0:0:
402,275,72167,1,8,0:0:0:0:
175,52,72617,1,0,0:0:0:0:
421,240,72767,1,8,0:0:0:0:
435,244,73067,1,8,0:0:0:0:
149,94,73367,1,0,0:0:0:0:
174,73,73667,1,0,0:0:0:0:
156,108,73817,1,0,0:0:0:0:
380,256,73967,1,8,0:0:0:0:
393,275,74267,1,8,0:0:0:0:
177,118,74417,1,0,0:0:0:0:
412,253,74567,1,8,0:0:0:0:
382,293,74717,1,8,0:0:0:0:
168,85,74867,1,0,0:0:0:0:
394,280,75167,1,8,0:0:0:0:
134,60,75317,1,0,0:0:0:0:
175,56,75467,1,0,0:0:0:0:
195,84,75617,1,0,0:0:0:0:
442,254,75767,1,8,0:0:0:0:
157,73,76067,1,0,0:0:0:0:
159,72,76217,1,0,0:0:0:0:
421,256,76367,1,8,0:0:0:0:
198,65,76667,1,0,0:0:0:0:
345,274,76967,1,8,0:0:0:0:
421,288,77117,1,8,0:0:0:0:
189,82,77267,1,0,0:0:0:0:
178,64,77417,1,0,0:0:0:0:
404,260,77567,1,8,0:0:0:0:
387,296,77867,1,8,0:0:0:0:
373,307,77942,1,8,0:0:0:0:
393,264,78017,1,8,0:0:0:0:
158,73,78167,1,0,0:0:0:0:
424,262,79967,1,8,0:0:0:0:
414,115,80567,1,4,0:0:0:0:
143,53,80867,1,0,0:0:0:0:
451,279,81167,1,8,0:0:0:0:
193,85,81317,1,0,0:0:0:0:
421,248,81617,1,8,0:0:0:0:
425,301,81917,1,8,0:0:0:0:
172,78,82067,1,0,0:0:0:0:
172,78,82367,1,0,0:0:0:0:
438,251,82517,1,8,0:0:0:0:
415,247,82817,1,8,0:0:0:0:
406,265,83117,1,8,0:0:0:0:
132,56,83267,1,0,0:0:0:0:
384,287,83417,1,8,0:0:0:0:
395,297,83567,1,8,0:0:0:0:
377,328,83717,1,8,0:0:0:0:
148,89,83867,1,0,0:0:0:0:
478,207,84017,1,8,0:0:0:0:
345,262,84317,1,8,0:0:0:0:
381,288,84617,1,8,0:0:0:0:
369,291,84692,1,8,0:0:0:0:
394,288,84767,1,8,0:0:0:0:
80,63,84917,1,0,0:0:0:0:
368,314,85067,1,8,0:0:0:0:
156,46,85367,1,0,0:0:0:0:
142,65,85667,1,0,0:0:0:0:
441,230,85817,1,8,0:0:0:0:
183,31,85967,1,0,0:0:0:0:
407,265,86117,1,8,0:0:0:0:
196,126,86267,1,0,0:0:0:0:
371,276,86417,1,8,0:0:0:0:
188,68,86867,1,0,0:0:0:0:
339,293,87017,1,8,0:0:0:0:
449,252,87167,1,8,0:0:0:0:
416,297,87317,1,8,0:0:0:0:
143,111,87467,1,0,0:0:0:0:
376,290,87617,1,8,0:0:0:0:
431,273,87917,1,8,0:0:0:0:
154,57,88067,1,0,0:0:0:0:
153,69,88217,1,0,0:0:0:0:
372,323,88367,1,8,0:0:0:0:
151,81,88667,1,0,0:0:0:0:
147,59,88742,1,0,0:0:0:0:
147,59,88817,1,0,0:0:0:0:
459,250,88967,1,8,0:0:0:0:
445,100,90167,1,4,0:0:0:0:
402,249,90467,1,8,0:0:0:0:
160,96,90767,1,0,0:0:0:0:
215,109,90917,1,0,0:0:0:0:
436,263,91067,1,8,0:0:0:0:
104,113,91217,1,0,0:0:0:0:
120,50,91367,1,0,0:0:0:0:
376,257,91667,1,8,0:0:0:0:
167,50,91967,1,0,0:0:0:0:
74,51,92117,1,0,0:0:0:0:
440,244,92267,1,8,0:0:0:0:
133,17,92417,1,0,0:0:0:0:
375,264,92567,1,8,0:0:0:0:
136,57,93017,1,0,0:0:0:0:
424,231,93167,1,8,0:0:0:0:
242,82,93617,1,0,0:0:0:0:
372,353,93767,1,8,0:0:0:0:
430,301,93917,1,8,0:0:0:0:
400,253,94067,1,8,0:0:0:0:
160,89,94217,1,0,0:0:0:0:
338,313,94367,1,8,0:0:0:0:
383,331,94667,1,8,0:0:0:0:
181,87,94967,1,0,0:0:0:0:
373,321,95117,1,8,0:0:0:0:
434,248,95267,1,8,0:0:0:0:
157,74,95417,1,0,0:0:0:0:
341,249,95567,1,8,0:0:0:0:
401,240,95867,1,8,0:0:0:0:
170,108,96017,1,0,0:0:0:0:
147,80,96167,1,0,0:0:0:0:
380,236,96467,1,8,0:0:0:0:
407,251,96767,1,8,0:0:0:0:
183,79,96917,1,0,0:0:0:0:
387,328,97067,1,8,0:0:0:0:
343,333,97217,1,8,0:0:0:0:
199,70,97367,1,0,0:0:0:0:
436,218,97667,1,8,0:0:0:0:
404,318,97967,1,8,0:0:0:0:
188,78,98117,1,0,0:0:0:0:
385,319,98267,1,8,0:0:0:0:
386,326,98417,1,8,0:0:0:0:
130,95,98567,1,0,0:0:0:0:
365,285,98867,1,8,0:0:0:0:
441,307,99167,1,8,0:0:0:0:
370,318,99317,1,8,0:0:0:0:
365,285,99467,1,8,0:0:0:0:
365,285,99617,1,8,0:0:0:0:
154,55,99767,1,0,0:0:0:0:
166,85,100067,1,0,0:0:0:0:
166,85,100367,1,0,0:0:0:0:
76,100,100667,1,0,0:0:0:0:
118,86,100967,1,0,0:0:0:0:
436,228,101267,1,8,0:0:0:0:
434,307,101417,1,8,0:0:0:0:
133,81,101567,1,0,0:0:0:0:
381,315,101867,1,8,0:0:0:0:
150,95,102017,1,0,0:0:0:0:
369,299,102167,1,8,0:0:0:0:
430,246,102467,1,8,0:0:0:0:
181,36,102767,1,0,0:0:0:0:
365,298,103067,1,8,0:0:0:0:
188,76,103217,1,0,0:0:0:0:
179,68,103367,1,0,0:0:0:0:
162,87,103517,1,0,0:0:0:0:
366,253,103667,1,8,0:0:0:0:
484,236,103967,1,8,0:0:0:0:
367,271,104267,1,8,0:0:0:0:
199,96,104417,1,0,0:0:0:0:
151,75,104567,1,0,0:0:0:0:
159,106,104717,1,0,0:0:0:0:
373,289,104867,1,8,0:0:0:0:
379,296,105017,1,8,0:0:0:0:
207,76,105167,1,0,0:0:0:0:
164,60,105767,1,0,0:0:0:0:
179,68,105917,1,0,0:0:0:0:
442,238,106067,1,8,0:0:0:0:
93,68,106217,1,0,0:0:0:0:
389,301,106367,1,8,0:0:0:0:
160,32,106667,1,0,0:0:0:0:
333,235,106967,1,8,0:0:0:0:
188,85,107117,1,0,0:0:0:0:
77,106,107267,1,0,0:0:0:0:
188,85,107417,1,0,0:0:0:0:
342,324,107567,1,8,0:0:0:0:
342,324,107867,1,8,0:0:0:0:
411,345,108167,1,8,0:0:0:0:
184,68,108267,1,0,0:0:0:0:
164,95,108467,1,0,0:0:0:0:
393,301,108767,1,8,0:0:0:0:
103,90,108867,1,0,0:0:0:0:
422,293,108967,1,8,0:0:0:0:
211,88,109067,1,0,0:0:0:0:
159,86,109367,1,0,0:0:0:0:
387,290,109467,1,8,0:0:0:0:
399,337,109667,1,8,0:0:0:0:
161,115,109767,1,0,0:0:0:0:
167,101,109967,1,0,0:0:0:0:
389,307,110567,1,8,0:0:0:0:
86,109,110867,1,0,0:0:0:0:
176,117,111017,1,0,0:0:0:0:
196,245,111167,1,12,0:0:0:0:
358,295,111767,1,8,0:0:0:0:
172,98,112067,1,0,0:0:0:0:
172,98,112217,1,0,0:0:0:0:
326,335,112367,1,8,0:0:0:0:
172,70,112667,1,0,0:0:0:0:
391,280,112967,1,8,0:0:0:0:
172,70,113117,1,0,0:0:0:0:
336,330,113417,1,8,0:0:0:0:
96,47,113567,1,0,0:0:0:0:
191,63,113867,1,0,0:0:0:0:
444,274,114167,1,8,0:0:0:0:
104,51,114767,1,0,0:0:0:0:
173,84,115067,1,0,0:0:0:0:
173,84,115217,1,0,0:0:0:0:
465,261,115367,1,8,0:0:0:0:
144,72,115667,1,0,0:0:0:0:
161,94,115967,1,0,0:0:0:0:
185,78,116267,1,0,0:0:0:0:
147,36,116867,1,0,0:0:0:0:
165,104,117017,1,0,0:0:0:0:
397,308,117167,1,8,0:0:0:0:
152,66,117467,1,0,0:0:0:0:
402,284,117767,1,8,0:0:0:0:
174,71,117917,1,0,0:0:0:0:
384,283,118217,1,8,0:0:0:0:
99,93,118367,1,0,0:0:0:0:
171,84,118667,1,0,0:0:0:0:
380,290,118967,1,8,0:0:0:0:
73,50,119567,1,0,0:0:0:0:
173,81,119867,1,0,0:0:0:0:
173,81,120017,1,0,0:0:0:0:
409,293,120167,1,8,0:0:0:0:
183,82,120467,1,0,0:0:0:0:
166,76,120767,1,0,0:0:0:0:
382,289,121367,1,8,0:0:0:0:
183,63,121667,1,0,0:0:0:0:
183,63,121817,1,0,0:0:0:0:
384,304,121967,1,8,0:0:0:0:
193,62,122267,1,0,0:0:0:0:
421,268,122567,1,8,0:0:0:0:
174,95,122717,1,0,0:0:0:0:
372,297,123017,1,8,0:0:0:0:
113,51,123167,1,0,0:0:0:0:
184,85,123467,1,0,0:0:0:0:
412,291,123767,1,8,0:0:0:0:
146,94,124367,1,0,0:0:0:0:
193,96,124667,1,0,0:0:0:0:
193,96,124817,1,0,0:0:0:0:
408,276,124967,1,8,0:0:0:0:
162,95,125267,1,0,0:0:0:0:
404,298,125417,1,8,0:0:0:0:
202,84,125567,1,0,0:0:0:0:
188,85,125867,1,0,0:0:0:0:
423,275,126167,1,8,0:0:0:0:
199,93,126467,1,0,0:0:0:0:
199,93,126617,1,0,0:0:0:0:
391,300,126767,1,8,0:0:0:0:
33,36,127067,1,0,0:0:0:0:
391,300,127367,1,8,0:0:0:0:
181,91,127517,1,0,0:0:0:0:
411,303,127817,1,8,0:0:0:0:
194,80,127967,1,0,0:0:0:0:
402,269,128567,1,8,0:0:0:0:
169,69,129167,1,0,0:0:0:0:
168,79,129467,1,0,0:0:0:0:
376,301,129767,1,8,0:0:0:0:
204,102,129917,1,0,0:0:0:0:
410,295,130217,1,8,0:0:0:0:
192,85,130367,1,0,0:0:0:0:
386,303,139967,5,8,0:0:0:0:
417,277,140567,1,8,0:0:0:0:
384,275,141167,1,8,0:0:0:0:
179,83,141467,1,0,0:0:0:0:
167,91,141617,1,0,0:0:0:0:
401,265,141767,1,8,0:0:0:0:
201,53,142067,1,0,0:0:0:0:
166,102,142367,1,0,0:0:0:0:
166,102,142517,1,0,0:0:0:0:
171,63,142817,1,0,0:0:0:0:
458,262,142967,1,8,0:0:0:0:
209,87,143267,1,0,0:0:0:0:
209,87,143417,1,0,0:0:0:0:
390,258,143567,1,8,0:0:0:0:
172,85,143867,1,0,0:0:0:0:
172,85,144017,1,0,0:0:0:0:
377,307,144167,1,8,0:0:0:0:
377,307,144467,1,8,0:0:0:0:
436,278,144767,1,8,0:0:0:0:
327,310,145367,1,8,0:0:0:0:
182,73,145817,1,0,0:0:0:0:
432,286,145967,1,8,0:0:0:0:
168,84,146267,1,0,0:0:0:0:
168,83,146417,1,0,0:0:0:0:
365,294,146567,1,8,0:0:0:0:
123,75,146867,1,0,0:0:0:0:
427,268,147167,1,8,0:0:0:0:
135,63,147317,1,0,0:0:0:0:
189,68,147617,1,0,0:0:0:0:
377,258,147767,1,8,0:0:0:0:
175,57,148067,1,0,0:0:0:0:
185,82,148217,1,0,0:0:0:0:
384,308,148367,1,8,0:0:0:0:
170,83,148667,1,0,0:0:0:0:
170,83,148817,1,0,0:0:0:0:
344,304,148967,1,8,0:0:0:0:
158,76,149117,1,0,0:0:0:0:
400,270,149267,1,8,0:0:0:0:
100,114,149417,1,0,0:0:0:0:
472,255,149567,1,8,0:0:0:0:
368,328,149792,1,8,0:0:0:0:
412,291,150017,1,8,0:0:0:0:
402,305,150167,1,8,0:0:0:0:
417,276,150467,1,8,0:0:0:0:
140,277,150767,1,12,0:0:0:0:
397,272,151367,1,8,0:0:0:0:
397,272,151967,1,8,0:0:0:0:
196,79,152267,1,0,0:0:0:0:
196,79,152417,1,0,0:0:0:0:
456,250,152567,1,8,0:0:0:0:
183,96,152867,1,0,0:0:0:0:
411,118,153167,1,4,0:0:0:0:
146,132,153317,1,0,0:0:0:0:
197,118,153617,1,0,0:0:0:0:
404,308,153767,1,8,0:0:0:0:
180,78,154067,1,0,0:0:0:0:
180,78,154217,1,0,0:0:0:0:
405,316,154367,1,8,0:0:0:0:
186,80,154667,1,0,0:0:0:0:
172,81,154817,1,0,0:0:0:0:
379,302,154967,1,8,0:0:0:0:
386,309,155267,1,8,0:0:0:0:
214,229,155567,1,12,0:0:0:0:
383,292,156167,1,8,0:0:0:0:
158,120,156617,1,0,0:0:0:0:
404,271,156767,1,8,0:0:0:0:
172,69,157067,1,0,0:0:0:0:
172,69,157217,1,0,0:0:0:0:
363,294,157367,1,8,0:0:0:0:
162,79,157667,1,0,0:0:0:0:
405,131,157967,1,4,0:0:0:0:
138,41,158117,1,0,0:0:0:0:
182,114,158417,1,0,0:0:0:0:
392,311,158567,1,8,0:0:0:0:
145,66,158867,1,0,0:0:0:0:
195,85,159017,1,0,0:0:0:0:
352,312,159167,1,8,0:0:0:0:
194,77,159467,1,0,0:0:0:0:
194,77,159617,1,0,0:0:0:0:
349,302,159767,1,8,0:0:0:0:
198,78,159917,1,0,0:0:0:0:
371,318,160067,1,8,0:0:0:0:
184,86,160217,1,0,0:0:0:0:
137,236,160367,1,12,0:0:0:0:
403,289,160967,1,8,0:0:0:0:
403,289,161567,1,8,0:0:0:0:
183,92,161867,1,0,0:0:0:0:
183,92,162017,1,0,0:0:0:0:
393,280,162167,1,8,0:0:0:0:
207,105,162467,1,0,0:0:0:0:
451,105,162767,1,4,0:0:0:0:
127,115,162917,1,0,0:0:0:0:
201,101,163217,1,0,0:0:0:0:
434,287,163367,1,8,0:0:0:0:
113,48,163667,1,0,0:0:0:0:
188,109,163817,1,0,0:0:0:0:
404,272,163967,1,8,0:0:0:0:
186,74,164267,1,0,0:0:0:0:
181,84,164417,1,0,0:0:0:0:
448,245,164567,1,8,0:0:0:0:
387,307,164867,1,8,0:0:0:0:
183,247,165167,1,12,0:0:0:0:
389,249,165767,1,8,0:0:0:0:
203,95,166217,1,0,0:0:0:0:
421,273,166367,1,8,0:0:0:0:
193,89,166667,1,0,0:0:0:0:
189,106,166817,1,0,0:0:0:0:
377,335,166967,1,8,0:0:0:0:
103,39,167267,1,0,0:0:0:0:
429,121,167567,1,4,0:0:0:0:
187,93,167717,1,0,0:0:0:0:
187,93,168017,1,0,0:0:0:0:
433,274,168167,1,8,0:0:0:0:
182,74,168467,1,0,0:0:0:0:
182,74,168617,1,0,0:0:0:0:
415,245,168767,1,8,0:0:0:0:
195,67,169067,1,0,0:0:0:0:
178,80,169217,1,0,0:0:0:0:
407,264,169367,1,8,0:0:0:0:
373,312,169517,1,8,0:0:0:0:
373,312,169667,1,8,0:0:0:0:
401,321,169817,1,8,0:0:0:0:
207,260,169967,1,12,0:0:0:0:
446,228,170567,1,8,0:0:0:0:
431,260,171167,1,8,0:0:0:0:
175,69,171467,1,0,0:0:0:0:
175,69,171617,1,0,0:0:0:0:
415,277,171767,1,8,0:0:0:0:
139,38,172067,1,0,0:0:0:0:
417,96,172367,1,4,0:0:0:0:
158,70,172517,1,0,0:0:0:0:
180,91,172817,1,0,0:0:0:0:
376,277,172967,1,8,0:0:0:0:
173,57,173267,1,0,0:0:0:0:
144,103,173417,1,0,0:0:0:0:
391,280,173567,1,8,0:0:0:0:
195,80,173867,1,0,0:0:0:0:
195,80,174017,1,0,0:0:0:0:
416,257,174167,1,8,0:0:0:0:
359,338,174467,1,8,0:0:0:0:
167,232,174767,1,12,0:0:0:0:
423,291,175367,1,8,0:0:0:0:
168,40,175817,1,0,0:0:0:0:
410,264,175967,1,8,0:0:0:0:
208,54,176267,1,0,0:0:0:0:
166,72,176417,1,0,0:0:0:0:
374,317,176567,1,8,0:0:0:0:
202,63,176867,1,0,0:0:0:0:
446,135,177167,1,4,0:0:0:0:
212,57,177317,1,0,0:0:0:0:
184,78,177617,1,0,0:0:0:0:
403,292,177767,1,8,0:0:0:0:
171,40,178067,1,0,0:0:0:0:
171,113,178217,1,0,0:0:0:0:
430,297,178367,1,8,0:0:0:0:
198,100,178667,1,0,0:0:0:0:
198,100,178817,1,0,0:0:0:0:
395,270,178967,1,8,0:0:0:0:
395,317,179042,1,8,0:0:0:0:
446,293,179117,1,8,0:0:0:0:
199,75,179267,1,0,0:0:0:0:
180,245,179567,1,12,0:0:0:0:
412,250,180167,1,8,0:0:0:0:
389,319,180767,1,8,0:0:0:0:
168,79,181067,1,0,0:0:0:0:
168,79,181217,1,0,0:0:0:0:
397,290,181367,1,8,0:0:0:0:
174,69,181667,1,0,0:0:0:0:
391,96,181967,1,4,0:0:0:0:
193,95,182117,1,0,0:0:0:0:
145,62,182417,1,0,0:0:0:0:
383,287,182567,1,8,0:0:0:0:
179,103,182867,1,0,0:0:0:0:
179,103,183017,1,0,0:0:0:0:
373,283,183167,1,8,0:0:0:0:
162,71,183467,1,0,0:0:0:0:
200,114,183617,1,0,0:0:0:0:
429,254,183767,1,8,0:0:0:0:
372,281,184067,1,8,0:0:0:0:
161,248,184367,1,12,0:0:0:0:
357,302,184967,1,8,0:0:0:0:
169,135,185417,1,0,0:0:0:0:
379,287,185567,1,8,0:0:0:0:
177,108,185867,1,0,0:0:0:0:
177,108,186017,1,0,0:0:0:0:
369,270,186167,1,8,0:0:0:0:
182,89,186467,1,0,0:0:0:0:
381,118,186767,1,4,0:0:0:0:
199,81,186917,1,0,0:0:0:0:
208,90,187217,1,0,0:0:0:0:
425,244,187367,1,8,0:0:0:0:
155,72,187667,1,0,0:0:0:0:
203,105,187817,1,0,0:0:0:0:
360,312,187967,1,8,0:0:0:0:
198,77,188267,1,0,0:0:0:0:
198,77,188417,1,0,0:0:0:0:
403,272,188567,1,8,0:0:0:0:
193,95,188717,1,0,0:0:0:0:
361,301,188867,1,8,0:0:0:0:
207,78,189017,1,0,0:0:0:0:
405,265,189167,1,8,0:0:0:0:
382,322,189317,1,8,0:0:0:0:
185,118,189467,1,0,0:0:0:0:
185,118,189617,1,0,0:0:0:0:
366,267,189767,1,8,0:0:0:0:
156,256,190367,1,12,0:0:0:0:
348,330,190967,1,8,0:0:0:0:
195,112,191267,1,0,0:0:0:0:
168,95,191417,1,0,0:0:0:0:
346,313,191567,1,8,0:0:0:0:
200,102,191867,1,0,0:0:0:0:
422,291,192167,1,8,0:0:0:0:
123,67,192317,1,0,0:0:0:0:
400,267,192617,1,8,0:0:0:0:
39,49,192767,1,0,0:0:0:0:
148,86,193067,1,0,0:0:0:0:
451,257,193367,1,8,0:0:0:0:
150,62,193967,1,0,0:0:0:0:
183,89,194267,1,0,0:0:0:0:
183,82,194417,1,0,0:0:0:0:
458,258,194567,1,8,0:0:0:0:
176,62,194867,1,0,0:0:0:0:
157,82,195167,1,0,0:0:0:0:
180,72,195467,1,0,0:0:0:0:
186,105,196067,1,0,0:0:0:0:
186,105,196217,1,0,0:0:0:0:
428,262,196367,1,8,0:0:0:0:
183,87,196667,1,0,0:0:0:0:
428,291,196967,1,8,0:0:0:0:
207,114,197117,1,0,0:0:0:0:
367,285,197417,1,8,0:0:0:0:
191,95,197567,1,0,0:0:0:0:
183,100,197867,1,0,0:0:0:0:
352,309,198167,1,8,0:0:0:0:
199,73,198767,1,0,0:0:0:0:
184,88,199067,1,0,0:0:0:0:
184,88,199217,1,0,0:0:0:0:
367,277,199367,1,8,0:0:0:0:
182,105,199667,1,0,0:0:0:0:
176,84,199967,1,0,0:0:0:0:
448,252,200567,1,8,0:0:0:0:
171,87,200867,1,0,0:0:0:0:
171,87,201017,1,0,0:0:0:0:
360,295,201167,1,8,0:0:0:0:
166,111,201467,1,0,0:0:0:0:
408,280,201767,1,8,0:0:0:0:
154,59,201917,1,0,0:0:0:0:
382,291,202217,1,8,0:0:0:0:
170,92,202367,1,0,0:0:0:0:
184,117,202667,1,0,0:0:0:0:
382,301,202967,1,8,0:0:0:0:
162,67,203567,1,0,0:0:0:0:
176,81,203867,1,0,0:0:0:0:
167,57,204017,1,0,0:0:0:0:
446,236,204167,1,8,0:0:0:0:
159,64,204467,1,0,0:0:0:0:
161,75,204767,1,0,0:0:0:0:
185,103,205067,1,0,0:0:0:0:
392,282,205367,1,8,0:0:0:0:
177,83,205667,1,0,0:0:0:0:
177,83,205817,1,0,0:0:0:0:
424,268,205967,1,8,0:0:0:0:
208,159,206267,1,0,0:0:0:0:
400,280,206567,1,8,0:0:0:0:
157,70,206717,1,0,0:0:0:0:
320,328,207017,1,8,0:0:0:0:
162,70,207167,1,0,0:0:0:0:
420,317,207767,1,8,0:0:0:0:
141,67,208367,1,0,0:0:0:0:
179,63,208667,1,0,0:0:0:0:
179,63,208817,1,0,0:0:0:0:
408,272,208967,1,8,0:0:0:0:
428,302,209267,1,8,0:0:0:0:
191,268,209567,1,12,0:0:0:0:
387,286,210167,1,8,0:0:0:0:
181,70,210467,1,0,0:0:0:0:
154,49,210617,1,0,0:0:0:0:
424,276,210767,1,8,0:0:0:0:
196,81,211067,1,0,0:0:0:0:
463,264,211367,1,8,0:0:0:0:
147,78,211517,1,0,0:0:0:0:
360,311,211817,1,8,0:0:0:0:
133,59,211967,1,0,0:0:0:0:
152,69,212267,1,0,0:0:0:0:
404,286,212567,1,8,0:0:0:0:
342,342,212867,1,8,0:0:0:0:
165,90,213167,1,0,0:0:0:0:
182,59,213467,1,0,0:0:0:0:
182,59,213617,1,0,0:0:0:0:
449,273,213767,1,8,0:0:0:0:
185,83,214067,1,0,0:0:0:0:
136,91,214367,1,0,0:0:0:0:
173,93,214667,1,0,0:0:0:0:
412,273,214967,1,8,0:0:0:0:
181,89,215267,1,0,0:0:0:0:
181,89,215417,1,0,0:0:0:0:
433,293,215567,1,8,0:0:0:0:
196,100,215867,1,0,0:0:0:0:
378,288,216167,1,8,0:0:0:0:
189,81,216317,1,0,0:0:0:0:
406,286,216617,1,8,0:0:0:0:
150,75,216767,1,0,0:0:0:0:
196,100,217067,1,0,0:0:0:0:
428,290,217367,1,8,0:0:0:0:
196,87,217517,1,0,0:0:0:0:
393,297,217817,1,8,0:0:0:0:
403,300,217967,1,8,0:0:0:0:
403,300,218117,1,8,0:0:0:0:
403,300,218267,1,8,0:0:0:0:
383,293,218567,1,8,0:0:0:0:
177,93,218717,1,0,0:0:0:0:
143,61,218867,1,0,0:0:0:0:
164,64,219017,1,0,0:0:0:0:
383,276,219167,1,8,0:0:0:0:
349,338,219767,1,8,0:0:0:0:
161,69,220067,1,0,0:0:0:0:
161,69,220217,1,0,0:0:0:0:
428,289,220367,1,8,0:0:0:0:
146,95,220667,1,0,0:0:0:0:
379,293,220967,1,8,0:0:0:0:
165,88,221117,1,0,0:0:0:0:
357,298,221417,1,8,0:0:0:0:
154,68,221567,1,0,0:0:0:0:
166,95,221867,1,0,0:0:0:0:
429,307,222167,1,8,0:0:0:0:
371,312,222467,1,8,0:0:0:0:
198,105,222767,1,0,0:0:0:0:
177,59,223067,1,0,0:0:0:0:
177,59,223217,1,0,0:0:0:0:
385,308,223367,1,8,0:0:0:0:
194,81,223667,1,0,0:0:0:0:
183,74,223967,1,0,0:0:0:0:
183,74,224267,1,0,0:0:0:0:
416,286,224567,1,8,0:0:0:0:
183,110,224867,1,0,0:0:0:0:
183,110,225017,1,0,0:0:0:0:
430,287,225167,1,8,0:0:0:0:
182,131,225467,1,0,0:0:0:0:
405,306,225767,1,8,0:0:0:0:
223,106,225917,1,0,0:0:0:0:
390,306,226217,1,8,0:0:0:0:
194,78,226367,1,0,0:0:0:0:
400,312,226967,1,8,0:0:0:0:
133,71,227567,1,0,0:0:0:0:
412,290,227867,1,8,0:0:0:0:
412,290,228017,1,8,0:0:0:0:
182,63,228167,1,0,0:0:0:0:
376,299,228317,1,8,0:0:0:0:
401,306,228617,1,8,0:0:0:0:
163,67,228767,1,0,0:0:0:0:
127,271,229367,1,12,0:0:0:0:
