osu file format v14

[General]
AudioFilename: audio.mp3
AudioLeadIn: 0
PreviewTime: 39767
Countdown: 0
SampleSet: Normal
StackLeniency: 0.7
Mode: 1
LetterboxInBreaks: 0
WidescreenStoryboard: 0

[Editor]
DistanceSpacing: 0.8
BeatDivisor: 4
GridSize: 8
TimelineZoom: 3.899998

[Metadata]
Title:Powercore
TitleUnicode:Powercore
Artist:Nekrogoblikon
ArtistUnicode:Nekrogoblikon
Creator:roxan
Version:Massive Fail
Source:osu!
Tags:english goblin metal metalcore core power fantasy comedy hard rock melodic death electronic featured artist fa welcome to bonkers
BeatmapID:2676284
BeatmapSetID:1289196

[Difficulty]
HPDrainRate:6
CircleSize:5
OverallDifficulty:6
ApproachRate:5
SliderMultiplier:1.4
SliderTickRate:1

[Events]
//Background and Video events
0,0,"FIyEEF.jpg",0,110
//Break Periods
2,130567,138767
//Storyboard Layer 0 (Background)
//Storyboard Layer 1 (Fail)
//Storyboard Layer 2 (Pass)
//Storyboard Layer 3 (Foreground)
//Storyboard Layer 4 (Overlay)
//Storyboard Sound Samples

[TimingPoints]
-433,300,4,1,0,100,1,0
167,-133.333333333333,4,1,0,100,0,0
767,-100,4,1,0,100,0,0
39167,300,4,1,0,100,1,8
39317,-100,4,1,0,100,0,0
39767,300,4,1,0,100,1,1
39767,-90.9090909090909,4,1,0,100,0,1
57467,-91.743119266055,4,1,0,100,0,1
57767,-92.5925925925926,4,1,0,100,0,1
58067,-93.4579439252336,4,1,0,100,0,1
58142,-94.3396226415094,4,1,0,100,0,1
58217,-95.2380952380952,4,1,0,100,0,1
58292,-96.1538461538461,4,1,0,100,0,1
58367,-97.0873786407767,4,1,0,100,0,1
58517,-98.0392156862745,4,1,0,100,0,1
58817,-99.009900990099,4,1,0,100,0,1
58967,-100,4,1,0,100,0,0
67217,-100,4,1,0,80,0,0
68117,-100,4,1,0,80,0,0
78317,-133.333333333333,4,1,0,100,0,0
80567,-100,4,1,0,100,0,0
90167,-95.2380952380952,4,1,0,100,0,0
99317,-96.1538461538461,4,1,0,100,0,0
99467,-97.0873786407767,4,1,0,100,0,0
99617,-98.0392156862745,4,1,0,100,0,0
99692,-99.009900990099,4,1,0,100,0,0
99767,-100,4,1,0,100,0,0
110567,300,4,1,0,100,1,8
110567,-133.333333333333,4,1,0,100,0,0
111167,300,4,1,0,100,1,1
111167,-90.9090909090909,4,1,0,100,0,1
128867,-91.743119266055,4,1,0,100,0,1
129167,-92.5925925925926,4,1,0,100,0,1
129467,-93.4579439252336,4,1,0,100,0,1
129542,-94.3396226415094,4,1,0,100,0,1
129617,-95.2380952380952,4,1,0,100,0,1
129692,-96.1538461538461,4,1,0,100,0,1
129767,-97.0873786407767,4,1,0,100,0,1
129917,-98.0392156862745,4,1,0,100,0,1
130217,-99.009900990099,4,1,0,100,0,1
130367,-100,4,1,0,100,0,0
131567,-133.333333333333,4,1,0,100,0,0
139967,-142.857142857143,4,1,0,70,0,0
149792,-138.888888888889,4,1,0,70,0,0
150017,-135.135135135135,4,1,0,70,0,0
150167,-131.578947368421,4,1,0,70,0,0
150467,-128.205128205128,4,1,0,70,0,0
150767,300,4,1,0,100,1,0
150767,-125,4,1,0,100,0,0
168917,-123.456790123457,4,1,0,100,0,0
169067,-121.951219512195,4,1,0,100,0,0
169142,-120.481927710843,4,1,0,100,0,0
169217,-119.047619047619,4,1,0,100,0,0
169292,-117.647058823529,4,1,0,100,0,0
169367,-116.279069767442,4,1,0,100,0,0
169517,-114.942528735632,4,1,0,100,0,0
169667,-113.636363636364,4,1,0,100,0,0
169817,-112.359550561798,4,1,0,100,0,0
169967,-111.111111111111,4,1,0,100,0,0
179267,-109.89010989011,4,1,0,100,0,0
179342,-108.695652173913,4,1,0,100,0,0
179417,-107.52688172043,4,1,0,100,0,0
179492,-106.382978723404,4,1,0,100,0,0
179567,-105.263157894737,4,1,0,100,0,0
190367,300,4,1,0,100,1,1
190367,-90.9090909090909,4,1,0,100,0,1
228767,-90.9090909090908,4,1,0,100,0,0

[HitObjects]
445,294,167,5,8,0:0:0:0:
429,273,467,1,8,0:0:0:0:
392,328,767,1,8,0:0:0:0:
166,88,842,1,0,0:0:0:0:
166,88,917,1,0,0:0:0:0:
174,73,1067,1,0,0:0:0:0:
212,78,1217,1,0,0:0:0:0:
392,328,1367,1,8,0:0:0:0:
173,92,1667,1,0,0:0:0:0:
173,92,1742,1,0,0:0:0:0:
390,310,1817,1,8,0:0:0:0:
390,310,1967,1,8,0:0:0:0:
211,98,2042,1,0,0:0:0:0:
193,102,2117,1,0,0:0:0:0:
402,310,2267,1,8,0:0:0:0:
417,279,2342,1,8,0:0:0:0:
169,69,2417,1,0,0:0:0:0:
431,271,2567,1,8,0:0:0:0:
175,76,2717,1,0,0:0:0:0:
85,132,2867,1,0,0:0:0:0:
197,100,3017,1,0,0:0:0:0:
197,100,3092,1,0,0:0:0:0:
450,246,3167,1,8,0:0:0:0:
427,286,3242,1,8,0:0:0:0:
135,57,3317,1,0,0:0:0:0:
143,100,3467,1,0,0:0:0:0:
80,65,3617,1,0,0:0:0:0:
388,313,3767,1,8,0:0:0:0:
400,284,3842,1,8,0:0:0:0:
54,33,3917,1,0,0:0:0:0:
97,109,3992,1,0,0:0:0:0:
411,318,4067,1,8,0:0:0:0:
181,81,4217,1,0,0:0:0:0:
162,74,4292,1,0,0:0:0:0:
371,334,4367,1,8,0:0:0:0:
406,310,4517,1,8,0:0:0:0:
125,69,4817,1,0,0:0:0:0:
384,340,4967,1,8,0:0:0:0:
155,62,5117,1,0,0:0:0:0:
377,307,5267,1,8,0:0:0:0:
136,60,5417,1,0,0:0:0:0:
417,257,5567,1,8,0:0:0:0:
219,92,5642,1,0,0:0:0:0:
219,92,5717,1,0,0:0:0:0:
167,52,5867,1,0,0:0:0:0:
224,65,6017,1,0,0:0:0:0:
387,279,6167,1,8,0:0:0:0:
397,279,6467,1,8,0:0:0:0:
397,279,6542,1,8,0:0:0:0:
219,98,6617,1,0,0:0:0:0:
390,288,6767,1,8,0:0:0:0:
390,288,6842,1,8,0:0:0:0:
151,67,6917,1,0,0:0:0:0:
200,138,7067,1,0,0:0:0:0:
200,138,7142,1,0,0:0:0:0:
382,279,7217,1,8,0:0:0:0:
396,329,7367,1,8,0:0:0:0:
186,62,7517,1,0,0:0:0:0:
174,51,7667,1,0,0:0:0:0:
170,92,7817,1,0,0:0:0:0:
170,92,7892,1,0,0:0:0:0:
336,299,7967,1,8,0:0:0:0:
336,299,8042,1,8,0:0:0:0:
89,90,8117,1,0,0:0:0:0:
170,92,8267,1,0,0:0:0:0:
94,41,8417,1,0,0:0:0:0:
410,267,8567,1,8,0:0:0:0:
180,77,8642,1,0,0:0:0:0:
180,77,8717,1,0,0:0:0:0:
192,86,8792,1,0,0:0:0:0:
431,276,8867,1,8,0:0:0:0:
173,72,9017,1,0,0:0:0:0:
417,264,9167,1,8,0:0:0:0:
408,287,9242,1,8,0:0:0:0:
137,70,9317,1,0,0:0:0:0:
431,276,9467,1,8,0:0:0:0:
100,62,9617,1,0,0:0:0:0:
406,276,9767,1,8,0:0:0:0:
406,276,9842,1,8,0:0:0:0:
405,277,9917,1,8,0:0:0:0:
405,277,9992,1,8,0:0:0:0:
163,82,10067,1,0,0:0:0:0:
418,253,10217,1,8,0:0:0:0:
440,275,10367,1,8,0:0:0:0:
207,86,10442,1,0,0:0:0:0:
184,92,10517,1,0,0:0:0:0:
193,48,10667,1,0,0:0:0:0:
148,98,10817,1,0,0:0:0:0:
392,244,10967,1,8,0:0:0:0:
148,98,11267,1,0,0:0:0:0:
148,98,11342,1,0,0:0:0:0:
358,275,11417,1,8,0:0:0:0:
382,305,11567,1,8,0:0:0:0:
120,69,11642,1,0,0:0:0:0:
168,84,11717,1,0,0:0:0:0:
393,274,11867,1,8,0:0:0:0:
387,283,11942,1,8,0:0:0:0:
155,66,12017,1,0,0:0:0:0:
370,296,12167,1,8,0:0:0:0:
150,58,12317,1,0,0:0:0:0:
160,74,12467,1,0,0:0:0:0:
164,97,12617,1,0,0:0:0:0:
164,97,12692,1,0,0:0:0:0:
399,276,12767,1,8,0:0:0:0:
386,296,12842,1,8,0:0:0:0:
153,64,12917,1,0,0:0:0:0:
201,135,13067,1,0,0:0:0:0:
189,124,13217,1,0,0:0:0:0:
459,240,13367,1,8,0:0:0:0:
354,327,13442,1,8,0:0:0:0:
145,86,13517,1,0,0:0:0:0:
164,97,13592,1,0,0:0:0:0:
383,302,13667,1,8,0:0:0:0:
167,59,13817,1,0,0:0:0:0:
167,59,13892,1,0,0:0:0:0:
407,241,13967,1,8,0:0:0:0:
393,335,14117,1,8,0:0:0:0:
203,114,14417,1,0,0:0:0:0:
203,114,14492,1,0,0:0:0:0:
399,243,14567,1,8,0:0:0:0:
195,69,14717,1,0,0:0:0:0:
406,270,14867,1,8,0:0:0:0:
374,247,14942,1,8,0:0:0:0:
403,324,15017,1,8,0:0:0:0:
360,342,15092,1,8,0:0:0:0:
177,65,15167,1,0,0:0:0:0:
181,73,15242,1,0,0:0:0:0:
454,211,15317,1,8,0:0:0:0:
147,98,15467,1,0,0:0:0:0:
147,98,15617,1,0,0:0:0:0:
348,286,15767,1,8,0:0:0:0:
380,301,16067,1,8,0:0:0:0:
376,305,16142,1,8,0:0:0:0:
241,83,16217,1,0,0:0:0:0:
367,267,16367,1,8,0:0:0:0:
361,276,16442,1,8,0:0:0:0:
171,69,16517,1,0,0:0:0:0:
141,51,16667,1,0,0:0:0:0:
153,58,16742,1,0,0:0:0:0:
436,250,16817,1,8,0:0:0:0:
364,250,16967,1,8,0:0:0:0:
158,85,17117,1,0,0:0:0:0:
164,100,17267,1,0,0:0:0:0:
169,97,17417,1,0,0:0:0:0:
177,112,17492,1,0,0:0:0:0:
350,288,17567,1,8,0:0:0:0:
340,303,17642,1,8,0:0:0:0:
199,58,17717,1,0,0:0:0:0:
184,60,17867,1,0,0:0:0:0:
184,60,18017,1,0,0:0:0:0:
424,242,18167,1,8,0:0:0:0:
203,68,18242,1,0,0:0:0:0:
191,76,18317,1,0,0:0:0:0:
151,108,18392,1,0,0:0:0:0:
407,241,18467,1,8,0:0:0:0:
195,71,18617,1,0,0:0:0:0:
477,212,18767,1,8,0:0:0:0:
417,285,18842,1,8,0:0:0:0:
176,65,18917,1,0,0:0:0:0:
155,63,18992,1,0,0:0:0:0:
349,296,19067,1,8,0:0:0:0:
340,311,19142,1,8,0:0:0:0:
154,84,19217,1,0,0:0:0:0:
391,114,19967,1,4,0:0:0:0:
419,252,20117,1,8,0:0:0:0:
159,53,20267,1,0,0:0:0:0:
428,264,20417,1,8,0:0:0:0:
182,74,20492,1,0,0:0:0:0:
422,275,20567,1,8,0:0:0:0:
184,81,20642,1,0,0:0:0:0:
436,238,20717,1,8,0:0:0:0:
154,77,20867,1,0,0:0:0:0:
325,325,21017,1,8,0:0:0:0:
335,309,21092,1,8,0:0:0:0:
119,82,21167,1,0,0:0:0:0:
387,286,21317,1,8,0:0:0:0:
387,286,21392,1,8,0:0:0:0:
228,74,21467,1,0,0:0:0:0:
407,276,21617,1,8,0:0:0:0:
175,78,21767,1,0,0:0:0:0:
175,78,21842,1,0,0:0:0:0:
448,263,21917,1,8,0:0:0:0:
147,56,22067,1,0,0:0:0:0:
420,269,22217,1,8,0:0:0:0:
385,327,22292,1,8,0:0:0:0:
130,74,22367,1,0,0:0:0:0:
429,253,22517,1,8,0:0:0:0:
401,266,22592,1,8,0:0:0:0:
197,104,22667,1,0,0:0:0:0:
409,307,22817,1,8,0:0:0:0:
109,50,22967,1,0,0:0:0:0:
191,104,23042,1,0,0:0:0:0:
408,298,23117,1,8,0:0:0:0:
72,57,23267,1,0,0:0:0:0:
380,301,23417,1,8,0:0:0:0:
365,295,23492,1,8,0:0:0:0:
132,62,23567,1,0,0:0:0:0:
429,293,23717,1,8,0:0:0:0:
454,247,23792,1,8,0:0:0:0:
63,54,23867,1,0,0:0:0:0:
354,271,24017,1,8,0:0:0:0:
366,287,24092,1,8,0:0:0:0:
70,57,24167,1,0,0:0:0:0:
422,286,24317,1,8,0:0:0:0:
383,322,24467,1,8,0:0:0:0:
189,68,24542,1,0,0:0:0:0:
420,253,24617,1,8,0:0:0:0:
409,284,24692,1,8,0:0:0:0:
153,72,24767,1,0,0:0:0:0:
381,274,24917,1,8,0:0:0:0:
105,59,25067,1,0,0:0:0:0:
116,75,25142,1,0,0:0:0:0:
389,296,25217,1,8,0:0:0:0:
160,58,25367,1,0,0:0:0:0:
166,49,25442,1,0,0:0:0:0:
346,302,25517,1,8,0:0:0:0:
186,94,25667,1,0,0:0:0:0:
418,297,25817,1,8,0:0:0:0:
418,277,25892,1,8,0:0:0:0:
210,107,25967,1,0,0:0:0:0:
385,264,26117,1,8,0:0:0:0:
197,62,26267,1,0,0:0:0:0:
191,70,26342,1,0,0:0:0:0:
431,247,26417,1,8,0:0:0:0:
176,79,26567,1,0,0:0:0:0:
169,81,26642,1,0,0:0:0:0:
463,237,26717,1,8,0:0:0:0:
365,370,26792,1,8,0:0:0:0:
184,102,26867,1,0,0:0:0:0:
385,279,27017,1,8,0:0:0:0:
186,62,27167,1,0,0:0:0:0:
403,264,27317,1,8,0:0:0:0:
385,279,27392,1,8,0:0:0:0:
124,82,27467,1,0,0:0:0:0:
409,262,27617,1,8,0:0:0:0:
175,44,27767,1,0,0:0:0:0:
176,59,27842,1,0,0:0:0:0:
452,244,27917,1,8,0:0:0:0:
140,100,28067,1,0,0:0:0:0:
430,251,28217,1,8,0:0:0:0:
198,67,28367,1,0,0:0:0:0:
172,51,28442,1,0,0:0:0:0:
431,254,28517,1,8,0:0:0:0:
184,71,28667,1,0,0:0:0:0:
184,72,28742,1,0,0:0:0:0:
424,284,28817,1,8,0:0:0:0:
161,91,28967,1,0,0:0:0:0:
161,91,29042,1,0,0:0:0:0:
400,266,29117,1,8,0:0:0:0:
397,318,29267,1,8,0:0:0:0:
397,318,29342,1,8,0:0:0:0:
397,318,29417,1,8,0:0:0:0:
397,318,29492,1,8,0:0:0:0:
168,71,29567,1,0,0:0:0:0:
147,80,29642,1,0,0:0:0:0:
466,264,29717,1,8,0:0:0:0:
164,96,29867,1,0,0:0:0:0:
164,96,29942,1,0,0:0:0:0:
434,272,30017,1,8,0:0:0:0:
366,328,30167,1,8,0:0:0:0:
163,64,30242,1,0,0:0:0:0:
412,289,30317,1,8,0:0:0:0:
181,83,30467,1,0,0:0:0:0:
433,236,30617,1,8,0:0:0:0:
209,78,30767,1,0,0:0:0:0:
200,83,30842,1,0,0:0:0:0:
379,274,30917,1,8,0:0:0:0:
209,78,31067,1,0,0:0:0:0:
176,92,31142,1,0,0:0:0:0:
382,238,31217,1,8,0:0:0:0:
385,256,31367,1,8,0:0:0:0:
207,102,31442,1,0,0:0:0:0:
401,265,31517,1,8,0:0:0:0:
195,60,31667,1,0,0:0:0:0:
383,274,31817,1,8,0:0:0:0:
162,80,31967,1,0,0:0:0:0:
158,83,32042,1,0,0:0:0:0:
423,257,32117,1,8,0:0:0:0:
184,88,32267,1,0,0:0:0:0:
184,88,32342,1,0,0:0:0:0:
419,253,32417,1,8,0:0:0:0:
328,318,32567,1,8,0:0:0:0:
154,58,32642,1,0,0:0:0:0:
345,321,32717,1,8,0:0:0:0:
159,52,32867,1,0,0:0:0:0:
416,257,33017,1,8,0:0:0:0:
376,318,33167,1,8,0:0:0:0:
376,318,33242,1,8,0:0:0:0:
436,252,33317,1,8,0:0:0:0:
27,138,33392,1,0,0:0:0:0:
371,311,33467,1,8,0:0:0:0:
391,251,33542,1,8,0:0:0:0:
137,52,33617,1,0,0:0:0:0:
163,61,33692,1,0,0:0:0:0:
163,61,33767,1,0,0:0:0:0:
163,61,33842,1,0,0:0:0:0:
386,254,33917,1,8,0:0:0:0:
389,310,33992,1,8,0:0:0:0:
426,279,34067,1,8,0:0:0:0:
423,287,34142,1,8,0:0:0:0:
159,112,34217,1,0,0:0:0:0:
372,302,34292,1,8,0:0:0:0:
148,92,34367,1,0,0:0:0:0:
389,268,34517,1,8,0:0:0:0:
151,106,34667,1,0,0:0:0:0:
151,106,34742,1,0,0:0:0:0:
441,220,34817,1,8,0:0:0:0:
136,68,34967,1,0,0:0:0:0:
178,82,35042,1,0,0:0:0:0:
327,250,35117,1,8,0:0:0:0:
144,48,35267,1,0,0:0:0:0:
369,280,35417,1,8,0:0:0:0:
393,310,35492,1,8,0:0:0:0:
148,89,35567,1,0,0:0:0:0:
315,317,35717,1,8,0:0:0:0:
107,71,35867,1,0,0:0:0:0:
376,251,36017,1,8,0:0:0:0:
370,263,36092,1,8,0:0:0:0:
162,70,36167,1,0,0:0:0:0:
413,266,36317,1,8,0:0:0:0:
408,272,36392,1,8,0:0:0:0:
183,74,36467,1,0,0:0:0:0:
420,268,36617,1,8,0:0:0:0:
182,79,36767,1,0,0:0:0:0:
199,43,36842,1,0,0:0:0:0:
402,273,36917,1,8,0:0:0:0:
144,62,37067,1,0,0:0:0:0:
376,270,37217,1,8,0:0:0:0:
160,58,37367,1,0,0:0:0:0:
164,69,37442,1,0,0:0:0:0:
384,233,37517,1,8,0:0:0:0:
131,84,37667,1,0,0:0:0:0:
400,249,37817,1,8,0:0:0:0:
375,293,37967,1,8,0:0:0:0:
375,293,38042,1,8,0:0:0:0:
136,78,38117,1,0,0:0:0:0:
393,301,38192,1,8,0:0:0:0:
394,300,38267,1,8,0:0:0:0:
407,290,38342,1,8,0:0:0:0:
103,67,38417,1,0,0:0:0:0:
188,61,38492,1,0,0:0:0:0:
442,251,38567,1,8,0:0:0:0:
377,276,38717,1,8,0:0:0:0:
164,66,38867,1,0,0:0:0:0:
411,259,39017,1,8,0:0:0:0:
178,247,39767,1,12,0:0:0:0:
187,113,39917,1,0,0:0:0:0:
367,309,40067,1,8,0:0:0:0:
383,285,40367,1,8,0:0:0:0:
134,74,40667,1,0,0:0:0:0:
178,79,40742,1,0,0:0:0:0:
167,69,40817,1,0,0:0:0:0:
159,76,40892,1,0,0:0:0:0:
405,265,40967,1,8,0:0:0:0:
126,58,41267,1,0,0:0:0:0:
412,300,41567,1,8,0:0:0:0:
121,103,41717,1,0,0:0:0:0:
421,276,42017,1,8,0:0:0:0:
124,80,42167,1,0,0:0:0:0:
185,68,42467,1,0,0:0:0:0:
392,290,42767,1,8,0:0:0:0:
426,273,43067,1,8,0:0:0:0:
105,108,43367,1,0,0:0:0:0:
214,79,43667,1,0,0:0:0:0:
180,92,43742,1,0,0:0:0:0:
180,92,43817,1,0,0:0:0:0:
141,36,43892,1,0,0:0:0:0:
427,247,43967,1,8,0:0:0:0:
185,82,44117,1,0,0:0:0:0:
409,300,44417,1,8,0:0:0:0:
167,66,44567,1,0,0:0:0:0:
145,110,44867,1,0,0:0:0:0:
369,313,45167,1,8,0:0:0:0:
177,110,45467,1,0,0:0:0:0:
177,110,45542,1,0,0:0:0:0:
183,86,45617,1,0,0:0:0:0:
174,104,45692,1,0,0:0:0:0:
372,282,45767,1,8,0:0:0:0:
144,68,46067,1,0,0:0:0:0:
409,296,46367,1,8,0:0:0:0:
238,110,46517,1,0,0:0:0:0:
389,295,46817,1,8,0:0:0:0:
184,103,46967,1,0,0:0:0:0:
98,120,47267,1,0,0:0:0:0:
375,302,47567,1,8,0:0:0:0:
405,307,47867,1,8,0:0:0:0:
162,70,48167,1,0,0:0:0:0:
141,107,48467,1,0,0:0:0:0:
141,107,48542,1,0,0:0:0:0:
141,107,48617,1,0,0:0:0:0:
141,107,48692,1,0,0:0:0:0:
412,282,48767,1,8,0:0:0:0:
63,129,48917,1,0,0:0:0:0:
351,337,49217,1,8,0:0:0:0:
194,75,49367,1,0,0:0:0:0:
158,100,49517,1,0,0:0:0:0:
158,100,49667,1,0,0:0:0:0:
433,262,49967,1,8,0:0:0:0:
202,110,50267,1,0,0:0:0:0:
105,59,50342,1,0,0:0:0:0:
202,110,50417,1,0,0:0:0:0:
202,110,50492,1,0,0:0:0:0:
430,276,50567,1,8,0:0:0:0:
179,90,50867,1,0,0:0:0:0:
437,294,51167,1,8,0:0:0:0:
182,78,51317,1,0,0:0:0:0:
381,297,51617,1,8,0:0:0:0:
179,53,51767,1,0,0:0:0:0:
190,77,52067,1,0,0:0:0:0:
327,372,52367,1,8,0:0:0:0:
411,305,52667,1,8,0:0:0:0:
158,58,52967,1,0,0:0:0:0:
179,81,53267,1,0,0:0:0:0:
184,96,53417,1,0,0:0:0:0:
184,96,53492,1,0,0:0:0:0:
445,240,53567,1,8,0:0:0:0:
150,109,53717,1,0,0:0:0:0:
396,291,54017,1,8,0:0:0:0:
171,84,54167,1,0,0:0:0:0:
204,144,54317,1,0,0:0:0:0:
180,57,54467,1,0,0:0:0:0:
362,312,54767,1,8,0:0:0:0:
160,91,55067,1,0,0:0:0:0:
160,91,55217,1,0,0:0:0:0:
160,91,55292,1,0,0:0:0:0:
413,268,55367,1,8,0:0:0:0:
147,78,55667,1,0,0:0:0:0:
359,291,55967,1,8,0:0:0:0:
167,62,56117,1,0,0:0:0:0:
375,302,56417,1,8,0:0:0:0:
201,80,56567,1,0,0:0:0:0:
189,116,56867,1,0,0:0:0:0:
304,342,57167,1,8,0:0:0:0:
386,342,57467,1,8,0:0:0:0:
156,62,57767,1,0,0:0:0:0:
156,62,58067,1,0,0:0:0:0:
163,94,58142,1,0,0:0:0:0:
163,94,58217,1,0,0:0:0:0:
163,94,58292,1,0,0:0:0:0:
472,228,58367,1,8,0:0:0:0:
109,51,58517,1,0,0:0:0:0:
405,289,58817,1,8,0:0:0:0:
433,276,58967,1,8,0:0:0:0:
128,60,59042,1,0,0:0:0:0:
162,71,59117,1,0,0:0:0:0:
196,96,59267,1,0,0:0:0:0:
165,101,59417,1,0,0:0:0:0:
373,295,59567,1,8,0:0:0:0:
87,62,59867,1,0,0:0:0:0:
175,88,59942,1,0,0:0:0:0:
407,275,60017,1,8,0:0:0:0:
429,264,60167,1,8,0:0:0:0:
122,50,60242,1,0,0:0:0:0:
158,62,60317,1,0,0:0:0:0:
400,284,60467,1,8,0:0:0:0:
383,296,60542,1,8,0:0:0:0:
162,74,60617,1,0,0:0:0:0:
376,301,60767,1,8,0:0:0:0:
166,84,60917,1,0,0:0:0:0:
178,93,61067,1,0,0:0:0:0:
151,55,61217,1,0,0:0:0:0:
151,59,61292,1,0,0:0:0:0:
455,271,61367,1,8,0:0:0:0:
422,303,61442,1,8,0:0:0:0:
147,92,61517,1,0,0:0:0:0:
146,108,61667,1,0,0:0:0:0:
146,108,61817,1,0,0:0:0:0:
398,292,61967,1,8,0:0:0:0:
380,305,62042,1,8,0:0:0:0:
158,89,62117,1,0,0:0:0:0:
201,135,62192,1,0,0:0:0:0:
403,288,62267,1,8,0:0:0:0:
129,73,62417,1,0,0:0:0:0:
364,253,62567,1,8,0:0:0:0:
373,335,62642,1,8,0:0:0:0:
373,335,62717,1,8,0:0:0:0:
373,335,62792,1,8,0:0:0:0:
374,320,62867,1,8,0:0:0:0:
374,320,62942,1,8,0:0:0:0:
101,44,63017,1,0,0:0:0:0:
230,130,63092,1,0,0:0:0:0:
392,327,63167,1,8,0:0:0:0:
341,291,63242,1,8,0:0:0:0:
341,291,63317,1,8,0:0:0:0:
341,291,63392,1,8,0:0:0:0:
160,66,63467,1,0,0:0:0:0:
160,72,63542,1,0,0:0:0:0:
343,284,63617,1,8,0:0:0:0:
131,116,63692,1,0,0:0:0:0:
413,276,63767,1,8,0:0:0:0:
144,47,63842,1,0,0:0:0:0:
153,59,63917,1,0,0:0:0:0:
166,90,64067,1,0,0:0:0:0:
168,91,64217,1,0,0:0:0:0:
447,250,64367,1,8,0:0:0:0:
415,248,64667,1,8,0:0:0:0:
389,279,64742,1,8,0:0:0:0:
180,63,64817,1,0,0:0:0:0:
417,280,64967,1,8,0:0:0:0:
395,306,65042,1,8,0:0:0:0:
151,57,65117,1,0,0:0:0:0:
141,78,65267,1,0,0:0:0:0:
142,78,65342,1,0,0:0:0:0:
463,255,65417,1,8,0:0:0:0:
443,289,65567,1,8,0:0:0:0:
118,58,65717,1,0,0:0:0:0:
159,75,65867,1,0,0:0:0:0:
162,95,66017,1,0,0:0:0:0:
162,95,66092,1,0,0:0:0:0:
386,270,66167,1,8,0:0:0:0:
349,297,66242,1,8,0:0:0:0:
100,52,66317,1,0,0:0:0:0:
118,32,66467,1,0,0:0:0:0:
167,61,66617,1,0,0:0:0:0:
415,260,66767,1,8,0:0:0:0:
397,267,66842,1,8,0:0:0:0:
376,289,66917,1,8,0:0:0:0:
120,48,67217,1,0,0:0:0:0:
137,50,67292,1,0,0:0:0:0:
140,50,67367,1,0,0:0:0:0:
365,278,67667,1,8,0:0:0:0:
365,278,67742,1,8,0:0:0:0:
365,278,67817,1,8,0:0:0:0:
145,84,68117,1,0,0:0:0:0:
145,84,68192,1,0,0:0:0:0:
159,87,68267,1,0,0:0:0:0:
413,279,68567,1,8,0:0:0:0:
159,62,68642,1,0,0:0:0:0:
159,64,68717,1,0,0:0:0:0:
155,71,68867,1,0,0:0:0:0:
159,87,69017,1,0,0:0:0:0:
444,270,69167,1,8,0:0:0:0:
170,109,69467,1,0,0:0:0:0:
170,109,69542,1,0,0:0:0:0:
421,262,69617,1,8,0:0:0:0:
399,292,69767,1,8,0:0:0:0:
157,67,69842,1,0,0:0:0:0:
157,67,69917,1,0,0:0:0:0:
374,300,70067,1,8,0:0:0:0:
364,317,70142,1,8,0:0:0:0:
175,76,70217,1,0,0:0:0:0:
340,299,70367,1,8,0:0:0:0:
183,84,70517,1,0,0:0:0:0:
165,90,70667,1,0,0:0:0:0:
152,76,70817,1,0,0:0:0:0:
152,76,70892,1,0,0:0:0:0:
377,290,70967,1,8,0:0:0:0:
360,310,71042,1,8,0:0:0:0:
111,60,71117,1,0,0:0:0:0:
162,80,71267,1,0,0:0:0:0:
165,90,71417,1,0,0:0:0:0:
411,276,71567,1,8,0:0:0:0:
411,306,71642,1,8,0:0:0:0:
155,76,71717,1,0,0:0:0:0:
109,88,71792,1,0,0:0:0:0:
376,282,71867,1,8,0:0:0:0:
138,72,72017,1,0,0:0:0:0:
163,85,72092,1,0,0:0:0:0:
402,275,72167,1,8,0:0:0:0:
382,321,72317,1,8,0:0:0:0:
155,85,72617,1,0,0:0:0:0:
166,94,72692,1,0,0:0:0:0:
421,240,72767,1,8,0:0:0:0:
176,108,72917,1,0,0:0:0:0:
173,96,73067,1,0,0:0:0:0:
388,263,73217,1,8,0:0:0:0:
374,272,73367,1,8,0:0:0:0:
153,52,73442,1,0,0:0:0:0:
164,67,73517,1,0,0:0:0:0:
174,73,73667,1,0,0:0:0:0:
156,108,73817,1,0,0:0:0:0:
380,256,73967,1,8,0:0:0:0:
393,275,74267,1,8,0:0:0:0:
388,279,74342,1,8,0:0:0:0:
184,59,74417,1,0,0:0:0:0:
412,253,74567,1,8,0:0:0:0:
411,260,74642,1,8,0:0:0:0:
195,74,74717,1,0,0:0:0:0:
168,85,74867,1,0,0:0:0:0:
168,85,74942,1,0,0:0:0:0:
363,288,75017,1,8,0:0:0:0:
394,280,75167,1,8,0:0:0:0:
175,56,75317,1,0,0:0:0:0:
175,56,75467,1,0,0:0:0:0:
195,84,75617,1,0,0:0:0:0:
195,84,75692,1,0,0:0:0:0:
442,254,75767,1,8,0:0:0:0:
370,283,75842,1,8,0:0:0:0:
175,56,75917,1,0,0:0:0:0:
157,73,76067,1,0,0:0:0:0:
159,72,76217,1,0,0:0:0:0:
421,256,76367,1,8,0:0:0:0:
171,80,76442,1,0,0:0:0:0:
171,81,76517,1,0,0:0:0:0:
195,121,76592,1,0,0:0:0:0:
413,275,76667,1,8,0:0:0:0:
140,61,76817,1,0,0:0:0:0:
345,274,76967,1,8,0:0:0:0:
340,289,77042,1,8,0:0:0:0:
135,53,77117,1,0,0:0:0:0:
189,82,77267,1,0,0:0:0:0:
180,138,77342,1,0,0:0:0:0:
474,217,77417,1,8,0:0:0:0:
395,295,77492,1,8,0:0:0:0:
404,260,77567,1,8,0:0:0:0:
373,305,77642,1,8,0:0:0:0:
204,96,77717,1,0,0:0:0:0:
182,108,77792,1,0,0:0:0:0:
387,296,77867,1,8,0:0:0:0:
373,307,77942,1,8,0:0:0:0:
393,264,78017,1,8,0:0:0:0:
390,267,78092,1,8,0:0:0:0:
158,73,78167,1,0,0:0:0:0:
424,262,79967,1,8,0:0:0:0:
414,115,80567,1,4,0:0:0:0:
399,286,80717,1,8,0:0:0:0:
143,53,80867,1,0,0:0:0:0:
360,291,81017,1,8,0:0:0:0:
150,72,81167,1,0,0:0:0:0:
140,79,81242,1,0,0:0:0:0:
420,272,81317,1,8,0:0:0:0:
83,51,81467,1,0,0:0:0:0:
421,248,81617,1,8,0:0:0:0:
393,291,81692,1,8,0:0:0:0:
171,57,81767,1,0,0:0:0:0:
379,275,81917,1,8,0:0:0:0:
401,318,81992,1,8,0:0:0:0:
207,85,82067,1,0,0:0:0:0:
467,232,82217,1,8,0:0:0:0:
147,59,82367,1,0,0:0:0:0:
173,64,82442,1,0,0:0:0:0:
423,278,82517,1,8,0:0:0:0:
166,75,82667,1,0,0:0:0:0:
415,247,82817,1,8,0:0:0:0:
371,291,82892,1,8,0:0:0:0:
152,87,82967,1,0,0:0:0:0:
406,265,83117,1,8,0:0:0:0:
398,275,83192,1,8,0:0:0:0:
132,56,83267,1,0,0:0:0:0:
384,287,83417,1,8,0:0:0:0:
137,75,83567,1,0,0:0:0:0:
411,257,83642,1,8,0:0:0:0:
194,49,83717,1,0,0:0:0:0:
148,89,83867,1,0,0:0:0:0:
478,207,84017,1,8,0:0:0:0:
406,287,84167,1,8,0:0:0:0:
435,246,84242,1,8,0:0:0:0:
178,57,84317,1,0,0:0:0:0:
412,264,84392,1,8,0:0:0:0:
385,294,84467,1,8,0:0:0:0:
420,283,84542,1,8,0:0:0:0:
207,55,84617,1,0,0:0:0:0:
369,291,84692,1,8,0:0:0:0:
369,287,84767,1,8,0:0:0:0:
370,281,84842,1,8,0:0:0:0:
178,34,84917,1,0,0:0:0:0:
390,284,84992,1,8,0:0:0:0:
168,56,85067,1,0,0:0:0:0:
368,314,85142,1,8,0:0:0:0:
368,314,85217,1,8,0:0:0:0:
368,314,85292,1,8,0:0:0:0:
156,46,85367,1,0,0:0:0:0:
378,303,85517,1,8,0:0:0:0:
142,65,85667,1,0,0:0:0:0:
143,64,85742,1,0,0:0:0:0:
441,230,85817,1,8,0:0:0:0:
183,31,85967,1,0,0:0:0:0:
185,36,86042,1,0,0:0:0:0:
470,224,86117,1,8,0:0:0:0:
154,59,86267,1,0,0:0:0:0:
461,240,86417,1,8,0:0:0:0:
378,337,86492,1,8,0:0:0:0:
124,77,86567,1,0,0:0:0:0:
483,217,86717,1,8,0:0:0:0:
205,66,86867,1,0,0:0:0:0:
184,71,86942,1,0,0:0:0:0:
339,293,87017,1,8,0:0:0:0:
142,51,87167,1,0,0:0:0:0:
154,61,87242,1,0,0:0:0:0:
393,291,87317,1,8,0:0:0:0:
123,73,87467,1,0,0:0:0:0:
376,290,87617,1,8,0:0:0:0:
360,319,87692,1,8,0:0:0:0:
142,51,87767,1,0,0:0:0:0:
431,273,87917,1,8,0:0:0:0:
154,57,88067,1,0,0:0:0:0:
207,54,88142,1,0,0:0:0:0:
337,315,88217,1,8,0:0:0:0:
159,76,88367,1,0,0:0:0:0:
169,79,88442,1,0,0:0:0:0:
387,260,88517,1,8,0:0:0:0:
151,81,88667,1,0,0:0:0:0:
358,238,88742,1,8,0:0:0:0:
201,57,88817,1,0,0:0:0:0:
373,304,88892,1,8,0:0:0:0:
173,91,88967,1,0,0:0:0:0:
445,100,90167,1,4,0:0:0:0:
182,57,90317,1,0,0:0:0:0:
402,249,90467,1,8,0:0:0:0:
160,96,90617,1,0,0:0:0:0:
160,96,90767,1,0,0:0:0:0:
182,67,90917,1,0,0:0:0:0:
436,263,91067,1,8,0:0:0:0:
430,317,91217,1,8,0:0:0:0:
120,50,91367,1,0,0:0:0:0:
182,55,91517,1,0,0:0:0:0:
376,257,91667,1,8,0:0:0:0:
199,69,91817,1,0,0:0:0:0:
167,50,91967,1,0,0:0:0:0:
410,275,92042,1,8,0:0:0:0:
114,139,92117,1,0,0:0:0:0:
109,114,92192,1,0,0:0:0:0:
440,244,92267,1,8,0:0:0:0:
340,337,92342,1,8,0:0:0:0:
133,17,92417,1,0,0:0:0:0:
172,64,92567,1,0,0:0:0:0:
181,73,92717,1,0,0:0:0:0:
416,243,92867,1,8,0:0:0:0:
136,57,93017,1,0,0:0:0:0:
424,231,93167,1,8,0:0:0:0:
217,72,93317,1,0,0:0:0:0:
400,264,93467,1,8,0:0:0:0:
242,82,93617,1,0,0:0:0:0:
153,60,93767,1,0,0:0:0:0:
192,58,93917,1,0,0:0:0:0:
400,253,94067,1,8,0:0:0:0:
160,89,94217,1,0,0:0:0:0:
338,313,94367,1,8,0:0:0:0:
122,59,94517,1,0,0:0:0:0:
383,331,94667,1,8,0:0:0:0:
172,107,94817,1,0,0:0:0:0:
181,87,94967,1,0,0:0:0:0:
219,68,95067,1,0,0:0:0:0:
127,63,95167,1,0,0:0:0:0:
434,248,95267,1,8,0:0:0:0:
120,62,95367,1,0,0:0:0:0:
100,74,95467,1,0,0:0:0:0:
438,237,95567,1,8,0:0:0:0:
402,230,95667,1,8,0:0:0:0:
142,36,95767,1,0,0:0:0:0:
401,240,95867,1,8,0:0:0:0:
120,62,95967,1,0,0:0:0:0:
408,263,96067,1,8,0:0:0:0:
147,80,96167,1,0,0:0:0:0:
373,275,96317,1,8,0:0:0:0:
380,236,96467,1,8,0:0:0:0:
160,74,96617,1,0,0:0:0:0:
118,75,96767,1,0,0:0:0:0:
394,269,96842,1,8,0:0:0:0:
238,101,96917,1,0,0:0:0:0:
193,106,96992,1,0,0:0:0:0:
432,283,97067,1,8,0:0:0:0:
352,294,97142,1,8,0:0:0:0:
149,92,97217,1,0,0:0:0:0:
351,302,97367,1,8,0:0:0:0:
165,35,97517,1,0,0:0:0:0:
436,218,97667,1,8,0:0:0:0:
177,56,97817,1,0,0:0:0:0:
100,91,97967,1,0,0:0:0:0:
362,289,98042,1,8,0:0:0:0:
95,96,98117,1,0,0:0:0:0:
172,76,98192,1,0,0:0:0:0:
400,318,98267,1,8,0:0:0:0:
395,309,98342,1,8,0:0:0:0:
91,65,98417,1,0,0:0:0:0:
130,95,98567,1,0,0:0:0:0:
418,301,98717,1,8,0:0:0:0:
395,307,98867,1,8,0:0:0:0:
383,318,99017,1,8,0:0:0:0:
387,281,99167,1,8,0:0:0:0:
367,292,99317,1,8,0:0:0:0:
426,284,99467,1,8,0:0:0:0:
436,296,99617,1,8,0:0:0:0:
423,273,99692,1,8,0:0:0:0:
154,55,99767,1,0,0:0:0:0:
166,85,100067,1,0,0:0:0:0:
166,85,100367,1,0,0:0:0:0:
166,85,100667,1,0,0:0:0:0:
52,120,100967,1,0,0:0:0:0:
173,114,101117,1,0,0:0:0:0:
436,228,101267,1,8,0:0:0:0:
434,307,101417,1,8,0:0:0:0:
133,81,101567,1,0,0:0:0:0:
176,74,101717,1,0,0:0:0:0:
381,315,101867,1,8,0:0:0:0:
150,95,102017,1,0,0:0:0:0:
369,299,102167,1,8,0:0:0:0:
205,137,102317,1,0,0:0:0:0:
430,246,102467,1,8,0:0:0:0:
180,97,102617,1,0,0:0:0:0:
179,63,102767,1,0,0:0:0:0:
383,283,102917,1,8,0:0:0:0:
365,298,103067,1,8,0:0:0:0:
188,76,103217,1,0,0:0:0:0:
189,76,103367,1,0,0:0:0:0:
218,77,103517,1,0,0:0:0:0:
366,253,103667,1,8,0:0:0:0:
137,100,103817,1,0,0:0:0:0:
383,282,103967,1,8,0:0:0:0:
184,92,104117,1,0,0:0:0:0:
367,271,104267,1,8,0:0:0:0:
199,96,104417,1,0,0:0:0:0:
151,75,104567,1,0,0:0:0:0:
168,90,104717,1,0,0:0:0:0:
380,286,104867,1,8,0:0:0:0:
399,335,104942,1,8,0:0:0:0:
207,50,105017,1,0,0:0:0:0:
420,251,105167,1,8,0:0:0:0:
209,96,105317,1,0,0:0:0:0:
427,255,105467,1,8,0:0:0:0:
412,296,105617,1,8,0:0:0:0:
412,296,105692,1,8,0:0:0:0:
164,60,105767,1,0,0:0:0:0:
403,275,105842,1,8,0:0:0:0:
179,68,105917,1,0,0:0:0:0:
442,238,106067,1,8,0:0:0:0:
219,80,106217,1,0,0:0:0:0:
448,257,106367,1,8,0:0:0:0:
433,266,106442,1,8,0:0:0:0:
173,80,106517,1,0,0:0:0:0:
376,312,106667,1,8,0:0:0:0:
213,112,106742,1,0,0:0:0:0:
190,95,106817,1,0,0:0:0:0:
386,304,106967,1,8,0:0:0:0:
447,284,107042,1,8,0:0:0:0:
157,49,107117,1,0,0:0:0:0:
404,273,107267,1,8,0:0:0:0:
185,80,107417,1,0,0:0:0:0:
356,309,107567,1,8,0:0:0:0:
489,249,107642,1,8,0:0:0:0:
178,84,107717,1,0,0:0:0:0:
434,281,107867,1,8,0:0:0:0:
420,285,107942,1,8,0:0:0:0:
178,73,108017,1,0,0:0:0:0:
188,67,108167,1,0,0:0:0:0:
455,245,108267,1,8,0:0:0:0:
376,318,108367,1,8,0:0:0:0:
187,88,108467,1,0,0:0:0:0:
388,282,108567,1,8,0:0:0:0:
401,293,108667,1,8,0:0:0:0:
121,50,108767,1,0,0:0:0:0:
359,246,108867,1,8,0:0:0:0:
368,329,108967,1,8,0:0:0:0:
394,319,109067,1,8,0:0:0:0:
203,48,109167,1,0,0:0:0:0:
187,88,109267,1,0,0:0:0:0:
187,88,109367,1,0,0:0:0:0:
183,113,109467,1,0,0:0:0:0:
376,289,109567,1,8,0:0:0:0:
135,83,109667,1,0,0:0:0:0:
185,96,109767,1,0,0:0:0:0:
154,96,109867,1,0,0:0:0:0:
416,255,109967,1,8,0:0:0:0:
389,307,110567,1,8,0:0:0:0:
86,109,110867,1,0,0:0:0:0:
176,117,111017,1,0,0:0:0:0:
196,245,111167,1,12,0:0:0:0:
70,73,111317,1,0,0:0:0:0:
383,329,111467,1,8,0:0:0:0:
358,295,111767,1,8,0:0:0:0:
172,98,112067,1,0,0:0:0:0:
172,98,112142,1,0,0:0:0:0:
172,98,112217,1,0,0:0:0:0:
172,98,112292,1,0,0:0:0:0:
326,335,112367,1,8,0:0:0:0:
194,101,112667,1,0,0:0:0:0:
391,280,112967,1,8,0:0:0:0:
172,70,113117,1,0,0:0:0:0:
336,330,113417,1,8,0:0:0:0:
96,47,113567,1,0,0:0:0:0:
191,63,113867,1,0,0:0:0:0:
444,274,114167,1,8,0:0:0:0:
462,250,114467,1,8,0:0:0:0:
104,51,114767,1,0,0:0:0:0:
173,84,115067,1,0,0:0:0:0:
173,84,115142,1,0,0:0:0:0:
173,84,115217,1,0,0:0:0:0:
181,90,115292,1,0,0:0:0:0:
465,261,115367,1,8,0:0:0:0:
184,89,115517,1,0,0:0:0:0:
413,261,115817,1,8,0:0:0:0:
161,94,115967,1,0,0:0:0:0:
174,92,116117,1,0,0:0:0:0:
174,92,116267,1,0,0:0:0:0:
418,310,116567,1,8,0:0:0:0:
147,36,116867,1,0,0:0:0:0:
147,36,116942,1,0,0:0:0:0:
153,36,117017,1,0,0:0:0:0:
186,57,117092,1,0,0:0:0:0:
397,308,117167,1,8,0:0:0:0:
105,101,117467,1,0,0:0:0:0:
402,284,117767,1,8,0:0:0:0:
174,71,117917,1,0,0:0:0:0:
384,283,118217,1,8,0:0:0:0:
99,93,118367,1,0,0:0:0:0:
218,124,118667,1,0,0:0:0:0:
380,290,118967,1,8,0:0:0:0:
424,273,119267,1,8,0:0:0:0:
73,50,119567,1,0,0:0:0:0:
173,81,119867,1,0,0:0:0:0:
173,81,119942,1,0,0:0:0:0:
173,81,120017,1,0,0:0:0:0:
173,81,120092,1,0,0:0:0:0:
409,293,120167,1,8,0:0:0:0:
192,74,120317,1,0,0:0:0:0:
399,290,120617,1,8,0:0:0:0:
166,76,120767,1,0,0:0:0:0:
166,76,120917,1,0,0:0:0:0:
166,76,121067,1,0,0:0:0:0:
382,289,121367,1,8,0:0:0:0:
183,63,121667,1,0,0:0:0:0:
183,63,121742,1,0,0:0:0:0:
183,63,121817,1,0,0:0:0:0:
183,63,121892,1,0,0:0:0:0:
384,304,121967,1,8,0:0:0:0:
164,90,122267,1,0,0:0:0:0:
421,268,122567,1,8,0:0:0:0:
174,95,122717,1,0,0:0:0:0:
372,297,123017,1,8,0:0:0:0:
113,51,123167,1,0,0:0:0:0:
172,135,123467,1,0,0:0:0:0:
412,291,123767,1,8,0:0:0:0:
403,303,124067,1,8,0:0:0:0:
146,94,124367,1,0,0:0:0:0:
193,96,124667,1,0,0:0:0:0:
193,96,124742,1,0,0:0:0:0:
193,96,124817,1,0,0:0:0:0:
168,101,124892,1,0,0:0:0:0:
408,276,124967,1,8,0:0:0:0:
160,107,125117,1,0,0:0:0:0:
387,290,125417,1,8,0:0:0:0:
202,84,125567,1,0,0:0:0:0:
188,84,125717,1,0,0:0:0:0:
188,85,125867,1,0,0:0:0:0:
423,275,126167,1,8,0:0:0:0:
199,93,126467,1,0,0:0:0:0:
199,93,126542,1,0,0:0:0:0:
199,93,126617,1,0,0:0:0:0:
199,93,126692,1,0,0:0:0:0:
391,300,126767,1,8,0:0:0:0:
183,103,127067,1,0,0:0:0:0:
391,300,127367,1,8,0:0:0:0:
181,91,127517,1,0,0:0:0:0:
411,303,127817,1,8,0:0:0:0:
194,80,127967,1,0,0:0:0:0:
172,75,128267,1,0,0:0:0:0:
402,269,128567,1,8,0:0:0:0:
400,307,128867,1,8,0:0:0:0:
169,69,129167,1,0,0:0:0:0:
168,79,129467,1,0,0:0:0:0:
168,79,129542,1,0,0:0:0:0:
168,79,129617,1,0,0:0:0:0:
165,95,129692,1,0,0:0:0:0:
376,301,129767,1,8,0:0:0:0:
204,102,129917,1,0,0:0:0:0:
410,295,130217,1,8,0:0:0:0:
192,85,130367,1,0,0:0:0:0:
386,303,139967,5,8,0:0:0:0:
183,70,140267,1,0,0:0:0:0:
170,80,140417,1,0,0:0:0:0:
417,277,140567,1,8,0:0:0:0:
384,275,141167,1,8,0:0:0:0:
179,83,141467,1,0,0:0:0:0:
167,91,141542,1,0,0:0:0:0:
167,91,141617,1,0,0:0:0:0:
167,91,141692,1,0,0:0:0:0:
401,265,141767,1,8,0:0:0:0:
201,53,142067,1,0,0:0:0:0:
166,102,142367,1,0,0:0:0:0:
166,102,142517,1,0,0:0:0:0:
163,55,142667,1,0,0:0:0:0:
171,63,142817,1,0,0:0:0:0:
458,262,142967,1,8,0:0:0:0:
209,87,143267,1,0,0:0:0:0:
209,87,143417,1,0,0:0:0:0:
390,258,143567,1,8,0:0:0:0:
142,61,143717,1,0,0:0:0:0:
172,85,143867,1,0,0:0:0:0:
172,85,144017,1,0,0:0:0:0:
377,307,144167,1,8,0:0:0:0:
377,307,144467,1,8,0:0:0:0:
436,278,144767,1,8,0:0:0:0:
133,55,145067,1,0,0:0:0:0:
162,72,145217,1,0,0:0:0:0:
327,310,145367,1,8,0:0:0:0:
182,73,145817,1,0,0:0:0:0:
432,286,145967,1,8,0:0:0:0:
168,84,146267,1,0,0:0:0:0:
168,84,146342,1,0,0:0:0:0:
168,83,146417,1,0,0:0:0:0:
172,81,146492,1,0,0:0:0:0:
365,294,146567,1,8,0:0:0:0:
123,75,146867,1,0,0:0:0:0:
427,268,147167,1,8,0:0:0:0:
135,63,147317,1,0,0:0:0:0:
160,22,147467,1,0,0:0:0:0:
189,68,147617,1,0,0:0:0:0:
377,258,147767,1,8,0:0:0:0:
175,57,148067,1,0,0:0:0:0:
185,82,148217,1,0,0:0:0:0:
384,308,148367,1,8,0:0:0:0:
128,76,148517,1,0,0:0:0:0:
170,83,148667,1,0,0:0:0:0:
170,83,148742,1,0,0:0:0:0:
170,83,148817,1,0,0:0:0:0:
150,62,148892,1,0,0:0:0:0:
344,304,148967,1,8,0:0:0:0:
158,76,149117,1,0,0:0:0:0:
400,270,149267,1,8,0:0:0:0:
182,98,149417,1,0,0:0:0:0:
472,255,149567,1,8,0:0:0:0:
368,328,149792,1,8,0:0:0:0:
412,291,150017,1,8,0:0:0:0:
402,305,150167,1,8,0:0:0:0:
417,276,150467,1,8,0:0:0:0:
140,277,150767,1,12,0:0:0:0:
397,272,151367,1,8,0:0:0:0:
397,272,151967,1,8,0:0:0:0:
196,79,152267,1,0,0:0:0:0:
196,79,152342,1,0,0:0:0:0:
196,79,152417,1,0,0:0:0:0:
196,79,152492,1,0,0:0:0:0:
456,250,152567,1,8,0:0:0:0:
183,96,152867,1,0,0:0:0:0:
411,118,153167,1,4,0:0:0:0:
146,132,153317,1,0,0:0:0:0:
197,118,153617,1,0,0:0:0:0:
404,308,153767,1,8,0:0:0:0:
180,78,154067,1,0,0:0:0:0:
180,78,154217,1,0,0:0:0:0:
405,316,154367,1,8,0:0:0:0:
186,80,154517,1,0,0:0:0:0:
186,80,154667,1,0,0:0:0:0:
172,81,154817,1,0,0:0:0:0:
379,302,154967,1,8,0:0:0:0:
386,309,155267,1,8,0:0:0:0:
214,229,155567,1,12,0:0:0:0:
383,292,156167,1,8,0:0:0:0:
158,120,156617,1,0,0:0:0:0:
404,271,156767,1,8,0:0:0:0:
172,69,157067,1,0,0:0:0:0:
172,69,157142,1,0,0:0:0:0:
172,69,157217,1,0,0:0:0:0:
172,69,157292,1,0,0:0:0:0:
363,294,157367,1,8,0:0:0:0:
162,79,157667,1,0,0:0:0:0:
405,131,157967,1,4,0:0:0:0:
138,41,158117,1,0,0:0:0:0:
182,114,158417,1,0,0:0:0:0:
392,311,158567,1,8,0:0:0:0:
145,66,158867,1,0,0:0:0:0:
195,85,159017,1,0,0:0:0:0:
352,312,159167,1,8,0:0:0:0:
231,81,159317,1,0,0:0:0:0:
194,77,159467,1,0,0:0:0:0:
194,77,159542,1,0,0:0:0:0:
194,77,159617,1,0,0:0:0:0:
195,77,159692,1,0,0:0:0:0:
349,302,159767,1,8,0:0:0:0:
198,78,159917,1,0,0:0:0:0:
371,318,160067,1,8,0:0:0:0:
184,86,160217,1,0,0:0:0:0:
137,236,160367,1,12,0:0:0:0:
403,289,160967,1,8,0:0:0:0:
403,289,161567,1,8,0:0:0:0:
183,92,161867,1,0,0:0:0:0:
183,92,161942,1,0,0:0:0:0:
183,92,162017,1,0,0:0:0:0:
183,92,162092,1,0,0:0:0:0:
393,280,162167,1,8,0:0:0:0:
207,105,162467,1,0,0:0:0:0:
451,105,162767,1,4,0:0:0:0:
127,115,162917,1,0,0:0:0:0:
201,101,163217,1,0,0:0:0:0:
434,287,163367,1,8,0:0:0:0:
113,48,163667,1,0,0:0:0:0:
188,109,163817,1,0,0:0:0:0:
404,272,163967,1,8,0:0:0:0:
165,49,164117,1,0,0:0:0:0:
186,74,164267,1,0,0:0:0:0:
181,84,164417,1,0,0:0:0:0:
448,245,164567,1,8,0:0:0:0:
387,307,164867,1,8,0:0:0:0:
183,247,165167,1,12,0:0:0:0:
389,249,165767,1,8,0:0:0:0:
203,95,166217,1,0,0:0:0:0:
193,89,166667,1,0,0:0:0:0:
189,106,166742,1,0,0:0:0:0:
189,106,166817,1,0,0:0:0:0:
189,106,166892,1,0,0:0:0:0:
377,335,166967,1,8,0:0:0:0:
103,39,167267,1,0,0:0:0:0:
429,121,167567,1,4,0:0:0:0:
187,93,167717,1,0,0:0:0:0:
187,93,168017,1,0,0:0:0:0:
433,274,168167,1,8,0:0:0:0:
182,74,168467,1,0,0:0:0:0:
182,74,168617,1,0,0:0:0:0:
415,245,168767,1,8,0:0:0:0:
417,296,168917,1,8,0:0:0:0:
195,67,169067,1,0,0:0:0:0:
195,67,169142,1,0,0:0:0:0:
178,80,169217,1,0,0:0:0:0:
178,80,169292,1,0,0:0:0:0:
407,264,169367,1,8,0:0:0:0:
373,312,169517,1,8,0:0:0:0:
373,312,169667,1,8,0:0:0:0:
401,321,169817,1,8,0:0:0:0:
207,260,169967,1,12,0:0:0:0:
446,228,170567,1,8,0:0:0:0:
431,260,171167,1,8,0:0:0:0:
175,69,171467,1,0,0:0:0:0:
175,69,171542,1,0,0:0:0:0:
175,69,171617,1,0,0:0:0:0:
175,69,171692,1,0,0:0:0:0:
415,277,171767,1,8,0:0:0:0:
139,38,172067,1,0,0:0:0:0:
417,96,172367,1,4,0:0:0:0:
158,70,172517,1,0,0:0:0:0:
180,91,172817,1,0,0:0:0:0:
376,277,172967,1,8,0:0:0:0:
173,57,173267,1,0,0:0:0:0:
144,103,173417,1,0,0:0:0:0:
391,280,173567,1,8,0:0:0:0:
195,80,173717,1,0,0:0:0:0:
195,80,173867,1,0,0:0:0:0:
195,80,174017,1,0,0:0:0:0:
416,257,174167,1,8,0:0:0:0:
359,338,174467,1,8,0:0:0:0:
167,232,174767,1,12,0:0:0:0:
423,291,175367,1,8,0:0:0:0:
166,72,175667,1,0,0:0:0:0:
168,40,175817,1,0,0:0:0:0:
410,264,175967,1,8,0:0:0:0:
208,54,176267,1,0,0:0:0:0:
166,72,176342,1,0,0:0:0:0:
166,72,176417,1,0,0:0:0:0:
166,72,176492,1,0,0:0:0:0:
374,317,176567,1,8,0:0:0:0:
202,63,176867,1,0,0:0:0:0:
446,135,177167,1,4,0:0:0:0:
212,57,177317,1,0,0:0:0:0:
184,78,177617,1,0,0:0:0:0:
403,292,177767,1,8,0:0:0:0:
171,40,178067,1,0,0:0:0:0:
171,113,178217,1,0,0:0:0:0:
430,297,178367,1,8,0:0:0:0:
233,90,178517,1,0,0:0:0:0:
198,100,178667,1,0,0:0:0:0:
202,111,178742,1,0,0:0:0:0:
198,100,178817,1,0,0:0:0:0:
201,110,178892,1,0,0:0:0:0:
395,270,178967,1,8,0:0:0:0:
395,317,179042,1,8,0:0:0:0:
187,96,179117,1,0,0:0:0:0:
185,117,179192,1,0,0:0:0:0:
364,324,179267,1,8,0:0:0:0:
364,324,179342,1,8,0:0:0:0:
199,77,179417,1,0,0:0:0:0:
131,57,179492,1,0,0:0:0:0:
180,245,179567,1,12,0:0:0:0:
412,250,180167,1,8,0:0:0:0:
389,319,180767,1,8,0:0:0:0:
168,79,181067,1,0,0:0:0:0:
168,79,181142,1,0,0:0:0:0:
168,79,181217,1,0,0:0:0:0:
168,79,181292,1,0,0:0:0:0:
397,290,181367,1,8,0:0:0:0:
174,69,181667,1,0,0:0:0:0:
118,56,181817,1,0,0:0:0:0:
391,96,181967,1,4,0:0:0:0:
193,95,182117,1,0,0:0:0:0:
145,62,182417,1,0,0:0:0:0:
383,287,182567,1,8,0:0:0:0:
179,103,182867,1,0,0:0:0:0:
179,103,183017,1,0,0:0:0:0:
373,283,183167,1,8,0:0:0:0:
147,60,183317,1,0,0:0:0:0:
162,71,183467,1,0,0:0:0:0:
200,114,183617,1,0,0:0:0:0:
429,254,183767,1,8,0:0:0:0:
372,281,184067,1,8,0:0:0:0:
161,248,184367,1,12,0:0:0:0:
357,302,184967,1,8,0:0:0:0:
169,135,185417,1,0,0:0:0:0:
379,287,185567,1,8,0:0:0:0:
177,108,185867,1,0,0:0:0:0:
177,108,185942,1,0,0:0:0:0:
177,108,186017,1,0,0:0:0:0:
177,108,186092,1,0,0:0:0:0:
369,270,186167,1,8,0:0:0:0:
182,89,186467,1,0,0:0:0:0:
381,118,186767,1,4,0:0:0:0:
199,81,186917,1,0,0:0:0:0:
208,90,187217,1,0,0:0:0:0:
425,244,187367,1,8,0:0:0:0:
155,72,187667,1,0,0:0:0:0:
203,105,187817,1,0,0:0:0:0:
360,312,187967,1,8,0:0:0:0:
198,77,188117,1,0,0:0:0:0:
198,77,188267,1,0,0:0:0:0:
198,77,188342,1,0,0:0:0:0:
198,77,188417,1,0,0:0:0:0:
198,77,188492,1,0,0:0:0:0:
403,272,188567,1,8,0:0:0:0:
193,95,188717,1,0,0:0:0:0:
361,301,188867,1,8,0:0:0:0:
207,78,189017,1,0,0:0:0:0:
405,265,189167,1,8,0:0:0:0:
382,322,189317,1,8,0:0:0:0:
185,118,189467,1,0,0:0:0:0:
185,118,189542,1,0,0:0:0:0:
185,118,189617,1,0,0:0:0:0:
185,118,189692,1,0,0:0:0:0:
366,267,189767,1,8,0:0:0:0:
156,256,190367,1,12,0:0:0:0:
96,104,190517,1,0,0:0:0:0:
367,299,190667,1,8,0:0:0:0:
348,330,190967,1,8,0:0:0:0:
195,112,191267,1,0,0:0:0:0:
168,95,191342,1,0,0:0:0:0:
168,95,191417,1,0,0:0:0:0:
168,95,191492,1,0,0:0:0:0:
346,313,191567,1,8,0:0:0:0:
212,84,191867,1,0,0:0:0:0:
422,291,192167,1,8,0:0:0:0:
123,67,192317,1,0,0:0:0:0:
400,267,192617,1,8,0:0:0:0:
39,49,192767,1,0,0:0:0:0:
198,97,193067,1,0,0:0:0:0:
451,257,193367,1,8,0:0:0:0:
409,282,193667,1,8,0:0:0:0:
150,62,193967,1,0,0:0:0:0:
183,89,194267,1,0,0:0:0:0:
183,83,194342,1,0,0:0:0:0:
183,82,194417,1,0,0:0:0:0:
183,82,194492,1,0,0:0:0:0:
458,258,194567,1,8,0:0:0:0:
150,62,194717,1,0,0:0:0:0:
428,270,195017,1,8,0:0:0:0:
157,82,195167,1,0,0:0:0:0:
180,72,195317,1,0,0:0:0:0:
180,72,195467,1,0,0:0:0:0:
425,293,195767,1,8,0:0:0:0:
186,105,196067,1,0,0:0:0:0:
186,105,196142,1,0,0:0:0:0:
186,105,196217,1,0,0:0:0:0:
166,55,196292,1,0,0:0:0:0:
428,262,196367,1,8,0:0:0:0:
218,113,196667,1,0,0:0:0:0:
428,291,196967,1,8,0:0:0:0:
207,114,197117,1,0,0:0:0:0:
367,285,197417,1,8,0:0:0:0:
191,95,197567,1,0,0:0:0:0:
147,78,197867,1,0,0:0:0:0:
352,309,198167,1,8,0:0:0:0:
407,266,198467,1,8,0:0:0:0:
199,73,198767,1,0,0:0:0:0:
184,88,199067,1,0,0:0:0:0:
184,88,199142,1,0,0:0:0:0:
184,88,199217,1,0,0:0:0:0:
184,88,199292,1,0,0:0:0:0:
367,277,199367,1,8,0:0:0:0:
160,77,199517,1,0,0:0:0:0:
370,288,199817,1,8,0:0:0:0:
176,84,199967,1,0,0:0:0:0:
176,84,200117,1,0,0:0:0:0:
176,84,200267,1,0,0:0:0:0:
448,252,200567,1,8,0:0:0:0:
171,87,200867,1,0,0:0:0:0:
171,87,200942,1,0,0:0:0:0:
171,87,201017,1,0,0:0:0:0:
171,87,201092,1,0,0:0:0:0:
360,295,201167,1,8,0:0:0:0:
189,101,201467,1,0,0:0:0:0:
408,280,201767,1,8,0:0:0:0:
154,59,201917,1,0,0:0:0:0:
382,291,202217,1,8,0:0:0:0:
170,92,202367,1,0,0:0:0:0:
191,96,202667,1,0,0:0:0:0:
382,301,202967,1,8,0:0:0:0:
410,294,203267,1,8,0:0:0:0:
162,67,203567,1,0,0:0:0:0:
176,81,203867,1,0,0:0:0:0:
167,57,203942,1,0,0:0:0:0:
167,57,204017,1,0,0:0:0:0:
167,57,204092,1,0,0:0:0:0:
446,236,204167,1,8,0:0:0:0:
213,101,204317,1,0,0:0:0:0:
362,290,204617,1,8,0:0:0:0:
161,75,204767,1,0,0:0:0:0:
185,103,204917,1,0,0:0:0:0:
185,103,205067,1,0,0:0:0:0:
392,282,205367,1,8,0:0:0:0:
177,83,205667,1,0,0:0:0:0:
177,83,205742,1,0,0:0:0:0:
177,83,205817,1,0,0:0:0:0:
177,83,205892,1,0,0:0:0:0:
424,268,205967,1,8,0:0:0:0:
191,104,206267,1,0,0:0:0:0:
400,280,206567,1,8,0:0:0:0:
157,70,206717,1,0,0:0:0:0:
320,328,207017,1,8,0:0:0:0:
162,70,207167,1,0,0:0:0:0:
195,147,207467,1,0,0:0:0:0:
420,317,207767,1,8,0:0:0:0:
417,298,208067,1,8,0:0:0:0:
141,67,208367,1,0,0:0:0:0:
179,63,208667,1,0,0:0:0:0:
179,63,208742,1,0,0:0:0:0:
179,63,208817,1,0,0:0:0:0:
179,63,208892,1,0,0:0:0:0:
408,272,208967,1,8,0:0:0:0:
203,75,209117,1,0,0:0:0:0:
425,310,209417,1,8,0:0:0:0:
191,268,209567,1,12,0:0:0:0:
35,127,209717,1,0,0:0:0:0:
378,253,209867,1,8,0:0:0:0:
194,256,210167,1,8,0:0:0:0:
181,70,210467,1,0,0:0:0:0:
154,49,210542,1,0,0:0:0:0:
154,49,210617,1,0,0:0:0:0:
154,49,210692,1,0,0:0:0:0:
424,276,210767,1,8,0:0:0:0:
151,100,211067,1,0,0:0:0:0:
463,264,211367,1,8,0:0:0:0:
147,78,211517,1,0,0:0:0:0:
360,311,211817,1,8,0:0:0:0:
133,59,211967,1,0,0:0:0:0:
152,69,212267,1,0,0:0:0:0:
404,286,212567,1,8,0:0:0:0:
368,325,212867,1,8,0:0:0:0:
165,90,213167,1,0,0:0:0:0:
182,59,213467,1,0,0:0:0:0:
182,59,213542,1,0,0:0:0:0:
182,59,213617,1,0,0:0:0:0:
164,65,213692,1,0,0:0:0:0:
449,273,213767,1,8,0:0:0:0:
132,49,213917,1,0,0:0:0:0:
407,255,214217,1,8,0:0:0:0:
136,91,214367,1,0,0:0:0:0:
165,80,214517,1,0,0:0:0:0:
165,80,214667,1,0,0:0:0:0:
412,273,214967,1,8,0:0:0:0:
181,89,215267,1,0,0:0:0:0:
181,89,215342,1,0,0:0:0:0:
181,89,215417,1,0,0:0:0:0:
181,89,215492,1,0,0:0:0:0:
433,293,215567,1,8,0:0:0:0:
169,96,215867,1,0,0:0:0:0:
378,288,216167,1,8,0:0:0:0:
189,81,216317,1,0,0:0:0:0:
406,286,216617,1,8,0:0:0:0:
150,75,216767,1,0,0:0:0:0:
218,94,217067,1,0,0:0:0:0:
428,290,217367,1,8,0:0:0:0:
196,87,217517,1,0,0:0:0:0:
393,297,217817,1,8,0:0:0:0:
403,300,217967,1,8,0:0:0:0:
403,300,218117,1,8,0:0:0:0:
403,300,218267,1,8,0:0:0:0:
392,317,218417,1,8,0:0:0:0:
85,111,218567,1,0,0:0:0:0:
177,93,218642,1,0,0:0:0:0:
429,308,218717,1,8,0:0:0:0:
419,273,218792,1,8,0:0:0:0:
143,61,218867,1,0,0:0:0:0:
159,61,218942,1,0,0:0:0:0:
164,64,219017,1,0,0:0:0:0:
185,86,219092,1,0,0:0:0:0:
383,276,219167,1,8,0:0:0:0:
172,69,219317,1,0,0:0:0:0:
175,69,219467,1,0,0:0:0:0:
349,338,219767,1,8,0:0:0:0:
161,69,220067,1,0,0:0:0:0:
161,69,220142,1,0,0:0:0:0:
161,69,220217,1,0,0:0:0:0:
161,69,220292,1,0,0:0:0:0:
428,289,220367,1,8,0:0:0:0:
172,87,220667,1,0,0:0:0:0:
379,293,220967,1,8,0:0:0:0:
165,88,221117,1,0,0:0:0:0:
357,298,221417,1,8,0:0:0:0:
154,68,221567,1,0,0:0:0:0:
177,110,221867,1,0,0:0:0:0:
429,307,222167,1,8,0:0:0:0:
370,307,222467,1,8,0:0:0:0:
198,105,222767,1,0,0:0:0:0:
177,59,223067,1,0,0:0:0:0:
177,59,223142,1,0,0:0:0:0:
177,59,223217,1,0,0:0:0:0:
177,59,223292,1,0,0:0:0:0:
385,308,223367,1,8,0:0:0:0:
159,88,223517,1,0,0:0:0:0:
423,248,223817,1,8,0:0:0:0:
183,74,223967,1,0,0:0:0:0:
183,74,224117,1,0,0:0:0:0:
183,74,224267,1,0,0:0:0:0:
416,286,224567,1,8,0:0:0:0:
183,110,224867,1,0,0:0:0:0:
183,110,224942,1,0,0:0:0:0:
183,110,225017,1,0,0:0:0:0:
183,110,225092,1,0,0:0:0:0:
430,287,225167,1,8,0:0:0:0:
197,108,225467,1,0,0:0:0:0:
405,306,225767,1,8,0:0:0:0:
223,106,225917,1,0,0:0:0:0:
390,306,226217,1,8,0:0:0:0:
194,78,226367,1,0,0:0:0:0:
176,76,226667,1,0,0:0:0:0:
400,312,226967,1,8,0:0:0:0:
398,268,227267,1,8,0:0:0:0:
133,71,227567,1,0,0:0:0:0:
412,290,227867,1,8,0:0:0:0:
412,290,227942,1,8,0:0:0:0:
412,290,228017,1,8,0:0:0:0:
412,290,228092,1,8,0:0:0:0:
182,63,228167,1,0,0:0:0:0:
443,269,228317,1,8,0:0:0:0:
401,306,228617,1,8,0:0:0:0:
446,134,228767,1,4,0:0:0:0:
127,288,229367,1,12,0:0:0:0:
