osu file format v14

[General]
AudioFilename: audio.mp3
AudioLeadIn: 0
PreviewTime: 39767
Countdown: 0
SampleSet: Normal
StackLeniency: 0.7
Mode: 1
LetterboxInBreaks: 0
WidescreenStoryboard: 1

[Editor]
DistanceSpacing: 0.8
BeatDivisor: 2
GridSize: 8
TimelineZoom: 3.899998

[Metadata]
Title:Powercore
TitleUnicode:Powercore
Artist:Nekrogoblikon
ArtistUnicode:Nekrogoblikon
Creator:roxan
Version:Kantan
Source:osu!
Tags:english goblin metal metalcore core power fantasy comedy hard rock melodic death electronic featured artist fa welcome to bonkers
BeatmapID:2702270
BeatmapSetID:1289196

[Difficulty]
HPDrainRate:7
CircleSize:5
OverallDifficulty:3
ApproachRate:5
SliderMultiplier:1.4
SliderTickRate:1

[Events]
//Background and Video events
0,0,"FIyEEF.jpg",0,110
//Break Periods
2,130567,138767
//Storyboard Layer 0 (Background)
//Storyboard Layer 1 (Fail)
//Storyboard Layer 2 (Pass)
//Storyboard Layer 3 (Foreground)
//Storyboard Layer 4 (Overlay)
//Storyboard Sound Samples

[TimingPoints]
-433,300,4,1,0,100,1,0
167,-133.333333333333,4,1,0,100,0,0
767,-100,4,1,0,100,0,0
39167,300,4,1,0,100,1,8
39767,300,4,1,0,100,1,1
58967,-100,4,1,0,100,0,0
110567,300,4,1,0,100,1,8
111167,300,4,1,0,100,1,1
130367,-100,4,1,0,100,0,0
139967,-100,4,1,0,70,0,0
150767,300,4,1,0,100,1,0
150767,-100,4,1,0,100,0,0
190367,300,4,1,0,100,1,1
190367,-100,4,1,0,100,0,1
228767,-100,4,1,0,100,0,0

[HitObjects]
445,294,167,5,8,0:0:0:0:
431,255,467,1,8,0:0:0:0:
141,74,767,1,0,0:0:0:0:
392,328,1367,1,8,0:0:0:0:
129,118,1967,1,0,0:0:0:0:
75,99,2267,1,0,0:0:0:0:
398,285,2567,1,8,0:0:0:0:
411,281,3167,1,8,0:0:0:0:
388,313,3767,1,8,0:0:0:0:
180,95,4367,1,0,0:0:0:0:
164,26,5567,1,0,0:0:0:0:
387,279,6167,1,8,0:0:0:0:
220,45,6767,1,0,0:0:0:0:
191,63,7067,1,0,0:0:0:0:
392,305,7367,1,8,0:0:0:0:
183,120,7967,1,0,0:0:0:0:
363,318,8567,1,8,0:0:0:0:
355,326,9167,1,8,0:0:0:0:
196,128,9767,1,0,0:0:0:0:
194,89,10367,1,0,0:0:0:0:
392,244,10967,1,8,0:0:0:0:
147,75,11567,1,0,0:0:0:0:
171,110,11867,1,0,0:0:0:0:
387,331,12167,1,8,0:0:0:0:
186,55,12767,1,0,0:0:0:0:
459,240,13367,1,8,0:0:0:0:
176,86,13967,1,0,0:0:0:0:
177,65,15167,1,0,0:0:0:0:
348,286,15767,1,8,0:0:0:0:
164,100,16367,1,0,0:0:0:0:
224,83,16667,1,0,0:0:0:0:
373,317,16967,1,8,0:0:0:0:
145,93,17567,1,0,0:0:0:0:
429,241,18167,1,8,0:0:0:0:
408,277,18767,1,8,0:0:0:0:
387,290,19067,1,8,0:0:0:0:
391,114,19967,1,4,0:0:0:0:
181,82,20567,1,0,0:0:0:0:
438,307,21017,1,8,0:0:0:0:
372,321,21317,1,8,0:0:0:0:
175,78,21767,1,0,0:0:0:0:
421,285,22217,1,8,0:0:0:0:
383,280,22667,1,8,0:0:0:0:
251,94,22967,1,0,0:0:0:0:
353,348,23417,1,8,0:0:0:0:
200,114,23717,1,0,0:0:0:0:
360,332,24017,1,8,0:0:0:0:
131,75,24767,1,0,0:0:0:0:
194,126,25367,1,0,0:0:0:0:
418,297,25817,1,8,0:0:0:0:
392,330,26267,1,8,0:0:0:0:
176,79,26567,1,0,0:0:0:0:
385,279,27017,1,8,0:0:0:0:
435,265,27467,1,8,0:0:0:0:
175,44,27767,1,0,0:0:0:0:
444,277,28217,1,8,0:0:0:0:
175,87,28967,1,0,0:0:0:0:
450,115,29567,1,4,0:0:0:0:
366,328,29867,1,8,0:0:0:0:
147,50,30467,1,0,0:0:0:0:
367,133,30767,1,4,0:0:0:0:
163,126,31367,1,0,0:0:0:0:
420,228,31667,1,8,0:0:0:0:
388,88,31967,1,4,0:0:0:0:
328,318,32567,1,8,0:0:0:0:
422,291,33167,1,8,0:0:0:0:
446,275,34067,1,8,0:0:0:0:
197,62,34367,1,0,0:0:0:0:
342,295,34967,1,8,0:0:0:0:
148,89,35567,1,0,0:0:0:0:
366,286,36017,1,8,0:0:0:0:
413,266,36317,1,8,0:0:0:0:
182,79,36767,1,0,0:0:0:0:
160,58,37367,1,0,0:0:0:0:
423,301,37967,1,8,0:0:0:0:
388,295,38267,1,8,0:0:0:0:
120,101,38567,1,0,0:0:0:0:
178,247,39767,1,12,0:0:0:0:
187,123,40967,1,0,0:0:0:0:
386,302,42167,1,8,0:0:0:0:
149,60,43367,1,0,0:0:0:0:
177,99,44567,1,0,0:0:0:0:
416,304,45767,1,8,0:0:0:0:
162,81,46967,1,0,0:0:0:0:
162,70,48167,1,0,0:0:0:0:
412,282,48767,1,8,0:0:0:0:
170,73,49367,1,0,0:0:0:0:
430,276,50567,1,8,0:0:0:0:
154,107,51767,1,0,0:0:0:0:
158,58,52967,1,0,0:0:0:0:
365,305,53567,1,8,0:0:0:0:
171,84,54167,1,0,0:0:0:0:
413,268,55367,1,8,0:0:0:0:
201,80,56567,1,0,0:0:0:0:
156,62,57767,1,0,0:0:0:0:
472,228,58367,1,8,0:0:0:0:
173,84,58967,1,0,0:0:0:0:
373,295,59567,1,8,0:0:0:0:
138,65,60167,1,0,0:0:0:0:
212,137,60467,1,0,0:0:0:0:
399,287,60767,1,8,0:0:0:0:
181,109,61367,1,0,0:0:0:0:
388,286,61967,1,8,0:0:0:0:
402,351,62567,1,8,0:0:0:0:
103,56,63767,1,0,0:0:0:0:
447,250,64367,1,8,0:0:0:0:
160,113,64967,1,0,0:0:0:0:
149,53,65267,1,0,0:0:0:0:
363,309,65567,1,8,0:0:0:0:
200,157,66167,1,0,0:0:0:0:
366,317,66767,1,8,0:0:0:0:
120,48,67217,1,0,0:0:0:0:
365,278,67667,1,8,0:0:0:0:
145,84,68117,1,0,0:0:0:0:
174,48,68567,1,0,0:0:0:0:
444,270,69167,1,8,0:0:0:0:
188,102,69767,1,0,0:0:0:0:
44,27,70067,1,0,0:0:0:0:
383,310,70367,1,8,0:0:0:0:
377,290,70967,1,8,0:0:0:0:
411,276,71567,1,8,0:0:0:0:
207,103,72167,1,0,0:0:0:0:
149,94,73367,1,0,0:0:0:0:
380,256,73967,1,8,0:0:0:0:
188,68,74567,1,0,0:0:0:0:
139,88,74867,1,0,0:0:0:0:
354,341,75167,1,8,0:0:0:0:
121,59,75767,1,0,0:0:0:0:
421,256,76367,1,8,0:0:0:0:
387,246,76967,1,8,0:0:0:0:
180,107,77417,1,0,0:0:0:0:
417,279,77867,1,8,0:0:0:0:
125,93,78167,1,0,0:0:0:0:
424,262,79967,1,8,0:0:0:0:
414,115,80567,1,4,0:0:0:0:
135,107,81167,1,0,0:0:0:0:
415,278,81617,1,8,0:0:0:0:
372,345,82067,1,8,0:0:0:0:
172,78,82367,1,0,0:0:0:0:
415,247,82817,1,8,0:0:0:0:
78,41,83267,1,0,0:0:0:0:
170,67,83567,1,0,0:0:0:0:
397,325,84017,1,8,0:0:0:0:
118,29,84317,1,0,0:0:0:0:
385,283,84617,1,8,0:0:0:0:
88,96,85367,1,0,0:0:0:0:
357,334,85967,1,8,0:0:0:0:
510,182,86417,1,8,0:0:0:0:
205,66,86867,1,0,0:0:0:0:
353,311,87167,1,8,0:0:0:0:
376,290,87617,1,8,0:0:0:0:
154,57,88067,1,0,0:0:0:0:
358,304,88367,1,8,0:0:0:0:
99,50,88667,1,0,0:0:0:0:
459,250,88967,1,8,0:0:0:0:
445,100,90167,1,4,0:0:0:0:
138,57,91367,1,0,0:0:0:0:
428,262,91967,1,8,0:0:0:0:
132,106,92567,1,0,0:0:0:0:
217,123,93767,1,0,0:0:0:0:
388,286,94367,1,8,0:0:0:0:
388,286,94667,1,8,0:0:0:0:
181,87,94967,1,0,0:0:0:0:
360,323,95567,1,8,0:0:0:0:
147,80,96167,1,0,0:0:0:0:
364,282,96767,1,8,0:0:0:0:
422,288,97067,1,8,0:0:0:0:
199,70,97367,1,0,0:0:0:0:
404,318,97967,1,8,0:0:0:0:
376,303,98267,1,8,0:0:0:0:
130,95,98567,1,0,0:0:0:0:
366,329,99167,1,8,0:0:0:0:
154,55,99767,1,0,0:0:0:0:
52,120,100967,1,0,0:0:0:0:
349,267,101567,1,8,0:0:0:0:
369,299,102167,1,8,0:0:0:0:
357,312,102467,1,8,0:0:0:0:
197,90,102767,1,0,0:0:0:0:
383,286,103367,1,8,0:0:0:0:
152,91,104567,1,0,0:0:0:0:
380,296,104867,1,8,0:0:0:0:
207,76,105167,1,0,0:0:0:0:
164,60,105767,1,0,0:0:0:0:
188,113,106367,1,0,0:0:0:0:
343,345,106967,1,8,0:0:0:0:
181,76,107567,1,0,0:0:0:0:
402,329,108167,1,8,0:0:0:0:
172,96,108767,1,0,0:0:0:0:
146,66,109067,1,0,0:0:0:0:
415,281,109367,1,8,0:0:0:0:
165,76,109967,1,0,0:0:0:0:
389,307,110567,1,8,0:0:0:0:
196,253,111167,1,12,0:0:0:0:
118,96,112367,1,0,0:0:0:0:
411,298,113567,1,8,0:0:0:0:
104,51,114767,1,0,0:0:0:0:
370,299,115967,1,8,0:0:0:0:
116,72,117167,1,0,0:0:0:0:
99,93,118367,1,0,0:0:0:0:
380,327,119567,1,8,0:0:0:0:
166,76,120767,1,0,0:0:0:0:
183,63,121967,1,0,0:0:0:0:
113,51,123167,1,0,0:0:0:0:
412,291,123767,1,8,0:0:0:0:
146,94,124367,1,0,0:0:0:0:
387,290,125567,1,8,0:0:0:0:
199,93,126767,1,0,0:0:0:0:
391,300,127367,1,8,0:0:0:0:
194,80,127967,1,0,0:0:0:0:
169,69,129167,1,0,0:0:0:0:
376,301,129767,1,8,0:0:0:0:
192,85,130367,1,0,0:0:0:0:
386,303,139967,5,8,0:0:0:0:
384,275,141167,1,8,0:0:0:0:
166,102,142367,1,0,0:0:0:0:
143,109,143567,1,0,0:0:0:0:
436,278,144767,1,8,0:0:0:0:
206,114,145967,1,0,0:0:0:0:
427,268,147167,1,8,0:0:0:0:
377,258,147767,1,8,0:0:0:0:
384,308,148367,1,8,0:0:0:0:
344,304,148967,1,8,0:0:0:0:
433,301,149567,1,8,0:0:0:0:
140,277,150767,1,12,0:0:0:0:
397,272,151967,1,8,0:0:0:0:
456,250,152567,1,8,0:0:0:0:
411,118,153167,1,4,0:0:0:0:
405,316,154367,1,8,0:0:0:0:
379,302,154967,1,8,0:0:0:0:
214,229,155567,1,12,0:0:0:0:
92,114,156767,1,0,0:0:0:0:
363,294,157367,1,8,0:0:0:0:
405,131,157967,1,4,0:0:0:0:
207,130,159167,1,0,0:0:0:0:
426,276,159767,1,8,0:0:0:0:
137,236,160367,1,12,0:0:0:0:
403,289,161567,1,8,0:0:0:0:
393,280,162167,1,8,0:0:0:0:
451,105,162767,1,4,0:0:0:0:
404,272,163967,1,8,0:0:0:0:
448,245,164567,1,8,0:0:0:0:
183,247,165167,1,12,0:0:0:0:
150,63,166367,1,0,0:0:0:0:
377,335,166967,1,8,0:0:0:0:
429,121,167567,1,4,0:0:0:0:
191,98,168767,1,0,0:0:0:0:
407,264,169367,1,8,0:0:0:0:
207,260,169967,1,12,0:0:0:0:
431,260,171167,1,8,0:0:0:0:
415,277,171767,1,8,0:0:0:0:
417,96,172367,1,4,0:0:0:0:
391,280,173567,1,8,0:0:0:0:
416,257,174167,1,8,0:0:0:0:
167,232,174767,1,12,0:0:0:0:
195,115,175967,1,0,0:0:0:0:
374,317,176567,1,8,0:0:0:0:
446,135,177167,1,4,0:0:0:0:
181,92,178367,1,0,0:0:0:0:
73,107,178967,1,0,0:0:0:0:
180,245,179567,1,12,0:0:0:0:
389,319,180767,1,8,0:0:0:0:
397,290,181367,1,8,0:0:0:0:
391,96,181967,1,4,0:0:0:0:
373,283,183167,1,8,0:0:0:0:
429,254,183767,1,8,0:0:0:0:
161,248,184367,1,12,0:0:0:0:
167,122,185567,1,0,0:0:0:0:
369,270,186167,1,8,0:0:0:0:
381,118,186767,1,4,0:0:0:0:
208,132,187967,1,0,0:0:0:0:
387,294,188567,1,8,0:0:0:0:
405,265,189167,1,8,0:0:0:0:
156,256,190367,1,12,0:0:0:0:
195,135,191567,1,0,0:0:0:0:
367,295,192767,1,8,0:0:0:0:
150,62,193967,1,0,0:0:0:0:
413,252,195167,1,8,0:0:0:0:
145,51,196367,1,0,0:0:0:0:
191,95,197567,1,0,0:0:0:0:
433,285,198767,1,8,0:0:0:0:
176,84,199967,1,0,0:0:0:0:
360,295,201167,1,8,0:0:0:0:
170,92,202367,1,0,0:0:0:0:
162,67,203567,1,0,0:0:0:0:
446,236,204167,1,8,0:0:0:0:
172,106,204767,1,0,0:0:0:0:
424,268,205967,1,8,0:0:0:0:
162,70,207167,1,0,0:0:0:0:
141,67,208367,1,0,0:0:0:0:
408,272,208967,1,8,0:0:0:0:
191,268,209567,1,12,0:0:0:0:
129,114,210767,1,0,0:0:0:0:
396,295,211967,1,8,0:0:0:0:
165,90,213167,1,0,0:0:0:0:
220,106,214367,1,0,0:0:0:0:
362,312,215567,1,8,0:0:0:0:
150,75,216767,1,0,0:0:0:0:
403,300,217967,1,8,0:0:0:0:
193,69,218567,1,0,0:0:0:0:
383,276,219167,1,8,0:0:0:0:
214,91,220367,1,0,0:0:0:0:
399,274,221567,1,8,0:0:0:0:
198,105,222767,1,0,0:0:0:0:
385,308,223367,1,8,0:0:0:0:
181,105,223967,1,0,0:0:0:0:
430,287,225167,1,8,0:0:0:0:
194,78,226367,1,0,0:0:0:0:
133,71,227567,1,0,0:0:0:0:
408,319,228167,1,8,0:0:0:0:
163,67,228767,1,0,0:0:0:0:
186,274,229367,1,12,0:0:0:0:
