osu file format v14

[General]
AudioFilename: audio.mp3
AudioLeadIn: 0
PreviewTime: 42339
Countdown: 0
SampleSet: Soft
StackLeniency: 0.7
Mode: 0
LetterboxInBreaks: 0
WidescreenStoryboard: 1

[Editor]
Bookmarks: 11686,21469,42339,46252,67121,72339,93208,97447,118316,128751,139186,160055,163968,184838,201145,201227,201308,201472,201553,201635
DistanceSpacing: 0.7
BeatDivisor: 4
GridSize: 32
TimelineZoom: 2.800005

[Metadata]
Title:Mold
TitleUnicode:Mold
Artist:Nekrogoblikon
ArtistUnicode:Nekrogoblikon
Creator:Icekalt
Version:Hectic's Extra
Source:osu!
Tags:melodic death metal english fa featured artist welcome to bonkers hectic nao tomori naotoshi h4d0uk3n1
BeatmapID:2224855
BeatmapSetID:1061153

[Difficulty]
HPDrainRate:5
CircleSize:4
OverallDifficulty:8.7
ApproachRate:9.2
SliderMultiplier:2
SliderTickRate:1

[Events]
//Background and Video events
0,0,"fantasy-4351128_1920.jpg",0,0
//Break Periods
2,800,2638
2,3408,5247
2,6017,7529
2,67321,71116
//Storyboard Layer 0 (Background)
//Storyboard Layer 1 (Fail)
//Storyboard Layer 2 (Pass)
//Storyboard Layer 3 (Foreground)
//Storyboard Layer 4 (Overlay)
//Storyboard Sound Samples

[TimingPoints]
600,326.086956521739,4,2,34,45,1,0
5817,-100,4,2,34,65,0,0
6143,-100,4,2,34,45,0,0
8099,-66.6666666666667,4,2,34,45,0,0
8426,-66.6666666666667,4,2,34,65,0,0
8752,-66.6666666666667,4,2,34,55,0,0
9078,-66.6666666666667,4,2,34,65,0,0
9404,-66.6666666666667,4,2,34,55,0,0
9730,-100,4,2,34,55,0,0
11034,-200,4,2,34,60,0,0
11686,-83.3333333333333,4,2,34,60,0,0
21469,-83.3333333333333,4,2,34,65,0,0
42013,-133.333333333333,4,2,34,65,0,0
42339,-100,4,2,34,65,0,0
42502,-100,4,2,34,50,0,0
46252,-200,4,2,34,70,0,0
67121,-200,4,2,34,55,0,0
71034,-200,4,2,34,30,0,0
71931,-200,4,2,34,5,0,0
72013,-200,4,2,34,30,0,0
72339,-83.3333333333333,4,2,34,65,0,0
82773,-66.6666666666667,4,2,34,70,0,0
87991,-83.3333333333333,4,2,34,70,0,0
91904,-83.3333333333333,4,2,34,60,0,0
93208,-100,4,2,34,60,0,0
93534,-100,4,2,34,50,0,0
97447,326.086956521739,4,2,34,70,1,0
97447,-200,4,2,34,70,0,0
118316,-83.3333333333333,4,2,34,60,0,0
119213,-83.3333333333333,4,2,34,5,0,0
119294,-83.3333333333333,4,2,34,60,0,0
120517,-83.3333333333333,4,2,34,5,0,0
120599,-83.3333333333333,4,2,34,60,0,0
125164,-200,4,2,34,60,0,0
125408,-200,4,2,34,5,0,0
125490,-83.3333333333333,4,2,34,60,0,0
138207,-166.666666666667,4,2,34,60,0,0
138533,-1000,4,2,34,60,0,0
139186,-83.3333333333333,4,2,34,60,0,0
140408,-83.3333333333333,4,2,34,5,0,0
140490,-83.3333333333333,4,2,34,60,0,0
142039,-83.3333333333333,4,2,34,5,0,0
142120,-83.3333333333333,4,2,34,60,0,0
142691,-83.3333333333333,4,2,34,5,0,0
142773,-83.3333333333333,4,2,34,60,0,0
145626,-83.3333333333333,4,2,34,5,0,0
145707,-83.3333333333333,4,2,34,60,0,0
150843,-83.3333333333333,4,2,34,5,0,0
150925,-83.3333333333333,4,2,34,60,0,0
152474,-83.3333333333333,4,2,34,5,0,0
152555,-83.3333333333333,4,2,34,60,0,0
156061,-83.3333333333333,4,2,34,5,0,0
156142,-83.3333333333333,4,2,34,60,0,0
157466,326.086956521739,4,2,34,60,1,0
157466,-83.3333333333333,4,2,34,60,0,0
158688,-83.3333333333333,4,2,34,5,0,0
158770,-83.3333333333333,4,2,34,60,0,0
160055,-100,4,2,34,60,0,0
160400,-100,4,2,34,50,0,0
163968,-200,4,2,34,50,0,0
163972,326.086956521739,4,2,34,70,1,0
163972,-200,4,2,34,70,0,0
205711,-200,4,2,34,25,0,0
206119,-200,4,2,34,5,0,0
206364,-200,4,2,34,25,0,0
206719,326.086956521739,4,2,34,25,1,0
206771,-200,4,2,34,5,0,0
207016,-200,4,2,34,25,0,0
207045,-185.873605947955,4,2,34,25,0,0
207348,326.086956521739,4,2,34,25,1,0
207423,-200,4,2,34,5,0,0
207505,-200,4,2,34,25,0,0
207734,326.086956521739,4,2,34,25,1,0
207734,-200,4,2,34,25,0,0
208075,-200,4,2,34,5,0,0
208157,-200,4,2,34,25,0,0
208353,326.086956521739,4,2,34,25,1,0
208353,-178.571428571429,4,2,34,25,0,0
208644,326.086956521739,4,2,34,25,1,0
208728,-200,4,2,34,5,0,0
208809,-200,4,2,34,25,0,0
209035,326.086956521739,4,2,34,25,1,0
209035,-215.51724137931,4,2,34,25,0,0
209298,326.086956521739,4,2,34,25,1,0
209380,-200,4,2,34,5,0,0
209461,-200,4,2,34,25,0,0
209653,326.086956521739,4,2,34,25,1,0
209653,-833.333333333333,4,2,34,25,0,0
210794,-200,4,2,34,5,0,0

[Colours]
Combo1 : 0,84,168
Combo2 : 0,128,64

[HitObjects]
129,119,600,5,4,0:3:0:0:
455,80,3208,5,4,0:3:0:0:
271,340,5817,5,4,1:0:0:0:
247,34,8099,6,0,P|253:139|256:381,1,300.000011444092,4|4,0:3|0:1,0:0:0:0:
244,354,9078,5,4,0:1:0:0:
251,343,9730,6,0,P|312:329|342:275,1,100,2|2,0:3|0:3,0:0:0:0:
334,301,9974,1,0,0:3:0:0:
334,301,10056,1,2,0:3:0:0:
319,106,10219,1,4,0:3:0:0:
319,106,10301,1,4,0:3:0:0:
319,106,10382,5,2,0:3:0:0:
405,249,10545,1,0,0:0:0:0:
249,301,10708,1,2,0:3:0:0:
163,374,10871,1,2,0:3:0:0:
20,364,11034,5,0,0:3:0:0:
15,339,11197,5,0,0:0:0:0:
0,323,11360,6,0,L|52:336,1,50,2|2,0:0|0:0,0:0:0:0:
333,358,11686,6,0,B|385:325|385:325|374:150,1,179.999994506836,8|0,0:0|0:0,0:0:0:0:
378,189,12013,1,2,0:0:0:0:
461,294,12176,1,0,0:0:0:0:
501,30,12339,6,0,B|471:62|471:62|467:163,1,119.999996337891,4|0,0:3|0:0,0:0:0:0:
492,371,12665,1,8,0:3:0:0:
465,214,12828,1,2,0:3:0:0:
379,21,12991,6,0,L|389:162,1,119.999996337891,8|0,0:0|0:0,0:0:0:0:
372,343,13317,2,0,L|363:223,1,119.999996337891,4|0,0:3|0:0,0:0:0:0:
295,12,13643,5,4,0:0:0:0:
292,20,13969,5,2,0:0:0:0:
426,64,14132,1,2,0:0:0:0:
102,120,14295,1,8,0:0:0:0:
93,109,14621,6,0,L|244:118,1,119.999996337891,2|2,0:3|0:0,0:0:0:0:
401,131,14947,5,2,0:3:0:0:
367,166,15110,1,2,0:0:0:0:
391,89,15273,1,2,0:3:0:0:
512,127,15436,1,2,0:3:0:0:
298,208,15599,1,8,0:0:0:0:
284,200,15926,5,10,0:0:0:0:
512,261,16089,1,0,0:0:0:0:
435,295,16252,6,0,P|374:293|314:358,1,119.999996337891,4|0,0:0|0:0,0:0:0:0:
391,384,16578,5,2,0:0:0:0:
425,205,16741,1,2,0:0:0:0:
316,9,16904,1,8,0:0:0:0:
308,20,17230,5,2,0:0:0:0:
291,163,17393,1,2,0:3:0:0:
428,195,17556,1,4,0:3:0:0:
439,209,17882,5,2,0:3:0:0:
439,209,18045,1,2,0:3:0:0:
79,174,18208,2,0,P|42:115|61:52,1,119.999996337891,8|0,0:0|0:0,0:0:0:0:
125,106,18534,2,0,P|118:174|88:262,1,119.999996337891,4|0,0:3|0:0,0:0:0:0:
15,349,18860,5,4,0:0:0:0:
11,337,19186,5,2,0:0:0:0:
162,352,19349,1,2,0:0:0:0:
450,287,19513,1,8,0:3:0:0:
451,259,19594,1,8,0:3:0:0:
486,32,19839,5,2,2:3:0:0:
488,61,19920,1,2,2:3:0:0:
489,91,20002,1,2,2:3:0:0:
487,121,20083,1,2,2:3:0:0:
484,151,20165,1,2,0:0:0:0:
472,203,21469,5,2,3:2:0:0:
457,204,21550,1,2,3:2:0:0:
442,206,21632,1,10,3:2:0:0:
427,208,21713,1,2,3:2:0:0:
412,209,21795,2,0,P|395:183|388:154,1,59.9999981689454,2|0,0:0|0:0,0:0:0:0:
363,270,21958,1,10,0:0:0:0:
349,265,22040,1,0,0:0:0:0:
334,269,22121,6,0,L|331:328,1,59.9999981689454,2|0,0:3|0:0,0:0:0:0:
266,206,22284,2,0,L|249:280,1,59.9999981689454,8|0,0:0|0:0,0:0:0:0:
219,121,22447,2,0,L|174:193,1,59.9999981689454,2|2,2:3|2:3,0:0:0:0:
254,17,22610,6,0,B|212:39|212:39|89:24,1,119.999996337891,8|2,0:0|3:2,0:0:0:0:
20,90,22936,2,0,L|80:81,1,59.9999981689454,10|2,3:2|3:2,0:0:0:0:
94,158,23099,2,0,L|23:171,1,59.9999981689454,2|0,3:2|0:0,0:0:0:0:
47,245,23263,2,0,L|107:235,1,59.9999981689454,8|0,0:0|0:0,0:0:0:0:
180,261,23426,5,2,0:3:0:0:
263,252,23589,1,8,0:0:0:0:
306,323,23752,1,2,0:3:0:0:
487,346,23915,1,10,3:2:0:0:
487,346,23996,1,2,3:2:0:0:
487,346,24078,5,0,0:0:0:0:
422,248,24241,2,0,P|424:212|449:171,1,59.9999981689454,8|0,0:0|0:0,0:0:0:0:
362,145,24404,2,0,P|393:119|441:105,1,59.9999981689454,2|0,0:0|0:0,0:0:0:0:
368,38,24567,2,0,P|402:31|447:36,1,59.9999981689454,8|0,0:0|0:0,0:0:0:0:
433,35,24730,6,0,P|403:34|373:41,1,59.9999981689454,2|0,0:0|0:0,0:0:0:0:
416,115,24893,2,0,P|389:128|367:148,1,59.9999981689454,8|0,0:0|0:0,0:0:0:0:
439,194,25056,2,0,P|428:221|427:251,1,59.9999981689454,0|0,0:0|0:0,0:0:0:0:
440,31,25219,6,0,B|410:16|410:16|274:37,1,119.999996337891,10|0,3:2|0:0,0:0:0:0:
146,8,25545,2,0,L|220:17,1,59.9999981689454,10|2,3:2|3:2,0:0:0:0:
196,99,25708,2,0,L|252:150,1,59.9999981689454,2|0,3:2|0:0,0:0:0:0:
183,201,25871,2,0,L|177:271,1,59.9999981689454,8|0,0:0|0:0,0:0:0:0:
176,352,26034,5,2,1:0:0:0:
176,352,26115,1,0,0:0:0:0:
176,352,26197,1,0,0:0:0:0:
396,377,26360,1,2,1:0:0:0:
396,377,26442,1,0,0:0:0:0:
396,377,26523,1,0,0:0:0:0:
509,194,26686,1,4,0:0:0:0:
509,194,26768,5,0,0:0:0:0:
509,194,26849,1,8,0:0:0:0:
424,201,27013,2,0,L|297:214,1,119.999996337891,2|8,3:2|0:0,0:0:0:0:
277,181,27257,1,2,3:2:0:0:
316,165,27339,2,0,L|332:307,1,119.999996337891,2|0,0:1|0:0,0:0:0:0:
305,250,27583,1,0,0:3:0:0:
344,235,27665,2,0,L|487:220,1,119.999996337891,2|0,0:1|0:0,0:0:0:0:
510,69,27991,6,0,L|374:59,1,119.999996337891,4|10,0:1|3:2,0:0:0:0:
357,85,28235,1,2,3:2:0:0:
323,110,28317,2,0,L|184:119,1,119.999996337891,2|10,3:2|3:2,0:0:0:0:
23,138,28643,5,2,0:1:0:0:
23,138,28724,1,0,0:0:0:0:
23,138,28806,1,0,0:0:0:0:
228,203,28969,1,2,0:1:0:0:
228,203,29051,1,0,0:0:0:0:
228,203,29132,1,0,0:0:0:0:
360,16,29295,6,0,L|343:172,1,119.999996337891,2|10,3:2|3:2,0:0:0:0:
315,163,29540,1,2,3:2:0:0:
323,203,29621,6,0,L|341:52,1,119.999996337891,2|10,3:2|3:2,0:0:0:0:
301,61,29866,1,2,3:2:0:0:
259,68,29947,6,0,L|410:84,1,119.999996337891,2|8,0:1|3:2,0:0:0:0:
408,109,30192,1,0,3:0:0:0:
448,99,30273,6,0,L|292:82,1,119.999996337891,2|0,0:1|0:0,0:0:0:0:
87,155,30599,5,2,0:3:0:0:
115,171,30681,1,2,0:3:0:0:
113,204,30763,1,8,0:3:0:0:
447,205,30926,5,2,0:3:0:0:
416,213,31008,1,2,0:3:0:0:
408,245,31090,1,8,0:3:0:0:
245,354,31252,5,2,3:2:0:0:
252,309,31333,1,2,3:2:0:0:
258,264,31415,1,2,3:2:0:0:
264,220,31496,1,2,3:2:0:0:
249,195,31578,5,2,3:0:0:0:
247,165,31659,1,2,3:0:0:0:
245,135,31741,1,2,3:0:0:0:
243,105,31822,1,2,3:0:0:0:
223,81,31904,6,0,B|223:51|223:51|316:31,1,119.999996337891,2|10,3:2|3:2,0:0:0:0:
512,75,32230,2,0,L|453:69,1,59.9999981689454,2|0,3:2|3:2,0:0:0:0:
386,120,32393,2,0,L|327:114,1,59.9999981689454,8|0,0:0|0:0,0:0:0:0:
470,158,32556,2,0,B|437:192|437:192|452:275,1,119.999996337891,4|8,0:3|0:0,0:0:0:0:
388,384,32882,2,0,L|393:325,1,59.9999981689454,2|0,3:2|0:0,0:0:0:0:
338,203,33045,2,0,L|334:263,1,59.9999981689454,8|0,0:0|0:0,0:0:0:0:
324,119,33208,6,0,L|319:178,1,59.9999981689454,6|0,0:3|0:0,0:0:0:0:
270,319,33371,2,0,L|265:378,1,59.9999981689454,8|0,0:0|0:0,0:0:0:0:
217,203,33534,2,0,B|241:220|241:220|250:310,1,119.999996337891,2|8,0:3|0:0,0:0:0:0:
101,260,33860,2,0,L|161:266,1,59.9999981689454,2|0,0:1|0:0,0:0:0:0:
0,339,34023,2,0,L|60:333,1,59.9999981689454,8|0,0:0|0:0,0:0:0:0:
68,337,34186,6,0,L|9:344,1,59.9999981689454,2|0,0:1|0:0,0:0:0:0:
169,270,34349,2,0,L|110:265,1,59.9999981689454,8|0,0:0|0:0,0:0:0:0:
196,147,34513,6,0,P|203:176|217:203,1,59.9999981689454,2|0,0:3|0:0,0:0:0:0:
291,164,34676,2,0,P|330:169|389:163,1,59.9999981689454,8|0,0:0|0:0,0:0:0:0:
401,236,34839,6,0,P|446:254|487:283,1,59.9999981689454,2|0,0:3|0:0,0:0:0:0:
412,331,35002,2,0,P|427:356|449:407,1,59.9999981689454,8|0,0:0|0:0,0:0:0:0:
500,188,35165,6,0,B|521:160|521:160|509:59,1,119.999996337891,2|8,1:1|0:0,0:0:0:0:
477,50,35409,1,2,0:0:0:0:
490,9,35491,2,0,L|507:157,1,119.999996337891,2|8,1:0|0:0,0:0:0:0:
466,269,35817,6,0,B|424:236|424:236|325:267,1,119.999996337891,0|8,0:0|0:0,0:0:0:0:
327,230,36061,1,0,0:0:0:0:
297,260,36143,2,0,B|382:233|382:233|403:158,1,119.999996337891,0|8,0:0|0:0,0:0:0:0:
373,23,36469,5,4,0:0:0:0:
373,23,36551,1,0,0:0:0:0:
373,23,36632,1,0,0:0:0:0:
412,331,36795,1,6,0:0:0:0:
412,331,36877,1,0,0:0:0:0:
412,331,36958,1,0,0:0:0:0:
468,138,37121,5,4,0:1:0:0:
468,138,37203,1,0,0:0:0:0:
468,138,37284,2,0,P|409:130|366:137,1,59.9999981689454,8|2,0:0|3:2,0:0:0:0:
397,220,37447,1,0,0:0:0:0:
397,220,37528,1,0,0:0:0:0:
397,220,37610,2,0,P|349:254|334:280,1,59.9999981689454,8|2,0:0|3:2,0:0:0:0:
277,299,37773,5,2,1:0:0:0:
277,299,37854,1,0,0:0:0:0:
277,299,37936,2,0,P|266:258|264:216,1,59.9999981689454,0|0,0:0|0:0,0:0:0:0:
184,212,38100,1,2,0:1:0:0:
184,212,38181,1,0,0:0:0:0:
184,212,38263,2,0,P|189:169|201:132,1,59.9999981689454,0|0,0:0|0:0,0:0:0:0:
81,8,38426,6,0,P|104:63|114:123,1,119.999996337891,4|8,0:1|0:0,0:0:0:0:
46,172,38752,1,2,1:0:0:0:
46,172,38833,1,0,0:0:0:0:
46,172,38915,2,0,P|27:215|8:239,1,59.9999981689454,8|0,0:0|0:0,0:0:0:0:
122,226,39078,1,0,3:2:0:0:
122,226,39160,1,0,3:2:0:0:
122,226,39241,2,0,P|123:265|116:314,1,59.9999981689454,8|0,3:2|3:2,0:0:0:0:
207,256,39404,2,0,P|231:336|237:416,1,119.999996337891,0|8,3:2|3:2,0:0:0:0:
319,382,39730,5,4,0:0:0:0:
338,359,39811,1,0,0:0:0:0:
364,345,39893,1,0,0:0:0:0:
393,339,39974,1,0,0:0:0:0:
428,315,40056,5,2,1:0:0:0:
400,302,40138,1,0,0:0:0:0:
370,297,40219,1,0,0:0:0:0:
339,298,40301,1,2,3:2:0:0:
312,282,40382,5,0,0:0:0:0:
312,282,40464,1,0,0:0:0:0:
312,282,40545,2,0,P|304:241|308:185,1,59.9999981689454,8|0,0:0|3:0,0:0:0:0:
395,226,40708,1,0,3:0:0:0:
395,226,40789,1,0,3:0:0:0:
395,226,40871,2,0,P|398:179|421:126,1,59.9999981689454,8|0,0:0|0:0,0:0:0:0:
487,42,41034,5,8,0:0:0:0:
426,35,41116,1,8,0:0:0:0:
366,29,41197,1,8,0:0:0:0:
29,103,41360,5,8,0:0:0:0:
89,97,41442,1,8,0:0:0:0:
148,91,41523,1,8,0:0:0:0:
208,85,41605,1,8,0:0:0:0:
267,79,41686,1,4,0:3:0:0:
354,161,41849,5,4,0:3:0:0:
354,161,41931,1,4,0:3:0:0:
354,161,42013,6,0,L|349:214,3,37.5000014305115,2|2|2|2,0:3|0:3|0:3|0:3,0:0:0:0:
333,208,42339,6,0,B|341:327,1,100,2|0,0:3|0:0,0:0:0:0:
419,330,42665,1,2,0:0:0:0:
492,296,42828,1,2,0:0:0:0:
338,198,42991,6,0,B|344:297,1,100,2|0,0:3|0:3,0:0:0:0:
261,119,43317,6,0,L|256:219,1,100,2|0,0:3|0:3,0:0:0:0:
152,8,43643,6,0,B|179:32|179:32|185:96,1,100,2|0,0:3|0:3,0:0:0:0:
104,72,43969,1,2,0:0:0:0:
258,36,44132,1,2,0:0:0:0:
412,90,44295,6,0,L|394:218,1,100,2|0,0:3|0:3,0:0:0:0:
280,167,44621,6,0,B|294:213|294:213|338:242,1,100,2|0,0:3|0:3,0:0:0:0:
135,286,44947,6,0,B|157:259|157:259|221:253,1,100,2|0,0:3|0:3,0:0:0:0:
386,370,45273,5,2,0:0:0:0:
197,335,45436,1,2,0:0:0:0:
126,152,45599,1,2,0:0:0:0:
148,74,45763,6,0,L|146:123,1,50,4|4,0:3|0:3,0:0:0:0:
108,4,45926,2,0,L|116:225,1,200,8|2,0:0|2:3,0:0:0:0:
119,207,46333,5,2,2:3:0:0:
123,211,46415,2,0,B|99:228|99:228|60:223,1,50,2|0,3:2|0:0,0:0:0:0:
23,95,46741,1,2,2:3:0:0:
276,30,46904,5,8,0:0:0:0:
276,30,46985,1,2,3:2:0:0:
276,30,47067,1,2,3:2:0:0:
253,363,47230,1,2,2:3:0:0:
253,363,47311,1,2,2:3:0:0:
253,363,47393,2,0,L|305:373,1,50,2|0,3:2|0:0,0:0:0:0:
483,188,47719,5,2,2:3:0:0:
483,188,47801,1,2,2:3:0:0:
483,188,47882,1,2,3:2:0:0:
249,205,48045,1,0,0:0:0:0:
35,146,48208,1,8,0:0:0:0:
35,146,48290,1,2,3:2:0:0:
35,146,48371,5,2,3:2:0:0:
253,219,48534,1,2,0:0:0:0:
428,65,48697,2,0,L|423:9,1,50,8|0,0:0|0:0,0:0:0:0:
238,14,49023,5,2,0:3:0:0:
434,141,49186,1,2,0:3:0:0:
376,342,49349,1,2,0:3:0:0:
318,0,49513,5,8,0:0:0:0:
298,358,49676,1,8,0:0:0:0:
275,229,49839,1,2,0:3:0:0:
355,126,50002,1,2,2:3:0:0:
355,126,50083,1,2,2:3:0:0:
355,126,50165,5,2,3:2:0:0:
305,370,50328,2,0,L|252:380,1,50,2|0,0:0|0:0,0:0:0:0:
61,282,50654,5,2,0:0:0:0:
379,334,50817,1,8,0:0:0:0:
379,334,50898,1,2,3:2:0:0:
379,334,50980,1,2,3:2:0:0:
494,207,51143,5,8,0:0:0:0:
225,249,51306,1,8,0:0:0:0:
19,110,51469,5,2,2:3:0:0:
19,110,51551,1,2,2:3:0:0:
19,110,51632,2,0,L|17:46,1,50,2|0,3:2|0:0,0:0:0:0:
256,15,51958,1,2,3:2:0:0:
256,15,52040,1,2,3:2:0:0:
256,15,52121,5,8,3:2:0:0:
100,52,52284,1,2,0:0:0:0:
379,80,52447,1,2,2:3:0:0:
379,80,52529,1,2,2:3:0:0:
379,80,52610,2,0,L|451:86,1,50,0|0,0:0|0:0,0:0:0:0:
479,298,52936,5,2,2:3:0:0:
479,298,53018,1,2,2:3:0:0:
479,298,53099,1,2,2:3:0:0:
387,158,53263,1,2,0:3:0:0:
512,10,53426,5,8,0:0:0:0:
462,202,53589,1,2,0:0:0:0:
486,380,53752,5,8,0:0:0:0:
472,125,53915,2,0,L|467:57,1,50,8|2,0:0|0:0,0:0:0:0:
364,16,54241,5,0,1:1:0:0:
354,144,54404,1,2,0:3:0:0:
346,272,54567,1,2,0:0:0:0:
411,90,54730,5,8,0:0:0:0:
411,90,54811,1,2,2:3:0:0:
411,90,54893,1,2,2:3:0:0:
290,205,55056,1,2,0:3:0:0:
329,361,55219,1,2,0:3:0:0:
365,165,55382,5,4,0:0:0:0:
235,24,55545,2,0,L|185:32,1,50,2|0,0:3|0:0,0:0:0:0:
39,59,55871,5,0,0:0:0:0:
299,88,56034,1,2,2:3:0:0:
299,88,56116,1,2,2:3:0:0:
299,88,56197,1,2,3:2:0:0:
10,143,56360,5,8,0:0:0:0:
321,197,56523,1,8,0:0:0:0:
474,311,56686,5,2,2:3:0:0:
474,311,56768,1,2,2:3:0:0:
474,311,56849,2,0,P|474:344|467:378,1,50,2|0,3:2|0:0,0:0:0:0:
419,182,57176,1,2,2:3:0:0:
65,157,57339,5,8,0:0:0:0:
65,157,57420,1,2,3:2:0:0:
65,157,57502,1,2,3:2:0:0:
468,112,57665,1,2,2:3:0:0:
468,112,57746,1,2,2:3:0:0:
468,112,57828,2,0,P|474:74|473:46,1,50,2|0,3:2|0:0,0:0:0:0:
270,13,58154,5,2,2:3:0:0:
270,13,58235,1,2,2:3:0:0:
270,13,58317,1,2,3:2:0:0:
248,192,58480,1,0,0:0:0:0:
455,123,58643,5,8,0:0:0:0:
455,123,58724,1,2,3:2:0:0:
455,123,58806,1,2,3:2:0:0:
252,105,58969,1,2,0:0:0:0:
49,87,59132,2,0,L|49:137,1,50,8|0,0:0|0:0,0:0:0:0:
117,377,59458,5,2,0:3:0:0:
52,216,59621,1,2,0:3:0:0:
123,58,59784,1,2,0:3:0:0:
18,296,59947,5,8,0:0:0:0:
276,353,60110,1,2,0:0:0:0:
101,378,60273,5,2,0:3:0:0:
60,210,60436,1,2,2:3:0:0:
60,210,60518,1,2,2:3:0:0:
60,210,60599,1,2,3:2:0:0:
139,67,60763,2,0,P|147:32|144:4,1,50,2|0,0:0|0:0,0:0:0:0:
19,137,61089,5,2,0:0:0:0:
269,188,61252,1,8,0:0:0:0:
269,188,61333,1,2,3:2:0:0:
269,188,61415,1,2,3:2:0:0:
477,141,61578,5,8,0:0:0:0:
192,156,61741,1,8,0:0:0:0:
117,364,61904,5,2,2:3:0:0:
117,364,61985,1,2,2:3:0:0:
117,364,62067,2,0,L|111:300,1,50,2|0,3:2|0:0,0:0:0:0:
51,84,62393,5,2,3:2:0:0:
51,84,62474,1,2,3:2:0:0:
51,84,62556,1,8,3:2:0:0:
157,248,62719,1,2,0:0:0:0:
129,13,62882,5,2,2:3:0:0:
129,13,62964,1,2,2:3:0:0:
129,13,63045,2,0,L|123:80,1,50,0|0,0:0|0:0,0:0:0:0:
36,235,63371,5,2,2:3:0:0:
36,235,63452,1,2,2:3:0:0:
36,235,63534,1,2,2:3:0:0:
188,110,63697,1,2,0:3:0:0:
444,216,63860,5,8,0:0:0:0:
127,174,64023,1,2,0:0:0:0:
26,81,64186,5,8,0:0:0:0:
402,64,64349,2,0,L|451:61,1,50,8|2,0:0|0:0,0:0:0:0:
297,0,64676,5,0,1:1:0:0:
509,5,64839,1,2,0:3:0:0:
511,197,65002,1,2,0:0:0:0:
438,384,65165,5,8,0:0:0:0:
438,384,65246,1,2,2:3:0:0:
438,384,65328,1,2,2:3:0:0:
430,206,65491,1,2,0:3:0:0:
422,28,65654,1,2,0:3:0:0:
327,369,65817,5,4,0:0:0:0:
343,102,65980,2,0,L|346:53,1,50,2|0,0:3|0:0,0:0:0:0:
234,384,66306,5,2,0:3:0:0:
228,33,66469,1,8,0:0:0:0:
228,33,66551,1,2,3:2:0:0:
228,33,66632,1,2,3:2:0:0:
228,33,66714,1,2,3:2:0:0:
213,73,66795,5,2,3:2:0:0:
253,123,66877,1,2,3:2:0:0:
231,178,66958,1,2,3:2:0:0:
243,228,67040,1,2,3:2:0:0:
235,278,67121,5,8,0:0:0:0:
299,206,71686,6,0,L|302:280,1,75,2|0,0:3|0:0,0:0:0:0:
301,299,72013,2,0,P|274:307|249:332,1,50,2|0,0:0|0:0,0:0:0:0:
286,121,72339,5,2,3:2:0:0:
300,121,72420,1,2,3:2:0:0:
315,122,72502,1,10,3:2:0:0:
330,127,72583,1,2,3:2:0:0:
343,133,72665,6,0,L|348:74,1,59.9999981689454,2|0,3:2|0:0,0:0:0:0:
399,198,72828,2,0,L|401:257,1,59.9999981689454,8|0,0:0|0:0,0:0:0:0:
351,127,72991,2,0,L|361:1,1,119.999996337891,2|0,0:1|0:0,0:0:0:0:
472,153,73317,1,2,0:3:0:0:
472,153,73398,1,0,0:0:0:0:
472,153,73480,2,0,L|488:222,1,59.9999981689454,8|0,0:0|0:0,0:0:0:0:
402,310,73643,6,0,L|389:368,1,59.9999981689454,2|0,3:2|0:0,0:0:0:0:
378,166,73806,2,0,L|388:226,1,59.9999981689454,8|0,0:0|0:0,0:0:0:0:
388,22,73969,2,0,L|383:81,1,59.9999981689454,2|0,3:2|0:0,0:0:0:0:
376,0,74132,2,0,L|376:69,1,59.9999981689454,8|0,0:0|0:0,0:0:0:0:
512,137,74295,6,0,L|453:129,1,59.9999981689454,2|0,3:3|0:0,0:0:0:0:
306,247,74458,2,0,L|234:257,1,59.9999981689454,8|0,0:0|0:0,0:0:0:0:
73,165,74621,2,0,B|95:201|95:201|171:212,1,119.999996337891,2|8,3:2|3:2,0:0:0:0:
144,67,74947,5,6,3:2:0:0:
145,81,75029,1,2,3:2:0:0:
146,96,75110,1,8,3:2:0:0:
147,111,75192,1,2,3:2:0:0:
148,126,75273,6,0,P|156:154|155:184,1,59.9999981689454,2|0,3:2|0:0,0:0:0:0:
73,164,75436,2,0,P|36:191|2:200,1,59.9999981689454,8|0,0:0|0:0,0:0:0:0:
103,250,75600,6,0,P|99:281|106:316,1,59.9999981689454,2|0,3:2|0:0,0:0:0:0:
182,278,75763,2,0,P|199:304|222:322,1,59.9999981689454,8|0,0:0|0:0,0:0:0:0:
261,247,75926,2,0,P|299:243|337:223,1,59.9999981689454,2|2,3:2|3:2,0:0:0:0:
433,157,76089,5,2,3:2:0:0:
419,161,76171,1,2,3:2:0:0:
405,167,76252,2,0,L|403:227,1,59.9999981689454,4|0,0:0|0:0,0:0:0:0:
286,24,76415,1,8,0:0:0:0:
301,27,76497,1,0,0:0:0:0:
315,33,76578,1,2,2:3:0:0:
328,40,76660,1,0,0:0:0:0:
340,49,76741,2,0,L|343:109,1,59.9999981689454,0|0,0:0|0:0,0:0:0:0:
193,112,76904,6,0,P|223:109|252:101,1,59.9999981689454,2|0,1:0|0:0,0:0:0:0:
184,101,77067,2,0,P|214:101|242:111,1,59.9999981689454,8|0,0:0|0:0,0:0:0:0:
69,34,77230,6,0,P|81:62|101:85,1,59.9999981689454,2|0,1:0|0:0,0:0:0:0:
81,36,77393,2,0,P|89:100|82:139,1,59.9999981689454,8|0,0:0|0:0,0:0:0:0:
53,171,77556,6,0,P|52:242|115:301,1,119.999996337891,4|0,0:0|0:0,0:0:0:0:
118,294,77801,1,0,0:0:0:0:
87,322,77882,6,0,P|110:251|177:228,1,119.999996337891,2|0,0:3|0:0,0:0:0:0:
188,227,78127,1,0,0:0:0:0:
162,193,78208,6,0,L|174:347,1,119.999996337891,2|8,3:2|0:0,0:0:0:0:
203,340,78453,1,2,3:2:0:0:
180,375,78534,6,0,L|185:242,1,119.999996337891,2|8,3:2|0:0,0:0:0:0:
243,79,78860,6,0,L|247:199,1,119.999996337891,4|0,0:0|0:0,0:0:0:0:
287,210,79105,1,0,0:0:0:0:
315,240,79186,2,0,L|320:120,1,119.999996337891,2|0,1:1|0:0,0:0:0:0:
368,114,79431,1,0,0:0:0:0:
391,78,79513,2,0,L|397:239,1,119.999996337891,2|10,3:2|3:2,0:0:0:0:
408,376,79839,5,2,3:2:0:0:
408,376,79920,1,2,3:2:0:0:
408,376,80002,1,10,3:2:0:0:
186,358,80165,5,4,0:0:0:0:
186,358,80246,1,0,0:0:0:0:
186,358,80328,2,0,P|208:315|214:279,1,59.9999981689454,8|2,0:0|3:2,0:0:0:0:
77,283,80491,1,2,3:2:0:0:
77,283,80572,1,0,0:0:0:0:
77,283,80654,2,0,P|107:277|135:266,1,59.9999981689454,8|2,0:0|3:2,0:0:0:0:
51,157,80817,2,0,P|74:176|102:188,1,59.9999981689454,0|0,3:2|0:0,0:0:0:0:
106,38,80980,2,0,P|106:68|111:98,1,59.9999981689454,8|0,0:0|0:0,0:0:0:0:
281,10,81143,5,2,3:2:0:0:
233,45,81224,1,2,3:2:0:0:
200,95,81306,1,2,3:2:0:0:
186,153,81387,1,2,3:2:0:0:
192,212,81469,1,4,0:3:0:0:
298,356,81632,1,2,0:3:0:0:
342,96,81795,5,2,3:2:0:0:
287,119,81876,1,2,3:2:0:0:
268,177,81958,1,2,2:3:0:0:
355,176,82121,5,2,0:0:0:0:
368,256,82284,5,10,0:3:0:0:
423,233,82365,1,2,0:3:0:0:
442,175,82447,2,0,P|432:145|409:112,2,59.9999981689454,2|0|0,0:3|0:3|0:3,0:0:0:0:
483,371,82773,6,0,P|391:347|283:349,1,150.000005722046,6|2,3:2|3:2,0:0:0:0:
115,381,83099,5,10,3:2:0:0:
157,349,83181,1,2,3:2:0:0:
177,300,83263,1,2,3:2:0:0:
172,248,83344,1,2,3:2:0:0:
135,209,83426,2,0,P|100:130|123:39,1,150.000005722046,2|2,1:2|3:2,0:0:0:0:
1,301,83752,5,10,3:2:0:0:
52,290,83833,1,2,3:2:0:0:
104,293,83915,1,2,3:2:0:0:
154,306,83996,1,2,3:2:0:0:
201,329,84078,2,0,P|286:324|315:229,1,150.000005722046,6|2,3:2|3:2,0:0:0:0:
486,47,84404,5,8,0:0:0:0:
475,98,84485,1,2,3:2:0:0:
435,133,84567,1,2,3:2:0:0:
383,143,84648,1,2,3:2:0:0:
336,118,84730,2,0,P|262:101|173:131,1,150.000005722046,2|2,1:2|3:2,0:0:0:0:
98,371,85056,5,8,0:0:0:0:
98,371,85138,1,0,0:0:0:0:
98,371,85219,1,0,0:0:0:0:
40,49,85382,6,0,P|37:161|62:240,1,150.000005722046,2|2,3:2|3:2,0:0:0:0:
205,370,85708,1,10,3:2:0:0:
192,318,85790,1,2,3:2:0:0:
206,267,85871,1,2,3:2:0:0:
252,241,85953,1,2,3:2:0:0:
304,243,86034,6,0,L|402:252,1,75.0000028610231,2|2,2:1|2:0,0:0:0:0:
345,154,86197,2,0,L|419:169,1,75.0000028610231,0|0,0:1|0:0,0:0:0:0:
257,132,86360,6,0,L|331:128,1,75.0000028610231,8|0,0:0|0:0,0:0:0:0:
208,55,86523,2,0,L|281:41,1,75.0000028610231,2|0,0:0|0:0,0:0:0:0:
127,167,86686,6,0,B|103:132|103:132|121:26,1,150.000005722046,6|0,3:2|3:2,0:0:0:0:
0,90,87013,6,0,L|73:103,1,75.0000028610231,10|2,3:2|3:2,0:0:0:0:
153,253,87176,2,0,L|244:247,1,75.0000028610231,10|2,3:2|3:2,0:0:0:0:
454,233,87339,5,2,3:2:0:0:
454,233,87420,1,2,3:2:0:0:
454,233,87502,2,0,L|379:238,1,75.0000028610231,10|2,3:2|3:2,0:0:0:0:
324,310,87665,2,0,L|251:329,1,75.0000028610231,10|2,3:2|3:2,0:0:0:0:
500,149,87828,2,0,L|397:123,1,75.0000028610231,10|2,3:2|3:2,0:0:0:0:
374,9,87991,5,6,3:2:0:0:
374,9,88072,1,2,3:2:0:0:
374,9,88154,2,0,L|369:69,1,59.9999981689454,10|2,3:2|3:2,0:0:0:0:
354,246,88317,1,2,3:2:0:0:
367,250,88398,1,2,3:2:0:0:
381,255,88480,1,10,3:2:0:0:
394,259,88561,1,2,3:2:0:0:
408,264,88643,6,0,L|403:145,1,119.999996337891,2|8,0:3|0:0,0:0:0:0:
438,122,88888,1,2,3:2:0:0:
479,126,88969,2,0,L|309:146,1,119.999996337891,2|0,3:2|0:0,0:0:0:0:
169,87,89295,6,0,L|289:94,1,119.999996337891,4|10,0:0|2:2,0:0:0:0:
309,56,89540,1,2,2:3:0:0:
287,20,89621,2,0,L|281:139,1,119.999996337891,2|8,3:2|0:0,0:0:0:0:
278,339,89947,5,2,1:1:0:0:
278,339,90029,1,0,0:0:0:0:
278,339,90110,1,0,0:0:0:0:
276,219,90273,2,0,L|278:360,1,119.999996337891,2|0,1:0|0:0,0:0:0:0:
485,364,90599,5,2,3:2:0:0:
485,364,90681,1,2,3:2:0:0:
485,364,90763,2,0,L|482:285,1,59.9999981689454,10|2,3:2|3:2,0:0:0:0:
403,275,90926,1,2,3:2:0:0:
403,275,91008,1,2,3:2:0:0:
403,275,91089,2,0,L|413:197,1,59.9999981689454,10|2,3:2|3:2,0:0:0:0:
325,38,91252,6,0,B|349:63|349:63|360:148,1,119.999996337891,2|0,1:1|0:0,0:0:0:0:
265,344,91578,5,2,0:3:0:0:
267,284,91660,1,2,0:3:0:0:
270,224,91741,1,2,0:3:0:0:
272,164,91823,1,2,0:3:0:0:
275,105,91904,1,6,0:0:0:0:
366,295,92067,5,2,0:3:0:0:
374,235,92148,1,0,0:0:0:0:
383,176,92230,1,2,0:0:0:0:
171,315,92393,5,2,0:3:0:0:
167,285,92474,1,0,0:0:0:0:
163,255,92556,1,2,0:0:0:0:
83,335,92719,1,2,0:0:0:0:
244,376,92882,1,2,0:0:0:0:
224,188,93045,2,0,L|217:128,1,59.9999981689454,2|0,0:0|0:0,0:0:0:0:
291,311,93208,6,0,L|299:210,1,100,4|0,0:1|0:0,0:0:0:0:
338,141,93534,1,2,0:0:0:0:
309,66,93697,1,2,0:0:0:0:
296,317,93860,6,0,L|304:216,1,100,2|0,0:3|0:3,0:0:0:0:
416,370,94186,6,0,B|387:336|387:336|380:251,1,100,2|0,0:3|0:3,0:0:0:0:
212,258,94513,6,0,L|230:159,1,100,2|0,0:3|0:3,0:0:0:0:
132,250,94839,1,2,0:0:0:0:
239,333,95002,1,2,0:0:0:0:
209,250,95165,6,0,L|227:151,1,100,2|0,0:3|0:3,0:0:0:0:
122,23,95491,6,0,B|146:45|146:45|157:112,1,100,2|0,0:3|0:3,0:0:0:0:
302,199,95817,6,0,L|277:327,1,100,2|0,0:3|0:3,0:0:0:0:
169,309,96143,1,2,0:0:0:0:
75,246,96306,1,2,0:0:0:0:
292,166,96469,6,0,L|278:294,1,100,2|2,0:3|3:2,0:0:0:0:
254,2,96795,5,8,0:0:0:0:
248,9,97284,5,8,0:0:0:0:
459,77,97447,5,2,2:3:0:0:
459,77,97528,1,2,2:3:0:0:
459,77,97610,2,0,L|452:142,1,50,2|0,3:2|0:0,0:0:0:0:
305,177,97936,1,2,2:3:0:0:
92,49,98099,5,8,0:0:0:0:
92,49,98181,1,2,3:2:0:0:
92,49,98262,1,2,3:2:0:0:
371,87,98425,1,2,2:3:0:0:
371,87,98506,1,2,2:3:0:0:
370,87,98588,2,0,L|374:137,1,50,2|0,3:2|0:0,0:0:0:0:
388,281,98914,5,2,2:3:0:0:
388,281,98995,1,2,2:3:0:0:
388,281,99077,1,2,3:2:0:0:
442,51,99241,1,0,0:0:0:0:
470,352,99403,5,8,0:0:0:0:
470,352,99485,1,2,3:2:0:0:
470,352,99566,1,2,3:2:0:0:
342,211,99729,1,2,0:0:0:0:
160,238,99892,2,0,L|110:245,1,50,8|0,0:0|0:0,0:0:0:0:
68,345,100218,5,2,0:3:0:0:
64,183,100381,1,2,0:3:0:0:
60,21,100544,1,2,0:3:0:0:
93,335,100707,5,8,0:0:0:0:
102,30,100870,1,2,0:0:0:0:
153,282,101033,5,2,0:3:0:0:
53,170,101197,1,2,2:3:0:0:
53,170,101278,1,2,2:3:0:0:
53,170,101360,1,2,3:2:0:0:
238,209,101523,2,0,L|229:258,1,50,2|0,0:0|0:0,0:0:0:0:
294,375,101849,5,2,0:0:0:0:
276,95,102012,1,8,0:0:0:0:
276,95,102093,1,2,3:2:0:0:
276,95,102175,1,2,3:2:0:0:
228,296,102338,5,8,0:0:0:0:
253,4,102501,1,8,0:0:0:0:
303,210,102664,5,2,2:3:0:0:
303,210,102745,1,2,2:3:0:0:
302,210,102827,2,0,L|299:260,1,50,2|0,3:2|0:0,0:0:0:0:
409,94,103153,5,2,3:2:0:0:
409,94,103235,1,2,3:2:0:0:
409,94,103316,1,8,3:2:0:0:
232,172,103479,1,2,0:0:0:0:
56,115,103642,1,2,2:3:0:0:
56,115,103724,1,2,2:3:0:0:
56,115,103805,2,0,L|60:66,1,50,0|0,0:0|0:0,0:0:0:0:
159,201,104131,5,2,2:3:0:0:
159,201,104213,1,2,2:3:0:0:
159,201,104294,1,2,2:3:0:0:
172,351,104457,1,2,0:3:0:0:
22,215,104620,5,8,0:0:0:0:
240,233,104783,1,2,0:0:0:0:
454,183,104947,1,8,0:0:0:0:
254,249,105110,2,0,L|249:298,1,50,8|2,0:0|0:0,0:0:0:0:
74,136,105436,5,0,1:1:0:0:
237,170,105599,1,2,0:3:0:0:
386,96,105762,1,2,0:0:0:0:
100,60,105925,5,8,0:0:0:0:
100,60,106006,1,2,2:3:0:0:
100,60,106088,1,2,2:3:0:0:
301,122,106251,1,2,0:3:0:0:
381,317,106414,1,2,0:3:0:0:
241,175,106577,5,4,0:0:0:0:
479,82,106740,2,0,L|475:22,1,50,2|0,0:3|0:0,0:0:0:0:
284,11,107066,5,2,0:3:0:0:
300,359,107229,1,2,0:3:0:0:
300,359,107311,1,2,0:3:0:0:
300,359,107392,1,2,0:0:0:0:
389,165,107555,5,2,3:2:0:0:
340,171,107636,1,2,3:2:0:0:
291,178,107718,1,2,3:2:0:0:
242,184,107799,1,2,3:2:0:0:
193,190,107881,1,2,2:3:0:0:
192,196,107963,5,2,2:3:0:0:
191,202,108044,2,0,L|196:258,1,50,2|0,3:2|0:0,0:0:0:0:
322,307,108370,1,2,2:3:0:0:
400,6,108533,5,8,0:0:0:0:
400,6,108615,1,2,3:2:0:0:
400,6,108697,1,2,3:2:0:0:
394,213,108860,1,2,2:3:0:0:
394,213,108941,1,2,2:3:0:0:
393,213,109023,2,0,L|389:263,1,50,2|0,3:2|0:0,0:0:0:0:
280,375,109349,5,2,2:3:0:0:
280,375,109430,1,2,2:3:0:0:
280,375,109512,1,2,3:2:0:0:
233,205,109675,1,0,0:0:0:0:
491,154,109838,1,8,0:0:0:0:
491,154,109919,1,2,3:2:0:0:
491,154,110001,5,2,3:2:0:0:
251,193,110164,1,2,0:0:0:0:
52,54,110327,2,0,L|58:4,1,50,8|0,0:0|0:0,0:0:0:0:
111,122,110653,5,2,0:3:0:0:
111,122,110735,1,0,0:0:0:0:
111,122,110816,1,2,0:3:0:0:
127,312,110979,1,2,0:3:0:0:
168,35,111142,5,8,0:0:0:0:
93,239,111305,1,2,0:3:0:0:
332,112,111468,5,8,0:0:0:0:
11,173,111631,1,2,0:3:0:0:
166,206,111794,1,4,0:0:0:0:
259,78,111957,2,0,L|255:21,1,50,2|0,0:0|0:0,0:0:0:0:
145,128,112283,5,2,0:3:0:0:
462,142,112447,1,2,2:3:0:0:
462,142,112528,1,2,2:3:0:0:
462,142,112610,1,2,3:2:0:0:
283,347,112773,5,2,1:2:0:0:
279,297,112854,1,2,1:2:0:0:
276,247,112936,1,2,1:2:0:0:
273,197,113017,1,2,1:2:0:0:
270,147,113099,1,2,2:3:0:0:
277,143,113180,5,2,2:3:0:0:
283,138,113262,2,0,L|348:141,1,50,2|0,3:2|0:0,0:0:0:0:
41,313,113588,1,2,3:2:0:0:
41,313,113669,1,2,3:2:0:0:
41,313,113751,5,8,3:2:0:0:
208,294,113914,1,2,0:0:0:0:
220,42,114077,5,2,2:3:0:0:
197,288,114240,2,0,L|192:337,1,50,0|0,0:0|0:0,0:0:0:0:
339,378,114566,1,2,2:3:0:0:
339,378,114648,1,2,2:3:0:0:
339,378,114729,5,2,2:3:0:0:
319,221,114892,1,2,0:3:0:0:
487,50,115055,5,8,0:0:0:0:
345,145,115218,1,2,0:0:0:0:
128,85,115381,5,8,0:0:0:0:
396,206,115544,2,0,L|392:269,1,50,8|2,0:0|0:0,0:0:0:0:
274,364,115870,5,0,1:1:0:0:
268,237,116033,1,2,0:3:0:0:
262,110,116197,1,2,0:0:0:0:
83,182,116360,5,0,0:0:0:0:
83,182,116441,1,0,0:0:0:0:
83,182,116523,5,0,0:0:0:0:
443,167,116686,1,0,0:0:0:0:
73,199,116849,1,0,0:0:0:0:
224,181,117012,1,0,0:0:0:0:
373,207,117175,2,0,P|381:230|385:255,1,50,0|0,0:0|0:0,0:0:0:0:
342,374,117501,5,2,0:3:0:0:
325,18,117664,1,2,3:2:0:0:
325,18,117745,1,2,3:2:0:0:
325,18,117827,1,2,3:2:0:0:
26,211,117990,1,2,1:2:0:0:
26,211,118072,1,2,1:2:0:0:
26,211,118153,1,2,1:2:0:0:
26,211,118235,1,2,1:2:0:0:
30,214,118316,6,0,B|71:219|71:219|92:235|92:235|144:232,1,119.999996337891,4|0,0:1|0:0,0:0:0:0:
252,223,118642,1,2,0:0:0:0:
35,297,118805,1,2,0:0:0:0:
71,2,118968,6,0,B|104:6|132:17|132:17|139:73|123:142,1,179.999994506836,8|0,0:0|0:0,0:0:0:0:
119,154,119294,1,2,0:0:0:0:
43,81,119457,1,0,0:0:0:0:
209,12,119620,1,4,0:3:0:0:
219,17,119947,6,0,L|201:188,1,119.999996337891,8|2,0:3|0:3,0:0:0:0:
257,381,120273,2,0,L|274:202,1,179.999994506836,8|0,0:0|0:0,0:0:0:0:
279,177,120599,5,4,0:3:0:0:
393,159,120762,1,0,0:0:0:0:
475,240,120925,1,4,0:0:0:0:
470,254,121251,5,2,0:0:0:0:
428,62,121414,1,2,0:0:0:0:
342,347,121577,2,0,P|311:241|411:194,1,239.999992675781,8|2,0:0|0:0,0:0:0:0:
389,276,122066,1,0,0:0:0:0:
191,337,122229,5,0,0:0:0:0:
167,341,122392,5,8,0:0:0:0:
122,335,122555,5,2,1:2:0:0:
65,275,122718,5,0,0:0:0:0:
70,167,122881,5,8,0:0:0:0:
331,96,123044,1,0,1:0:0:0:
363,18,123207,5,2,1:2:0:0:
148,197,123370,1,2,1:2:0:0:
277,383,123533,6,0,L|275:263,1,119.999996337891,2|0,0:3|0:0,0:0:0:0:
194,366,123860,1,2,0:0:0:0:
359,309,124023,1,2,0:0:0:0:
37,304,124186,6,0,B|17:271|17:271|35:191,1,119.999996337891,8|0,0:0|0:0,0:0:0:0:
104,254,124512,1,2,0:0:0:0:
28,77,124675,1,0,0:0:0:0:
95,25,124838,2,0,B|115:62|115:62|101:139,1,119.999996337891,4|2,0:3|0:0,0:0:0:0:
165,307,125164,6,0,L|251:296,1,75,8|0,0:3|0:0,0:0:0:0:
264,300,125490,6,0,B|213:308|213:308|192:295|192:295|113:286,1,119.999996337891,8|0,0:0|0:0,0:0:0:0:
6,265,125816,1,2,0:0:0:0:
262,384,125979,5,0,0:0:0:0:
239,217,126142,1,4,0:0:0:0:
200,36,126305,6,0,P|179:91|186:150,1,119.999996337891,10|0,0:0|0:0,0:0:0:0:
309,262,126631,1,2,0:3:0:0:
498,212,126794,5,8,0:0:0:0:
438,218,126876,1,8,0:0:0:0:
379,225,126957,1,2,0:0:0:0:
165,363,127120,5,2,2:3:0:0:
150,361,127201,1,2,2:3:0:0:
135,360,127283,1,2,2:3:0:0:
120,359,127364,1,2,2:3:0:0:
105,358,127446,5,4,2:3:0:0:
93,274,127610,1,0,1:0:0:0:
120,39,127773,5,8,0:0:0:0:
143,35,128262,5,8,0:0:0:0:
166,31,128751,6,0,P|183:91|173:181,1,119.999996337891,4|0,0:1|0:0,0:0:0:0:
89,269,129077,1,2,0:0:0:0:
89,269,129240,1,2,0:0:0:0:
426,302,129403,1,8,0:0:0:0:
431,291,129729,5,2,0:0:0:0:
301,244,129892,1,0,0:0:0:0:
225,359,130055,1,4,0:0:0:0:
218,358,130381,5,2,3:2:0:0:
218,358,130463,1,2,3:2:0:0:
218,358,130544,1,2,2:3:0:0:
207,138,130707,2,0,B|205:72|205:72|258:33,1,119.999996337891,8|0,0:0|0:0,0:0:0:0:
136,31,131033,5,4,0:3:0:0:
291,112,131197,1,2,0:3:0:0:
275,290,131360,1,4,0:0:0:0:
289,295,131686,5,2,0:0:0:0:
289,295,131849,1,2,0:0:0:0:
269,4,132012,1,8,0:0:0:0:
286,11,132338,5,2,0:0:0:0:
286,11,132501,1,0,0:0:0:0:
300,42,132664,5,0,0:0:0:0:
261,117,132827,5,8,0:0:0:0:
328,210,132990,5,2,1:2:0:0:
438,145,133153,5,0,0:0:0:0:
72,190,133316,6,0,P|17:243|44:319,1,119.999996337891,8|0,0:0|1:0,0:0:0:0:
39,109,133642,5,2,1:2:0:0:
71,346,133805,1,2,1:2:0:0:
121,126,133968,6,0,L|128:6,1,119.999996337891,2|0,0:3|0:0,0:0:0:0:
211,5,134294,5,2,0:0:0:0:
45,22,134457,1,2,0:0:0:0:
60,334,134620,1,8,0:0:0:0:
56,325,134947,5,2,0:0:0:0:
60,183,135110,1,0,0:0:0:0:
64,41,135273,1,4,0:3:0:0:
57,29,135599,5,8,0:3:0:0:
57,29,135762,1,2,0:3:0:0:
66,261,135925,2,0,L|72:381,1,119.999996337891,8|0,0:0|0:0,0:0:0:0:
233,329,136251,5,2,0:0:0:0:
251,58,136414,1,0,0:0:0:0:
377,43,136577,1,4,0:0:0:0:
512,131,136740,6,0,L|393:125,1,119.999996337891,8|0,0:0|0:0,0:0:0:0:
125,116,137066,1,2,0:3:0:0:
125,116,137148,1,0,0:0:0:0:
151,158,137229,5,2,3:2:0:0:
201,151,137311,1,2,3:2:0:0:
236,108,137392,1,2,3:2:0:0:
282,90,137474,1,2,3:2:0:0:
321,130,137555,5,2,3:2:0:0:
321,130,137637,1,2,3:2:0:0:
321,130,137718,1,2,3:2:0:0:
321,130,137800,1,2,3:2:0:0:
360,155,137881,6,0,L|347:228,3,59.9999981689454,2|2|2|0,0:0|0:0|0:0|0:0,0:0:0:0:
373,246,138207,6,0,L|376:296,3,29.9999990844727,2|2|2|2,3:2|3:2|3:2|3:2,0:0:0:0:
408,292,138533,6,0,L|414:312,1,20,8|2,0:0|0:0,0:0:0:0:
428,338,139186,6,0,P|351:313|287:332,1,119.999996337891,4|2,0:0|2:0,0:0:0:0:
153,380,139512,2,0,P|203:347|233:296,1,119.999996337891,8|0,0:0|0:0,0:0:0:0:
234,128,139838,5,0,1:0:0:0:
223,212,140001,1,0,0:0:0:0:
137,133,140164,2,0,B|153:158|153:158|303:175,1,179.999994506836,8|0,0:0|0:0,0:0:0:0:
325,197,140490,2,0,L|444:188,1,119.999996337891,0|0,0:0|0:0,0:0:0:0:
492,119,140816,5,8,0:2:0:0:
474,266,140979,1,0,0:0:0:0:
402,310,141142,5,2,0:0:0:0:
444,188,141305,1,2,0:0:0:0:
333,98,141468,5,8,0:0:0:0:
432,183,141631,1,0,0:0:0:0:
329,273,141794,6,0,P|275:279|173:373,1,179.999994506836,0|0,1:0|0:0,0:0:0:0:
172,371,142120,2,0,P|113:370|62:340,1,119.999996337891,8|2,0:0|0:3,0:0:0:0:
138,127,142447,2,0,P|82:191|112:272,1,179.999994506836,0|0,1:0|0:0,0:0:0:0:
125,281,142773,5,8,0:0:0:0:
202,247,142936,2,0,B|231:281|231:281|218:355,1,119.999996337891,2|2,0:3|0:0,0:0:0:0:
243,174,143262,5,2,0:0:0:0:
320,206,143425,2,0,B|345:163|345:163|337:93,1,119.999996337891,8|2,0:0|0:0,0:0:0:0:
430,198,143751,5,2,2:0:0:0:
430,198,143832,1,2,2:0:0:0:
430,198,143914,1,2,2:0:0:0:
263,267,144077,5,8,3:2:0:0:
221,263,144158,1,8,3:2:0:0:
178,259,144240,1,8,3:2:0:0:
323,325,144403,5,4,0:0:0:0:
406,333,144566,2,0,P|356:340|292:376,1,119.999996337891,2|8,0:0|0:0,0:0:0:0:
216,343,144892,1,2,0:3:0:0:
257,269,145055,5,0,1:0:0:0:
248,185,145218,1,0,0:0:0:0:
278,8,145381,2,0,P|274:85|186:76,1,179.999994506836,8|0,0:0|0:0,0:0:0:0:
172,59,145707,2,0,P|108:70|52:108,1,119.999996337891,2|2,0:0|0:0,0:0:0:0:
29,252,146033,5,8,0:0:0:0:
16,169,146197,1,0,0:0:0:0:
85,314,146360,5,2,0:0:0:0:
100,207,146523,1,2,0:0:0:0:
141,376,146686,5,8,0:0:0:0:
184,245,146849,1,2,0:3:0:0:
211,324,147012,6,0,L|203:161,1,119.999996337891,6|2,3:3|0:3,0:0:0:0:
294,1,147338,5,8,0:0:0:0:
287,84,147501,1,0,0:0:0:0:
280,167,147664,1,2,0:3:0:0:
372,57,147827,5,8,0:0:0:0:
297,91,147990,1,0,0:0:0:0:
290,174,148153,1,2,0:3:0:0:
424,122,148316,5,8,0:0:0:0:
300,181,148479,1,2,0:0:0:0:
394,200,148642,5,4,0:3:0:0:
310,188,148805,1,2,0:3:0:0:
159,296,148968,5,8,0:0:0:0:
75,308,149131,1,2,0:0:0:0:
226,345,149294,1,4,0:3:0:0:
226,345,149457,1,2,0:3:0:0:
69,302,149620,6,0,B|41:272|41:272|69:137,1,119.999996337891,4|2,0:0|0:0,0:0:0:0:
73,26,149946,2,0,B|103:47|103:47|112:131,1,119.999996337891,8|0,0:0|0:0,0:0:0:0:
24,94,150273,5,0,1:0:0:0:
186,69,150436,1,0,0:0:0:0:
337,134,150599,2,0,P|253:149|205:280,1,179.999994506836,8|0,0:0|0:0,0:0:0:0:
204,243,150925,6,0,P|246:284|272:338,1,119.999996337891,0|2,0:0|0:3,0:0:0:0:
431,348,151251,5,8,0:0:0:0:
350,370,151414,1,0,0:0:0:0:
148,305,151577,5,2,0:0:0:0:
64,292,151740,1,2,0:0:0:0:
128,145,151903,5,8,0:0:0:0:
119,229,152066,1,0,0:0:0:0:
201,103,152229,6,0,P|165:26|79:22,1,179.999994506836,2|0,0:0|0:0,0:0:0:0:
71,29,152555,2,0,P|130:31|189:19,1,119.999996337891,8|2,0:0|0:3,0:0:0:0:
4,80,152881,2,0,P|71:140|154:173,1,179.999994506836,0|0,1:0|0:0,0:0:0:0:
180,179,153207,5,8,0:0:0:0:
209,257,153370,2,0,B|259:222|259:222|263:139,1,119.999996337891,2|0,1:2|0:0,0:0:0:0:
173,174,153696,5,2,0:0:0:0:
144,96,153859,2,0,B|94:131|94:131|90:214,1,119.999996337891,8|2,0:0|0:3,0:0:0:0:
85,333,154186,5,2,0:2:0:0:
85,333,154267,1,2,0:2:0:0:
85,333,154349,2,0,L|87:274,1,59.9999981689454,2|2,0:2|0:2,0:0:0:0:
169,376,154512,5,8,3:2:0:0:
175,334,154594,1,8,3:2:0:0:
181,292,154675,1,8,3:2:0:0:
188,250,154757,1,8,3:2:0:0:
225,231,154838,5,4,0:0:0:0:
265,304,155001,1,2,0:0:0:0:
427,290,155164,2,0,P|471:328|478:386,1,119.999996337891,8|2,0:0|0:3,0:0:0:0:
328,359,155490,5,0,1:0:0:0:
345,276,155653,1,0,0:0:0:0:
381,10,155816,2,0,L|395:190,1,179.999994506836,8|0,0:0|0:0,0:0:0:0:
398,211,156142,5,0,0:0:0:0:
481,202,156305,1,0,0:0:0:0:
309,61,156468,2,0,L|301:193,1,119.999996337891,8|0,0:0|0:0,0:0:0:0:
295,264,156794,1,2,0:0:0:0:
373,293,156957,5,2,0:0:0:0:
231,319,157120,1,8,0:0:0:0:
112,236,157283,1,2,0:3:0:0:
19,362,157466,6,0,P|79:350|133:323,1,119.999996337891,4|0,0:0|0:0,0:0:0:0:
132,325,157710,1,2,2:3:0:0:
132,325,157792,1,2,2:3:0:0:
162,63,157955,6,0,P|164:123|176:182,1,119.999996337891,0|0,1:0|0:0,0:0:0:0:
176,182,158199,1,2,2:3:0:0:
176,182,158281,1,2,2:3:0:0:
342,53,158444,6,0,P|290:126|264:212,1,179.999994506836,8|0,0:0|0:0,0:0:0:0:
263,237,158770,5,4,0:3:0:0:
289,326,158933,1,2,3:2:0:0:
289,326,159014,1,2,3:2:0:0:
289,326,159096,1,2,3:2:0:0:
357,374,159259,1,2,0:3:0:0:
442,113,159422,5,2,1:2:0:0:
393,147,159503,1,2,1:2:0:0:
359,196,159585,1,2,1:2:0:0:
345,253,159666,1,2,1:2:0:0:
371,220,159748,5,2,1:2:0:0:
365,178,159830,1,2,0:0:0:0:
335,148,159911,1,2,0:0:0:0:
292,151,159993,1,2,0:0:0:0:
270,139,160074,6,0,B|242:113|242:113|249:29,1,100,4|0,0:0|0:0,0:0:0:0:
321,22,160400,1,2,0:0:0:0:
396,47,160563,1,2,0:0:0:0:
265,147,160726,6,0,B|237:121|237:121|242:59,1,100,2|0,0:3|0:3,0:0:0:0:
160,236,161052,6,0,L|157:136,1,100,2|0,0:3|0:3,0:0:0:0:
76,356,161379,6,0,L|82:257,1,100,2|0,0:3|0:3,0:0:0:0:
34,193,161705,1,2,0:0:0:0:
160,236,161868,1,2,0:0:0:0:
81,369,162031,6,0,L|87:270,1,100,2|0,0:3|0:3,0:0:0:0:
98,145,162357,6,0,L|103:45,1,100,2|0,0:3|0:3,0:0:0:0:
34,193,162683,6,0,B|54:221|54:221|118:233,1,100,2|0,0:3|0:3,0:0:0:0:
245,257,163009,5,2,0:0:0:0:
112,313,163172,1,2,0:0:0:0:
30,186,163335,1,2,0:3:0:0:
18,6,163498,5,2,3:2:0:0:
18,6,163580,1,2,3:2:0:0:
18,6,163661,2,0,L|24:106,1,100,2|0,2:3|0:0,0:0:0:0:
46,357,163972,5,2,2:3:0:0:
46,357,164054,1,2,2:3:0:0:
46,357,164135,2,0,L|50:303,1,50,2|0,3:2|0:0,0:0:0:0:
62,135,164461,1,2,2:3:0:0:
321,94,164624,5,8,0:0:0:0:
321,94,164706,1,2,3:2:0:0:
321,94,164787,1,2,3:2:0:0:
55,130,164950,1,2,2:3:0:0:
55,130,165032,1,2,2:3:0:0:
55,130,165114,2,0,L|5:136,1,50,2|0,3:2|0:0,0:0:0:0:
185,147,165440,5,2,2:3:0:0:
185,147,165521,1,2,2:3:0:0:
185,147,165603,1,2,3:2:0:0:
173,303,165766,1,0,0:0:0:0:
403,365,165929,1,8,0:0:0:0:
403,365,166010,1,2,3:2:0:0:
403,365,166092,5,2,3:2:0:0:
214,234,166255,1,2,0:0:0:0:
248,8,166418,2,0,L|316:19,1,50,8|0,0:0|0:0,0:0:0:0:
502,64,166744,5,2,0:3:0:0:
422,72,166907,1,2,0:3:0:0:
343,81,167070,1,2,0:3:0:0:
94,55,167233,1,2,3:2:0:0:
94,55,167315,1,2,3:2:0:0:
94,55,167396,5,2,3:2:0:0:
284,135,167559,1,2,0:3:0:0:
321,342,167722,1,2,3:2:0:0:
321,342,167804,1,2,3:2:0:0:
321,342,167885,1,2,2:3:0:0:
205,214,168048,2,0,L|210:165,1,50,2|0,0:0|0:0,0:0:0:0:
228,31,168374,5,2,0:0:0:0:
241,360,168537,1,8,0:0:0:0:
241,360,168619,1,2,3:2:0:0:
241,360,168700,1,2,3:2:0:0:
313,83,168864,5,8,0:0:0:0:
306,313,169027,1,8,0:0:0:0:
482,175,169190,5,2,2:3:0:0:
482,175,169271,1,2,2:3:0:0:
482,175,169353,2,0,L|432:180,1,50,2|0,3:2|0:0,0:0:0:0:
139,219,169679,1,2,3:2:0:0:
139,219,169760,1,2,3:2:0:0:
139,219,169842,5,8,3:2:0:0:
293,249,170005,1,2,0:0:0:0:
4,200,170168,5,2,2:3:0:0:
208,181,170331,2,0,L|258:176,1,50,0|0,0:0|0:0,0:0:0:0:
414,223,170657,5,2,2:3:0:0:
414,223,170739,1,0,0:0:0:0:
414,223,170820,1,2,2:3:0:0:
381,362,170983,1,2,0:3:0:0:
349,100,171146,5,8,0:0:0:0:
362,284,171309,1,2,0:0:0:0:
307,31,171472,5,8,0:0:0:0:
298,332,171635,2,0,L|296:381,1,50,8|2,0:0|0:0,0:0:0:0:
250,267,171961,5,0,1:1:0:0:
373,179,172124,1,2,0:3:0:0:
298,332,172287,1,2,0:0:0:0:
19,248,172450,5,8,0:0:0:0:
19,248,172532,1,2,2:3:0:0:
19,248,172614,1,2,2:3:0:0:
235,270,172777,1,2,0:3:0:0:
62,314,172940,1,2,0:3:0:0:
314,262,173103,5,4,0:0:0:0:
314,262,173184,1,0,0:0:0:0:
314,262,173266,2,0,L|368:256,1,50,2|0,0:3|0:0,0:0:0:0:
472,292,173592,5,2,0:3:0:0:
213,321,173755,1,8,0:0:0:0:
367,155,173918,1,2,0:3:0:0:
367,155,173999,1,2,0:3:0:0:
379,116,174081,5,0,1:0:0:0:
371,76,174162,1,0,1:0:0:0:
337,53,174244,1,0,1:0:0:0:
297,52,174325,1,0,1:0:0:0:
271,82,174407,5,2,2:3:0:0:
271,82,174489,1,2,2:3:0:0:
271,82,174570,2,0,L|273:131,1,50,2|0,3:2|0:0,0:0:0:0:
285,273,174896,5,2,2:3:0:0:
313,14,175059,1,8,0:0:0:0:
313,14,175141,1,2,3:2:0:0:
313,14,175222,1,2,3:2:0:0:
102,37,175385,1,2,2:3:0:0:
102,37,175467,1,2,2:3:0:0:
102,37,175548,2,0,L|34:44,1,50,2|0,3:2|0:0,0:0:0:0:
0,175,175874,5,2,2:3:0:0:
0,175,175956,1,2,2:3:0:0:
0,175,176037,1,2,3:2:0:0:
157,201,176200,1,0,0:0:0:0:
413,141,176364,1,8,0:0:0:0:
413,141,176445,1,2,3:2:0:0:
413,141,176527,1,2,3:2:0:0:
231,171,176690,1,2,0:0:0:0:
93,49,176853,2,0,L|98:0,1,50,8|0,0:0|0:0,0:0:0:0:
158,94,177179,5,2,0:3:0:0:
169,222,177342,1,2,0:3:0:0:
180,350,177505,1,2,0:3:0:0:
176,84,177668,5,8,0:0:0:0:
159,358,177831,1,2,0:3:0:0:
168,221,177994,1,2,0:3:0:0:
141,11,178157,1,2,2:3:0:0:
141,11,178238,1,2,2:3:0:0:
141,11,178320,1,2,3:2:0:0:
214,155,178483,2,0,L|208:204,1,50,2|0,0:3|0:0,0:0:0:0:
145,114,178809,5,2,0:3:0:0:
429,84,178972,1,2,3:2:0:0:
429,84,179054,1,2,3:2:0:0:
429,84,179135,1,2,2:3:0:0:
254,205,179298,1,2,1:2:0:0:
213,201,179380,1,2,1:2:0:0:
173,197,179461,1,2,1:2:0:0:
132,193,179543,1,2,1:2:0:0:
100,197,179624,1,2,2:3:0:0:
100,197,179706,5,2,2:3:0:0:
100,197,179787,2,0,L|93:255,1,50,2|0,3:2|0:0,0:0:0:0:
338,220,180114,5,2,3:2:0:0:
338,220,180195,1,2,3:2:0:0:
338,220,180277,1,8,3:2:0:0:
306,47,180440,1,2,0:0:0:0:
302,291,180603,1,2,2:3:0:0:
302,291,180684,1,2,2:3:0:0:
302,291,180766,2,0,L|299:346,1,50,0|0,0:0|0:0,0:0:0:0:
377,150,181092,5,2,2:3:0:0:
377,150,181174,1,0,0:0:0:0:
377,150,181255,1,2,2:3:0:0:
197,191,181418,1,2,0:3:0:0:
487,252,181581,5,8,0:0:0:0:
313,100,181744,1,2,0:0:0:0:
339,334,181907,5,8,0:0:0:0:
378,53,182070,2,0,L|385:3,1,50,8|2,0:0|0:0,0:0:0:0:
449,88,182396,5,0,1:1:0:0:
463,166,182559,1,2,0:3:0:0:
403,218,182722,1,2,0:0:0:0:
145,188,182885,1,8,0:0:0:0:
145,188,182967,1,2,2:3:0:0:
145,188,183048,1,2,2:3:0:0:
403,229,183211,5,2,0:3:0:0:
145,199,183374,1,2,0:3:0:0:
109,360,183537,5,4,0:0:0:0:
138,119,183700,2,0,L|145:58,1,50,2|0,0:3|0:0,0:0:0:0:
84,15,184027,5,0,0:3:0:0:
87,282,184190,1,8,0:0:0:0:
244,367,184353,1,2,3:2:0:0:
244,367,184434,1,2,3:2:0:0:
246,326,184516,5,2,3:2:0:0:
249,286,184597,1,2,3:2:0:0:
252,245,184679,1,2,3:2:0:0:
255,205,184760,1,2,3:2:0:0:
291,187,184842,5,2,0:2:0:0:
318,158,184923,1,2,0:2:0:0:
327,118,185005,1,2,0:2:0:0:
315,79,185086,1,2,0:2:0:0:
281,56,185168,2,0,L|256:57,1,25,2|2,0:2|0:2,0:0:0:0:
141,188,185331,5,10,3:2:0:0:
114,217,185412,1,2,3:2:0:0:
105,257,185494,1,2,3:2:0:0:
117,296,185575,1,2,3:2:0:0:
151,319,185656,2,0,L|194:316,1,25,2|2,1:2|3:2,0:0:0:0:
371,234,185819,5,4,3:3:0:0:
331,237,185901,1,2,3:2:0:0:
292,241,185982,1,2,3:2:0:0:
252,245,186064,1,2,3:2:0:0:
212,249,186145,2,0,L|188:252,1,25,2|2,3:2|3:2,0:0:0:0:
66,106,186309,5,10,2:3:0:0:
106,109,186391,1,2,2:3:0:0:
145,113,186472,1,2,2:3:0:0:
185,117,186554,1,2,2:3:0:0:
224,121,186636,2,0,L|248:123,1,25,2|2,2:3|2:3,0:0:0:0:
416,73,186798,5,6,2:3:0:0:
377,74,186879,1,2,2:3:0:0:
344,96,186961,1,2,2:3:0:0:
328,132,187042,1,2,2:3:0:0:
332,170,187124,2,0,L|356:172,1,25,2|2,1:2|2:3,0:0:0:0:
353,328,187287,5,10,0:0:0:0:
392,327,187368,1,2,0:0:0:0:
425,305,187450,1,2,0:0:0:0:
441,269,187531,1,2,0:0:0:0:
437,231,187613,2,0,L|413:229,1,25,2|2,1:2|0:0,0:0:0:0:
225,211,187777,5,4,0:3:0:0:
185,215,187858,1,2,3:0:0:0:
145,220,187940,1,2,3:0:0:0:
105,225,188021,1,2,3:0:0:0:
65,230,188103,2,0,L|22:236,1,25,2|2,3:0|3:0,0:0:0:0:
0,56,188266,5,10,2:3:0:0:
40,60,188347,1,2,2:3:0:0:
80,65,188429,1,2,2:3:0:0:
120,70,188510,1,2,2:3:0:0:
160,75,188592,2,0,L|202:81,1,25,2|2,2:3|2:3,0:0:0:0:
454,106,188755,5,6,2:3:0:0:
414,110,188836,1,2,2:3:0:0:
374,115,188918,1,2,2:3:0:0:
364,153,188999,1,2,2:3:0:0:
354,192,189081,2,0,L|346:226,1,25,2|2,1:2|2:3,0:0:0:0:
422,367,189244,5,8,0:0:0:0:
419,327,189325,1,0,0:0:0:0:
415,285,189407,2,0,L|414:261,1,25,2|0,0:3|0:0,0:0:0:0:
309,18,189570,6,0,L|304:67,1,50,8|2,0:0|0:3,0:0:0:0:
281,347,189896,1,8,0:0:0:0:
343,149,190059,5,2,2:3:0:0:
343,149,190141,1,2,2:3:0:0:
343,149,190222,2,0,L|335:79,1,50,2|0,3:2|0:0,0:0:0:0:
69,81,190548,1,2,3:2:0:0:
69,81,190630,1,2,3:2:0:0:
69,81,190711,1,2,2:3:0:0:
225,63,190874,1,2,0:3:0:0:
240,283,191037,1,2,3:0:0:0:
240,283,191119,1,2,3:0:0:0:
240,283,191200,2,0,L|245:353,1,50,2|2,3:2|0:0,0:0:0:0:
368,365,191527,5,2,2:3:0:0:
368,365,191608,1,2,2:3:0:0:
368,365,191690,1,2,3:2:0:0:
378,220,191853,1,2,0:0:0:0:
309,5,192016,5,8,0:0:0:0:
321,163,192179,1,2,0:3:0:0:
512,110,192342,5,8,0:0:0:0:
246,134,192505,2,0,L|196:138,1,50,8|2,0:0|0:0,0:0:0:0:
150,73,192831,5,0,1:1:0:0:
177,216,192994,1,2,0:3:0:0:
325,126,193157,1,2,0:0:0:0:
24,166,193320,1,2,3:2:0:0:
24,166,193402,1,2,3:2:0:0:
24,166,193483,5,2,2:3:0:0:
195,220,193646,1,8,0:0:0:0:
340,113,193809,1,8,0:0:0:0:
23,143,193972,5,4,0:1:0:0:
272,200,194135,2,0,B|283:222|283:222|275:270,1,50,2|0,0:3|0:0,0:0:0:0:
254,357,194461,5,2,0:3:0:0:
241,39,194624,1,2,2:3:0:0:
241,39,194706,1,2,2:3:0:0:
241,39,194787,1,2,3:2:0:0:
63,91,194950,5,2,1:2:0:0:
103,89,195032,1,2,1:2:0:0:
139,106,195114,1,2,1:2:0:0:
160,139,195195,1,2,1:2:0:0:
131,166,195277,5,6,0:0:0:0:
133,205,195358,1,2,0:0:0:0:
135,245,195440,1,2,0:0:0:0:
137,284,195521,1,2,0:0:0:0:
139,324,195603,1,2,0:0:0:0:
157,359,195684,1,2,0:0:0:0:
194,374,195766,2,0,L|239:370,1,25,0|2,1:0|0:0,0:0:0:0:
266,188,195929,5,10,3:2:0:0:
270,148,196010,1,2,3:2:0:0:
274,108,196092,2,0,L|280:62,1,25,2|2,3:2|3:2,0:0:0:0:
364,13,196255,5,2,1:2:0:0:
360,53,196336,1,2,3:2:0:0:
356,93,196418,1,2,3:2:0:0:
352,133,196499,1,2,3:2:0:0:
348,173,196581,2,0,L|346:201,1,25,2|2,3:2|3:2,0:0:0:0:
452,223,196743,5,2,3:2:0:0:
415,238,196825,1,2,3:2:0:0:
393,271,196907,1,0,1:2:0:0:
388,310,196988,1,2,3:2:0:0:
404,346,197070,2,0,L|428:342,1,25,2|2,3:2|3:2,0:0:0:0:
490,152,197233,5,10,3:2:0:0:
491,112,197314,1,2,3:2:0:0:
481,72,197396,2,0,L|472:45,1,25,2|2,3:2|3:2,0:0:0:0:
404,90,197559,5,2,3:2:0:0:
374,65,197640,1,2,3:2:0:0:
336,47,197722,2,0,L|312:38,1,25,2|2,3:2|3:2,0:0:0:0:
132,123,197885,5,4,0:2:0:0:
169,109,197966,1,2,0:0:0:0:
208,103,198048,1,2,0:0:0:0:
248,104,198129,1,2,0:0:0:0:
287,113,198211,1,2,0:0:0:0:
324,130,198292,1,2,0:0:0:0:
356,153,198374,2,0,L|353:177,1,25,2|2,0:0|0:0,0:0:0:0:
112,20,198537,5,10,3:2:0:0:
112,20,198618,1,2,3:2:0:0:
112,20,198700,2,0,L|109:45,1,25,2|2,3:2|3:2,0:0:0:0:
250,199,198864,1,2,1:2:0:0:
250,199,198945,1,2,3:2:0:0:
250,199,199027,1,2,3:2:0:0:
250,199,199108,1,2,3:2:0:0:
250,199,199190,2,0,L|250:243,1,25,2|2,2:3|2:3,0:0:0:0:
153,122,199353,5,2,2:3:0:0:
151,161,199434,1,2,2:3:0:0:
149,201,199516,1,2,1:3:0:0:
147,240,199597,1,2,2:0:0:0:
145,280,199679,2,0,L|143:304,1,25,0|2,1:0|2:0,0:0:0:0:
74,135,199842,5,8,3:2:0:0:
77,95,199923,1,0,3:2:0:0:
99,62,200005,1,0,3:2:0:0:
134,43,200086,1,0,3:2:0:0:
173,43,200168,1,0,3:2:0:0:
208,62,200249,1,0,3:2:0:0:
229,95,200331,2,0,L|235:128,1,25,0|0,3:2|3:2,0:0:0:0:
280,348,200494,5,4,3:2:0:0:
280,348,200575,1,0,3:2:0:0:
280,348,200657,5,0,3:2:0:0:
315,367,200738,1,0,3:2:0:0:
355,366,200820,1,0,3:2:0:0:
389,348,200901,1,0,3:2:0:0:
411,314,200983,2,0,L|416:281,1,25,0|0,1:2|3:2,0:0:0:0:
482,109,201146,5,2,3:2:0:0:
443,120,201228,1,2,3:2:0:0:
435,158,201309,2,0,L|431:182,1,25,2|2,1:2|3:2,0:0:0:0:
447,16,201472,5,2,1:2:0:0:
408,27,201554,1,2,3:2:0:0:
377,46,201635,1,2,3:2:0:0:
377,46,201717,1,2,3:2:0:0:
376,46,201798,2,0,L|378:71,1,25,2|2,0:3|0:3,0:0:0:0:
338,210,201961,5,2,0:3:0:0:
335,250,202043,1,2,0:3:0:0:
332,289,202124,2,0,L|329:334,1,25,2|2,0:3|0:3,0:0:0:0:
413,237,202287,2,0,L|421:280,1,25,0|2,1:2|0:3,0:0:0:0:
187,216,202450,5,8,3:2:0:0:
146,212,202532,1,2,3:2:0:0:
105,208,202614,2,0,L|69:206,1,25,2|2,3:2|3:2,0:0:0:0:
93,127,202776,5,2,3:2:0:0:
134,131,202857,1,2,3:2:0:0:
175,135,202939,2,0,L|211:137,1,25,2|0,1:2|0:0,0:0:0:0:
423,159,203102,5,2,0:0:0:0:
265,180,203265,1,2,0:0:0:0:
321,19,203428,1,2,1:2:0:0:
329,69,203510,1,2,1:2:0:0:
337,119,203592,1,2,1:2:0:0:
344,169,203673,1,2,1:2:0:0:
367,213,203755,5,2,3:2:0:0:
364,252,203836,1,2,3:2:0:0:
361,292,203918,2,0,L|359:316,1,25,2|2,3:2|3:2,0:0:0:0:
453,192,204081,1,2,3:2:0:0:
453,192,204162,1,2,3:2:0:0:
453,192,204244,1,2,3:2:0:0:
453,192,204325,1,2,3:2:0:0:
453,192,204407,6,0,L|456:216,1,25,2|2,2:3|2:3,0:0:0:0:
483,117,204570,2,0,L|502:132,1,25,2|0,2:3|0:0,0:0:0:0:
462,39,204733,5,0,0:0:0:0:
422,45,204814,1,0,0:0:0:0:
385,61,204896,1,2,0:3:0:0:
354,86,204977,1,2,0:3:0:0:
316,72,205059,5,2,0:3:0:0:
310,110,205140,1,2,0:3:0:0:
282,138,205222,1,2,0:3:0:0:
243,141,205303,1,2,0:3:0:0:
210,120,205385,1,2,2:3:0:0:
198,83,205466,1,2,2:3:0:0:
211,46,205548,6,0,L|254:60,1,25,2|2,2:3|2:3,0:0:0:0:
375,167,205711,6,0,P|345:231|318:361,1,200
318,356,206719,5,0,0:0:0:0:
247,325,207045,2,0,P|241:273|247:210,1,100
244,225,207734,2,0,P|213:220|162:217,1,75
169,217,208353,6,0,P|138:175|160:126,1,100
151,133,209035,2,0,P|109:153|89:196,1,75
94,176,209653,6,0,P|129:182|172:211,1,84.0000020507813
