osu file format v14

[General]
AudioFilename: audio.mp3
AudioLeadIn: 0
PreviewTime: 42339
Countdown: 0
SampleSet: Soft
StackLeniency: 0.7
Mode: 0
LetterboxInBreaks: 0
WidescreenStoryboard: 0

[Editor]
Bookmarks: 5817,11034,21469,42339,46252,67121,72339,82773,93208,97447,128751,137229,139186,157446,160055,163968,184838,190055,195273,205707,210925
DistanceSpacing: 0.5
BeatDivisor: 4
GridSize: 32
TimelineZoom: 2.6

[Metadata]
Title:Mold
TitleUnicode:Mold
Artist:Nekrogoblikon
ArtistUnicode:Nekrogoblikon
Creator:Icekalt
Version:A Spider on the Wind
Source:osu!
Tags:melodic death metal english fa featured artist welcome to bonkers hectic nao tomori naotoshi h4d0uk3n1
BeatmapID:2221627
BeatmapSetID:1061153

[Difficulty]
HPDrainRate:5
CircleSize:4
OverallDifficulty:9
ApproachRate:9.6
SliderMultiplier:2
SliderTickRate:1

[Events]
//Background and Video events
0,0,"fantasy-4351128_1920.jpg",0,0
//Break Periods
//Storyboard Layer 0 (Background)
//Storyboard Layer 1 (Fail)
//Storyboard Layer 2 (Pass)
//Storyboard Layer 3 (Foreground)
//Storyboard Layer 4 (Overlay)
//Storyboard Sound Samples

[TimingPoints]
600,326.086956521739,4,2,34,45,1,0
600,-125,4,2,34,45,0,0
5817,-50,4,2,34,65,0,0
6143,-133.333333333333,4,2,34,45,0,0
8099,-66.6666666666667,4,2,34,45,0,0
8426,-50,4,2,34,65,0,0
8752,-50,4,2,34,55,0,0
9078,-50,4,2,34,65,0,0
9404,-50,4,2,34,55,0,0
9730,-100,4,2,34,55,0,0
11034,-100,4,2,34,60,0,0
11686,-50,4,2,34,60,0,0
13317,-100,4,2,34,60,0,0
14295,-50,4,2,34,60,0,0
15926,-66.6666666666667,4,2,34,60,0,0
16904,-50,4,2,34,60,0,0
18534,-100,4,2,34,60,0,0
21469,-66.6666666666667,4,2,34,65,0,0
26034,-50,4,2,34,65,0,0
26686,-55.5555555555556,4,2,34,65,0,0
36469,-50,4,2,34,65,0,0
37121,-55.5555555555556,4,2,34,65,0,0
42502,-100,4,2,34,50,0,0
42991,-200,4,2,34,50,0,0
46252,-66.6666666666667,4,2,34,70,0,1
46415,-285.714285714284,4,2,34,70,0,1
46741,-66.6666666666667,4,2,34,70,0,1
47393,-285.714285714284,4,2,34,70,0,1
49023,-66.6666666666667,4,2,34,70,0,1
51469,-285.714285714284,4,2,34,70,0,1
52121,-66.6666666666667,4,2,34,70,0,1
52610,-285.714285714284,4,2,34,70,0,1
54241,-66.6666666666667,4,2,34,70,0,1
56686,-285.714285714284,4,2,34,70,0,1
57176,-66.6666666666667,4,2,34,70,0,1
57828,-285.714285714284,4,2,34,70,0,1
59947,-66.6666666666667,4,2,34,70,0,1
61904,-285.714285714284,4,2,34,70,0,1
62556,-66.6666666666667,4,2,34,70,0,1
62882,-285.714285714284,4,2,34,70,0,1
64676,-66.6666666666667,4,2,34,70,0,1
67121,-285.714285714284,4,2,34,55,0,0
71034,-666.666666666658,4,2,34,30,0,0
72339,-58.8235294117647,4,2,34,65,0,0
82773,-52.6315789473684,4,2,34,70,0,0
91904,-52.6315789473684,4,2,34,60,0,0
93534,-200,4,2,34,50,0,0
97447,326.086956521739,4,2,34,70,1,1
97447,-285.714285714284,4,2,34,70,0,1
100707,-66.6666666666667,4,2,34,70,0,1
102664,-285.714285714284,4,2,34,70,0,1
103316,-66.6666666666667,4,2,34,70,0,1
103805,-285.714285714284,4,2,34,70,0,1
105436,-66.6666666666667,4,2,34,70,0,1
107881,-285.714285714284,4,2,34,70,0,1
110979,-66.6666666666667,4,2,34,70,0,1
113099,-285.714285714284,4,2,34,70,0,1
113751,-66.6666666666667,4,2,34,70,0,1
114240,-285.714285714284,4,2,34,70,0,1
115707,-66.6666666666667,4,2,34,70,0,1
118316,-50,4,2,34,60,0,0
120599,-100,4,2,34,60,0,0
121251,-50,4,2,34,60,0,0
131033,-100,4,2,34,60,0,0
131360,-50,4,2,34,60,0,0
138044,-100,4,2,34,60,0,0
139186,-66.6666666666667,4,2,34,60,0,0
157466,326.086956521739,4,2,34,60,1,0
157466,-66.6666666666667,4,2,34,60,0,0
160400,-200,4,2,34,50,0,0
163972,326.086956521739,4,2,34,70,1,1
163972,-285.714285714284,4,2,34,70,0,1
169760,-66.6666666666667,4,2,34,70,0,1
170005,-285.714285714284,4,2,34,70,0,1
171961,-66.6666666666667,4,2,34,70,0,1
174570,-285.714285714284,4,2,34,70,0,1
177668,-66.6666666666667,4,2,34,70,0,1
179787,-285.714285714284,4,2,34,70,0,1
180277,-66.6666666666667,4,2,34,70,0,1
184171,-100,4,2,34,70,0,1
189162,-58.8235294117647,4,2,34,70,0,1
190222,-285.714285714284,4,2,34,70,0,1
192016,-66.6666666666667,4,2,34,70,0,1
195277,-100,4,2,34,70,0,1
205711,-58.8235294117647,4,2,34,25,0,0
206037,-166.666666666667,4,2,34,25,0,0
206119,-166.666666666667,4,2,34,5,0,0
206364,-166.666666666667,4,2,34,25,0,0
206719,326.086956521739,4,2,34,25,1,0
206719,-166.666666666667,4,2,34,25,0,0
206800,-166.666666666667,4,2,34,5,0,0
207045,-166.666666666667,4,2,34,25,0,0
207348,326.086956521739,4,2,34,25,1,0
207348,-166.666666666667,4,2,34,25,0,0
207429,-166.666666666667,4,2,34,5,0,0
207734,326.086956521739,4,2,34,25,1,0
207734,-166.666666666667,4,2,34,25,0,0
208060,-166.666666666667,4,2,34,5,0,0
208353,326.086956521739,4,2,34,25,1,0
208353,-166.666666666667,4,2,34,25,0,0
208644,326.086956521739,4,2,34,25,1,0
208644,-166.666666666667,4,2,34,25,0,0
208725,-166.666666666667,4,2,34,5,0,0
208809,-166.666666666667,4,2,34,25,0,0
209035,326.086956521739,4,2,34,25,1,0
209298,326.086956521739,4,2,34,25,1,0
209298,-166.666666666667,4,2,34,25,0,0
209380,-166.666666666667,4,2,34,5,0,0
209653,326.086956521739,4,2,34,25,1,0
209653,-166.666666666667,4,2,34,25,0,0
210875,-166.666666666667,4,2,34,5,0,0

[Colours]
Combo1 : 0,84,168
Combo2 : 0,128,64

[HitObjects]
21,87,600,6,0,L|15:41,1,40,4|0,0:3|0:0,0:0:0:0:
215,330,926,5,2,0:0:0:0:
259,263,1089,1,2,0:0:0:0:
337,280,1252,2,0,B|379:283|379:283|436:252,1,80,2|0,0:3|0:0,0:0:0:0:
204,334,1578,5,2,0:0:0:0:
248,267,1741,1,2,0:0:0:0:
228,110,1904,2,0,B|232:149|232:149|226:161|226:161|234:188,1,80,2|0,0:3|0:0,0:0:0:0:
195,338,2230,5,2,0:0:0:0:
239,271,2393,1,2,0:0:0:0:
168,233,2556,2,0,B|106:226|76:276,1,80,2|0,0:3|0:0,0:0:0:0:
26,94,2882,2,0,B|38:120|38:120|27:134|27:134|29:192,1,80,2|0,0:0|0:0,0:0:0:0:
67,348,3208,6,0,L|12:364,1,40,4|0,0:3|0:0,0:0:0:0:
219,119,3534,5,2,0:0:0:0:
174,185,3697,1,2,0:0:0:0:
219,250,3860,2,0,B|255:268|254:268|289:241|289:240|359:286,1,120,2|0,0:3|0:0,0:0:0:0:
343,286,4186,1,2,0:0:0:0:
274,357,4349,1,2,0:0:0:0:
420,162,4513,5,2,0:3:0:0:
405,170,4676,1,2,0:3:0:0:
340,98,4839,1,4,0:3:0:0:
492,115,5002,1,4,0:3:0:0:
405,33,5165,1,2,0:3:0:0:
225,107,5328,1,2,0:3:0:0:
126,61,5491,1,4,0:3:0:0:
216,2,5654,1,4,0:3:0:0:
342,286,5817,6,0,B|346:254|346:254|341:244|341:244|346:182,1,100,4|0,1:0|0:0,0:0:0:0:
332,295,6143,5,2,0:0:0:0:
249,303,6306,1,2,0:0:0:0:
166,311,6469,2,0,B|112:304|104:277|113:247,1,75.0000028610231,2|0,0:3|0:0,0:0:0:0:
249,295,6795,5,2,0:0:0:0:
332,303,6958,1,2,0:0:0:0:
487,300,7121,2,0,B|477:277|453:314|415:311,1,75.0000028610231,2|0,0:3|0:0,0:0:0:0:
332,295,7447,5,2,0:0:0:0:
294,367,7610,1,2,0:0:0:0:
249,303,7773,2,0,B|242:277|260:261|260:261|242:242|242:242|246:212|236:179,1,112.500004291535,2|0,0:3|0:0,0:0:0:0:
247,182,8099,6,0,P|273:152|290:235,1,150.000005722046,4|0,0:3|0:0,0:0:0:0:
49,320,8426,2,0,B|42:276|67:252|67:252|15:180|44:113|44:113|47:143|70:159|70:159|72:203,1,300,4|0,0:1|0:0,0:0:0:0:
60,331,8752,5,2,0:0:0:0:
139,319,8915,1,2,0:0:0:0:
431,361,9078,6,0,B|438:317|413:293|413:293|465:221|436:154|436:154|434:182|410:200|410:200|408:244,1,300,4|0,0:1|0:0,0:0:0:0:
419,374,9404,5,2,0:0:0:0:
340,362,9567,1,2,0:0:0:0:
173,225,9730,6,0,P|173:198|182:171,1,50,2|0,0:3|0:3,0:0:0:0:
120,302,9893,2,0,P|130:324|146:343,1,50,2|0,0:3|0:3,0:0:0:0:
46,220,10056,1,2,0:3:0:0:
129,58,10219,1,4,0:3:0:0:
143,76,10301,1,4,0:3:0:0:
146,95,10382,1,2,0:3:0:0:
197,172,10545,1,0,0:0:0:0:
335,203,10708,1,2,0:3:0:0:
479,87,10871,1,2,0:3:0:0:
246,274,11034,5,0,0:3:0:0:
56,68,11360,1,2,0:0:0:0:
177,36,11523,1,2,0:0:0:0:
0,215,11686,6,0,B|27:296|150:257|133:187|214:193|214:193|228:221|272:236,1,300,8|0,0:0|0:0,0:0:0:0:
342,244,12013,1,2,0:0:0:0:
189,311,12176,1,0,0:0:0:0:
319,20,12339,5,4,0:3:0:0:
338,121,12502,1,0,0:0:0:0:
410,189,12665,1,8,0:3:0:0:
462,22,12828,1,2,0:3:0:0:
244,144,12991,6,0,B|172:164|116:107|102:45|102:45|106:103|79:162,1,300,8|0,0:0|0:0,0:0:0:0:
64,243,13317,2,0,B|91:277|143:281|181:252|172:208|122:211,1,150,4|0,0:3|0:0,0:0:0:0:
9,90,13643,1,4,0:0:0:0:
378,172,13969,1,2,0:0:0:0:
405,44,14132,1,2,0:0:0:0:
291,214,14295,6,0,B|270:345|370:377|370:377|354:355|351:324|351:324|314:305|269:303,1,300,8|0,0:0|0:0,0:0:0:0:
202,265,14621,1,2,0:3:0:0:
87,334,14784,1,2,0:0:0:0:
70,88,14947,5,2,0:3:0:0:
121,163,15110,1,2,0:0:0:0:
138,27,15273,1,2,0:3:0:0:
52,229,15436,1,2,0:3:0:0:
302,351,15599,6,0,B|293:307|293:307|303:293|303:293|302:239|259:187|259:187|207:229|220:309,1,300,8|0,0:0|0:0,0:0:0:0:
316,372,15926,2,0,B|378:357|384:292|384:292|448:319|450:400,1,225.000008583069,10|0,0:0|0:0,0:0:0:0:
504,195,16252,1,4,0:0:0:0:
171,101,16578,1,2,0:0:0:0:
310,63,16741,1,2,0:0:0:0:
115,226,16904,6,0,B|181:194|230:231|230:231|258:209|258:209|274:295|391:285,1,300,8|0,0:0|0:0,0:0:0:0:
406,205,17230,1,2,0:0:0:0:
475,367,17393,1,2,0:3:0:0:
512,103,17556,5,4,0:3:0:0:
3,220,17882,1,2,0:3:0:0:
148,137,18045,1,2,0:3:0:0:
252,371,18208,6,0,B|245:309|245:309|263:283|263:283|216:232|250:141|250:141|283:155|283:155|302:180,1,300,8|0,0:0|0:0,0:0:0:0:
379,272,18534,2,0,B|401:286|374:347|323:340|294:314|282:284,1,150,4|0,0:3|0:0,0:0:0:0:
410,150,18860,1,4,0:0:0:0:
149,313,19186,1,2,0:0:0:0:
97,144,19349,1,2,0:0:0:0:
280,358,19513,5,8,0:3:0:0:
290,283,19594,1,8,0:3:0:0:
276,267,19839,5,2,2:3:0:0:
271,247,19920,1,2,2:3:0:0:
266,227,20002,1,2,2:3:0:0:
261,207,20083,1,2,2:3:0:0:
256,187,20165,5,2,0:0:0:0:
259,86,20328,1,2,0:0:0:0:
344,142,20491,1,2,0:3:0:0:
172,135,20654,1,2,0:3:0:0:
131,352,20817,5,2,0:0:0:0:
100,236,20980,1,2,0:0:0:0:
70,120,21143,1,2,0:3:0:0:
75,263,21306,1,2,0:3:0:0:
227,41,21469,5,2,3:2:0:0:
263,30,21551,1,2,3:2:0:0:
299,38,21632,1,10,3:2:0:0:
328,61,21714,1,2,3:2:0:0:
340,96,21795,2,0,P|336:136|308:180,1,75.0000028610231,2|0,0:0|0:0,0:0:0:0:
240,241,21958,1,10,0:0:0:0:
33,131,22121,2,0,P|96:103|192:125,1,150.000005722046,2|8,0:3|0:0,0:0:0:0:
136,271,22447,1,2,2:3:0:0:
137,323,22529,1,2,2:3:0:0:
168,364,22610,2,0,P|216:375|269:360,1,75.0000028610231,8|0,0:0|0:0,0:0:0:0:
345,238,22773,5,2,3:2:0:0:
397,232,22855,1,2,3:2:0:0:
437,253,22936,1,10,3:2:0:0:
458,288,23018,1,2,3:2:0:0:
459,327,23099,1,2,3:2:0:0:
364,157,23263,2,0,P|374:113|400:86,1,75.0000028610231,8|0,0:0|0:0,0:0:0:0:
512,49,23426,1,2,0:3:0:0:
477,175,23589,1,8,0:0:0:0:
328,25,23752,2,0,P|284:36|239:28,1,75.0000028610231,2|0,0:3|0:0,0:0:0:0:
88,57,23915,1,10,3:2:0:0:
69,105,23996,1,2,3:2:0:0:
84,155,24078,6,0,P|102:201|95:265,1,75.0000028610231,0|0,0:0|0:0,0:0:0:0:
206,106,24241,1,8,0:0:0:0:
32,326,24404,1,2,0:0:0:0:
179,276,24567,1,8,0:0:0:0:
307,377,24730,1,2,0:0:0:0:
454,327,24893,1,8,0:0:0:0:
317,152,25056,6,0,P|299:180|286:224,1,75.0000028610231,0|0,0:0|0:0,0:0:0:0:
232,70,25219,2,0,B|195:13|195:13|165:27|137:14|137:14|115:31|115:31|86:22|33:41,1,225.000008583069,10|0,3:2|0:0,0:0:0:0:
144,177,25545,1,10,3:2:0:0:
148,147,25627,1,2,3:2:0:0:
152,117,25708,1,2,3:2:0:0:
47,265,25871,1,8,0:0:0:0:
288,150,26034,2,0,B|328:180|337:249|337:249|357:152|446:76,1,300,2|0,1:0|0:0,0:0:0:0:
481,193,26360,2,0,B|489:313|408:356|408:356|406:288|346:224,1,300,2|0,1:0|0:0,0:0:0:0:
267,144,26686,6,0,P|310:99|336:194,1,179.999994506836,4|8,0:0|0:0,0:0:0:0:
271,264,26931,1,2,3:2:0:0:
257,251,27013,2,0,B|174:197|149:298|67:273,1,179.999994506836,2|8,3:2|0:0,0:0:0:0:
15,150,27257,1,2,3:2:0:0:
8,132,27339,2,0,B|29:91|58:67|58:67|48:162|99:258,1,269.999991760254,2|0,0:1|0:3,0:0:0:0:
242,369,27665,2,0,B|220:304|175:294|175:294|141:373|32:360,1,269.999991760254,2|0,0:1|0:3,0:0:0:0:
181,132,27991,6,0,P|220:141|248:181,1,89.9999972534181,4|0,0:1|0:0,0:0:0:0:
388,68,28154,1,10,3:2:0:0:
392,41,28235,1,2,3:2:0:0:
380,18,28317,2,0,P|341:27|313:67,1,89.9999972534181,2|0,3:2|0:0,0:0:0:0:
370,224,28480,1,10,3:2:0:0:
380,269,28561,1,2,3:2:0:0:
413,304,28643,2,0,B|441:197|441:197|386:118,1,179.999994506836,2|0,0:1|0:0,0:0:0:0:
292,333,28888,1,2,3:2:0:0:
277,320,28970,2,0,B|222:222|222:222|254:132,1,179.999994506836,2|0,0:1|0:0,0:0:0:0:
105,29,29295,5,2,3:2:0:0:
60,59,29377,1,2,3:2:0:0:
47,111,29458,1,10,3:2:0:0:
65,162,29540,1,2,3:2:0:0:
94,207,29621,1,2,3:2:0:0:
105,259,29703,1,2,3:2:0:0:
92,311,29784,1,10,3:2:0:0:
41,331,29866,1,2,3:2:0:0:
0,307,29947,6,0,P|-2:261|20:216,1,89.9999972534181,2|0,0:1|3:0,0:0:0:0:
228,156,30110,2,0,P|185:138|135:143,1,89.9999972534181,8|0,3:2|3:0,0:0:0:0:
269,324,30273,2,0,B|270:247|243:187|243:187|291:130|299:60,1,269.999991760254,2|0,0:1|0:0,0:0:0:0:
464,160,30599,5,2,0:3:0:0:
426,235,30681,1,2,0:3:0:0:
366,265,30763,1,8,0:3:0:0:
315,263,30844,1,8,0:3:0:0:
282,246,30926,5,2,0:3:0:0:
208,211,31007,1,2,0:3:0:0:
135,231,31089,1,8,0:3:0:0:
105,279,31170,1,8,0:3:0:0:
108,324,31252,5,2,3:2:0:0:
150,278,31333,1,2,3:2:0:0:
148,214,31415,1,2,3:2:0:0:
102,171,31496,1,2,3:2:0:0:
85,109,31578,1,2,3:0:0:0:
102,67,31659,1,2,3:0:0:0:
142,47,31741,1,2,3:0:0:0:
186,48,31822,1,2,3:0:0:0:
221,75,31904,5,2,3:2:0:0:
220,101,31985,1,2,3:2:0:0:
226,127,32067,1,10,3:2:0:0:
240,149,32148,1,2,3:2:0:0:
260,167,32230,2,0,P|280:195|285:270,1,89.9999972534181,2|0,3:2|3:2,0:0:0:0:
398,345,32393,1,8,0:0:0:0:
508,185,32556,2,0,P|472:113|399:166,1,179.999994506836,4|8,0:3|0:0,0:0:0:0:
308,263,32801,1,2,3:2:0:0:
297,281,32882,2,0,P|252:301|198:289,1,89.9999972534181,2|0,3:2|0:0,0:0:0:0:
149,163,33045,1,8,0:0:0:0:
41,365,33208,5,6,0:3:0:0:
6,188,33371,1,8,0:0:0:0:
112,38,33534,2,0,B|203:2|201:101|316:61,1,179.999994506836,2|8,0:3|0:0,0:0:0:0:
451,149,33779,1,2,3:2:0:0:
434,132,33860,2,0,P|360:137|332:147,1,89.9999972534181,2|0,0:1|0:0,0:0:0:0:
207,267,34023,2,0,P|246:204|268:183,1,89.9999972534181,8|0,0:0|0:0,0:0:0:0:
502,235,34186,2,0,P|428:240|400:250,1,89.9999972534181,2|0,0:1|0:0,0:0:0:0:
275,370,34349,2,0,P|314:307|336:286,1,89.9999972534181,8|0,0:0|0:0,0:0:0:0:
263,106,34513,5,2,0:3:0:0:
184,350,34676,1,8,0:0:0:0:
7,173,34839,2,0,B|41:141|41:141|102:138,1,89.9999972534181,2|0,0:3|0:0,0:0:0:0:
268,87,35002,2,0,B|234:55|234:55|173:52,1,89.9999972534181,8|0,0:0|0:0,0:0:0:0:
306,295,35165,2,0,B|290:242|290:242|329:226|329:226|353:128,1,179.999994506836,2|8,1:1|0:0,0:0:0:0:
495,286,35409,1,2,0:0:0:0:
509,274,35491,2,0,B|516:219|516:219|475:209|475:209|436:116,1,179.999994506836,2|8,1:0|0:0,0:0:0:0:
230,60,35817,5,0,0:0:0:0:
192,98,35898,1,0,0:0:0:0:
198,151,35980,1,8,0:0:0:0:
224,197,36061,1,0,0:0:0:0:
224,251,36143,1,0,0:0:0:0:
195,296,36224,1,0,0:0:0:0:
144,316,36306,1,8,0:0:0:0:
91,303,36388,1,0,0:0:0:0:
64,256,36469,6,0,B|143:257|209:340|209:340|220:304|220:304|247:346|315:350,1,300,4|0,0:0|0:0,0:0:0:0:
436,294,36795,2,0,B|397:316|370:376|370:376|385:271|310:191,1,300,6|0,0:0|0:0,0:0:0:0:
296,66,37121,6,0,P|366:30|388:122,1,179.999994506836,4|8,0:1|0:0,0:0:0:0:
301,181,37366,1,2,3:2:0:0:
289,168,37447,2,0,B|288:99|243:55|243:55|216:75|180:71,1,179.999994506836,0|8,0:0|0:0,0:0:0:0:
53,142,37692,1,2,3:2:0:0:
64,169,37773,2,0,B|129:217|220:216|220:216|145:233|109:267,1,269.999991760254,2|0,1:0|0:0,0:0:0:0:
0,322,38099,2,0,B|56:221|140:335|215:346|284:284,1,269.999991760254,2|0,0:1|0:0,0:0:0:0:
395,198,38426,6,0,B|436:198|436:198|469:257|469:257|442:364,1,179.999994506836,4|8,0:1|0:0,0:0:0:0:
282,177,38670,1,0,0:0:0:0:
270,161,38752,2,0,B|229:161|229:161|196:220|196:220|223:327,1,179.999994506836,2|8,1:0|0:0,0:0:0:0:
422,106,39078,5,0,3:2:0:0:
402,55,39159,1,0,3:2:0:0:
359,21,39241,1,8,3:2:0:0:
305,13,39322,1,0,3:2:0:0:
255,35,39404,1,0,3:2:0:0:
207,60,39485,1,0,3:2:0:0:
152,65,39567,1,8,3:2:0:0:
101,47,39648,1,0,3:2:0:0:
71,1,39730,6,0,B|117:-2|148:19|148:19|129:106|169:140|152:215,1,269.999991760254,4|0,0:0|0:0,0:0:0:0:
23,284,40056,2,0,B|43:212|145:202|207:264,1,179.999994506836,2|0,1:0|0:0,0:0:0:0:
312,337,40301,1,2,3:2:0:0:
328,323,40382,2,0,P|336:283|333:224,1,89.9999972534181,0|0,0:0|0:0,0:0:0:0:
316,153,40545,2,0,P|300:115|266:67,1,89.9999972534181,8|0,0:0|3:0,3:0:0:0:
416,0,40708,2,0,P|412:44|398:87,1,89.9999972534181,0|0,3:0|3:0,3:0:0:0:
256,211,40871,1,8,0:0:0:0:
41,129,41034,5,8,0:0:0:0:
94,68,41116,1,8,0:0:0:0:
173,56,41197,1,8,0:0:0:0:
116,274,41360,5,8,0:0:0:0:
55,221,41442,1,8,0:0:0:0:
47,141,41523,1,8,0:0:0:0:
100,80,41605,1,8,0:0:0:0:
179,68,41686,5,4,0:3:0:0:
184,85,41768,1,4,0:3:0:0:
189,101,41849,1,4,0:3:0:0:
195,118,41931,1,4,0:3:0:0:
201,134,42013,5,2,0:3:0:0:
232,102,42094,1,2,0:3:0:0:
266,72,42176,1,2,0:3:0:0:
298,40,42257,1,2,0:3:0:0:
291,24,42339,1,2,0:3:0:0:
71,271,42665,5,2,0:0:0:0:
333,293,42828,1,2,0:0:0:0:
188,382,42991,2,0,P|200:360|224:352,1,50,2|0,0:3|0:3,0:0:0:0:
152,205,43317,2,0,P|164:183|188:175,1,50,2|0,0:3|0:3,0:0:0:0:
118,31,43643,2,0,P|129:9|152:1,1,50,2|0,0:3|0:3,0:0:0:0:
270,240,43969,5,2,0:0:0:0:
512,162,44132,1,2,0:0:0:0:
410,270,44295,2,0,P|407:250|431:238,1,50,2|0,0:3|0:3,0:0:0:0:
215,167,44621,2,0,P|212:147|236:135,1,50,2|0,0:3|0:3,0:0:0:0:
19,63,44947,2,0,P|18:39|40:31,1,50,2|0,0:3|0:3,0:0:0:0:
337,158,45273,5,2,0:0:0:0:
258,360,45436,1,2,0:0:0:0:
174,256,45599,1,2,0:0:0:0:
451,338,45763,5,4,0:3:0:0:
456,350,45844,1,4,0:3:0:0:
461,364,45926,1,8,0:0:0:0:
58,78,46252,5,2,2:3:0:0:
59,70,46333,1,2,2:3:0:0:
60,62,46415,2,0,L|70:18,1,34.9999989318848,2|0,3:2|0:0,0:0:0:0:
131,189,46741,1,2,2:3:0:0:
133,196,46822,1,2,2:3:0:0:
135,204,46904,1,8,0:0:0:0:
153,147,46985,1,2,3:2:0:0:
175,90,47067,1,2,3:2:0:0:
191,327,47230,5,2,2:3:0:0:
196,323,47311,1,2,2:3:0:0:
199,317,47393,2,0,L|230:279,1,34.9999989318848,2|0,3:2|0:0,0:0:0:0:
454,192,47719,5,2,2:3:0:0:
447,190,47800,1,2,2:3:0:0:
441,187,47882,1,2,3:2:0:0:
324,282,48045,1,0,0:0:0:0:
506,88,48208,1,8,0:0:0:0:
457,80,48290,1,2,3:2:0:0:
408,74,48371,1,2,3:2:0:0:
318,304,48534,1,2,0:0:0:0:
219,0,48697,1,8,0:0:0:0:
30,169,49023,5,2,0:3:0:0:
169,205,49186,1,2,0:3:0:0:
5,279,49349,1,2,0:3:0:0:
129,122,49513,2,0,B|161:108|161:108|219:113,1,75.0000028610231,8|0,0:0|0:0,0:0:0:0:
131,225,49676,2,0,B|165:230|165:230|211:266,1,75.0000028610231,8|0,0:0|0:0,0:0:0:0:
45,75,49839,1,2,0:3:0:0:
341,21,50002,1,2,2:3:0:0:
342,28,50083,1,2,2:3:0:0:
342,35,50165,1,2,3:2:0:0:
164,0,50328,1,2,0:0:0:0:
417,344,50654,5,2,0:0:0:0:
345,160,50817,1,8,0:0:0:0:
339,213,50898,1,2,3:2:0:0:
333,265,50980,1,2,3:2:0:0:
251,384,51143,1,8,0:0:0:0:
215,201,51306,1,8,0:0:0:0:
125,46,51469,5,2,2:3:0:0:
123,53,51551,1,2,2:3:0:0:
119,59,51632,2,0,L|126:100,1,34.9999989318848,2|0,3:2|0:0,0:0:0:0:
381,29,51958,1,2,3:2:0:0:
374,84,52040,1,2,3:2:0:0:
367,138,52121,2,0,L|353:232,1,75.0000028610231,8|0,3:2|0:0,0:0:0:0:
250,111,52284,1,2,0:0:0:0:
269,361,52447,5,2,2:3:0:0:
271,353,52529,1,2,2:3:0:0:
274,345,52610,2,0,L|282:300,1,34.9999989318848,0|0,0:0|0:0,0:0:0:0:
130,187,52936,1,2,2:3:0:0:
130,195,53017,1,2,2:3:0:0:
131,204,53099,1,2,2:3:0:0:
87,319,53263,1,2,0:3:0:0:
37,91,53426,1,8,0:0:0:0:
2,215,53589,5,2,0:0:0:0:
243,132,53752,1,8,0:0:0:0:
405,307,53915,1,8,0:0:0:0:
323,344,54078,1,2,0:0:0:0:
376,110,54241,6,0,L|452:101,1,75.0000028610231,0|0,1:1|0:0,0:0:0:0:
325,198,54404,1,2,0:3:0:0:
174,90,54567,1,2,0:0:0:0:
115,282,54730,1,8,0:0:0:0:
108,231,54811,1,2,2:3:0:0:
103,180,54893,1,2,2:3:0:0:
256,382,55056,1,2,0:3:0:0:
236,253,55219,1,2,0:3:0:0:
18,63,55382,6,0,L|115:42,1,75.0000028610231,4|0,0:0|0:0,0:0:0:0:
18,348,55545,1,2,0:3:0:0:
358,55,55871,5,0,0:0:0:0:
383,161,56034,1,2,2:3:0:0:
385,168,56116,1,2,2:3:0:0:
387,175,56197,1,2,3:2:0:0:
511,36,56360,1,8,0:0:0:0:
456,325,56523,1,8,0:0:0:0:
268,151,56686,5,2,2:3:0:0:
269,143,56767,1,2,2:3:0:0:
270,135,56849,2,0,L|280:91,1,34.9999989318848,2|0,3:2|0:0,0:0:0:0:
82,217,57176,1,2,2:3:0:0:
86,222,57256,1,2,2:3:0:0:
91,228,57338,1,8,0:0:0:0:
74,171,57419,1,2,3:2:0:0:
60,112,57501,1,2,3:2:0:0:
236,315,57665,5,2,2:3:0:0:
237,307,57746,1,2,2:3:0:0:
238,299,57828,2,0,L|248:255,1,34.9999989318848,2|0,3:2|0:0,0:0:0:0:
412,38,58154,5,2,2:3:0:0:
413,45,58235,1,2,2:3:0:0:
414,51,58317,1,2,3:2:0:0:
325,133,58479,1,0,0:0:0:0:
512,265,58643,1,8,0:0:0:0:
461,281,58724,1,2,3:2:0:0:
410,294,58806,1,2,3:2:0:0:
495,106,58969,1,2,0:0:0:0:
231,335,59132,1,8,0:0:0:0:
157,34,59458,5,2,0:3:0:0:
104,144,59621,1,2,0:3:0:0:
8,0,59784,1,2,0:3:0:0:
201,122,59948,2,0,B|233:136|233:136|291:131,1,75.0000028610231,8|0,0:0|0:0,0:0:0:0:
367,55,60110,1,2,0:0:0:0:
283,257,60274,1,2,0:3:0:0:
440,182,60437,1,2,2:3:0:0:
435,177,60519,1,0,0:0:0:0:
429,172,60600,1,2,3:2:0:0:
385,376,60763,1,2,0:0:0:0:
45,106,61089,5,2,0:0:0:0:
128,284,61252,1,8,0:0:0:0:
136,235,61333,1,2,3:2:0:0:
146,183,61415,1,2,3:2:0:0:
28,336,61578,1,8,0:0:0:0:
234,283,61741,1,8,0:0:0:0:
457,366,61904,5,2,2:3:0:0:
459,359,61986,1,2,2:3:0:0:
463,353,62067,2,0,L|456:312,1,34.9999989318848,2|0,3:2|0:0,0:0:0:0:
386,93,62393,1,2,3:2:0:0:
388,101,62475,1,2,3:2:0:0:
389,109,62556,2,0,L|378:203,1,75.0000028610231,8|0,3:2|0:0,0:0:0:0:
362,328,62719,1,2,0:0:0:0:
223,47,62882,5,2,2:3:0:0:
225,55,62964,1,2,2:3:0:0:
228,63,63045,2,0,L|236:108,1,34.9999989318848,0|0,0:0|0:0,0:0:0:0:
59,29,63371,1,2,2:3:0:0:
63,35,63452,1,2,2:3:0:0:
67,41,63534,1,2,2:3:0:0:
84,131,63698,1,2,0:3:0:0:
324,14,63861,5,8,0:0:0:0:
266,269,64024,1,2,0:0:0:0:
226,179,64187,1,8,0:0:0:0:
494,137,64349,1,8,0:0:0:0:
483,234,64512,1,2,0:0:0:0:
227,86,64676,6,0,L|215:160,1,75.0000028610231,0|0,1:1|0:0,0:0:0:0:
159,16,64839,1,2,0:3:0:0:
315,179,65002,1,2,0:0:0:0:
90,270,65165,1,8,0:0:0:0:
145,272,65246,1,2,2:3:0:0:
200,272,65328,1,2,2:3:0:0:
58,137,65491,1,2,0:3:0:0:
314,76,65654,1,2,0:3:0:0:
426,360,65817,6,0,B|453:334|453:334|461:291,1,75.0000028610231,4|0,0:0|0:0,0:0:0:0:
484,87,65980,1,2,0:3:0:0:
148,380,66306,5,2,0:3:0:0:
71,244,66469,2,0,B|77:219|77:219|133:199,1,75.0000028610231,8|2,0:0|3:2,0:0:0:0:
290,122,66632,1,2,3:2:0:0:
303,136,66714,1,2,3:2:0:0:
317,151,66795,5,2,3:2:0:0:
257,141,66877,1,2,3:2:0:0:
197,133,66958,1,2,3:2:0:0:
137,123,67040,1,2,3:2:0:0:
94,58,67121,6,0,L|81:13,1,34.9999989318848,8|0,0:0|0:0,0:0:0:0:
57,164,67447,2,0,L|44:119,1,34.9999989318848,2|0,0:0|0:0,0:0:0:0:
10,273,67773,2,0,L|-3:228,2,34.9999989318848,2|2|2,0:0|0:0|0:0,0:0:0:0:
254,366,68426,6,0,P|278:368|295:380,1,34.9999989318848,2|0,0:0|0:0,0:0:0:0:
328,268,68752,2,0,P|345:284|350:305,1,34.9999989318848,2|0,0:0|0:0,0:0:0:0:
447,240,69078,2,0,P|449:263|440:282,2,34.9999989318848,2|2|2,0:0|0:0|0:0,0:0:0:0:
224,95,69730,6,0,P|199:97|184:106,1,34.9999989318848,2|0,0:0|0:0,0:0:0:0:
303,157,70056,2,0,P|325:167|337:180,1,34.9999989318848,2|0,0:0|0:0,0:0:0:0:
220,197,70382,2,0,P|203:214|196:230,2,34.9999989318848,2|2|2,0:0|0:0|0:0,0:0:0:0:
310,337,71034,6,0,B|309:309|309:309|316:300|316:300|316:273,1,59.9999981689454,2|2,0:0|0:3,0:0:0:0:
307,266,72013,1,2,0:0:0:0:
47,81,72339,5,2,3:2:0:0:
69,55,72420,1,2,3:2:0:0:
100,41,72502,1,10,3:2:0:0:
133,38,72583,1,2,3:2:0:0:
166,46,72665,2,0,B|188:69|188:69|254:77,1,85.0000016212464,2|0,3:2|0:0,0:0:0:0:
338,178,72828,1,8,0:0:0:0:
121,153,72991,2,0,B|67:141|-6:196|65:300|131:268|103:367,1,255.000004863739,2|0,0:1|0:0,0:0:0:0:
6,384,73317,2,0,P|24:331|142:328,1,170.000003242493,2|8,0:3|0:0,0:0:0:0:
331,376,73643,5,2,3:2:0:0:
369,240,73806,1,8,0:0:0:0:
246,172,73969,1,2,3:2:0:0:
208,36,74132,1,8,0:0:0:0:
429,97,74295,2,0,P|374:103|333:123,1,85.0000016212464,2|0,3:3|0:0,0:0:0:0:
162,180,74458,2,0,P|217:186|258:206,1,85.0000016212464,8|0,0:0|0:0,0:0:0:0:
79,332,74621,1,2,3:2:0:0:
72,285,74703,1,2,3:2:0:0:
66,239,74784,1,8,3:2:0:0:
59,192,74866,1,2,3:2:0:0:
54,146,74947,5,6,3:2:0:0:
94,159,75029,1,2,3:2:0:0:
135,149,75110,1,8,3:2:0:0:
170,124,75192,1,2,3:2:0:0:
184,84,75273,2,0,B|218:52|218:52|279:43,1,85.0000016212464,2|0,3:2|0:0,0:0:0:0:
386,99,75436,1,8,0:0:0:0:
219,254,75599,2,0,B|213:207|213:207|243:153,1,85.0000016212464,2|0,3:2|0:0,0:0:0:0:
404,110,75763,1,8,0:0:0:0:
503,280,75926,1,2,3:2:0:0:
470,252,76008,1,2,3:2:0:0:
428,246,76089,1,2,3:2:0:0:
387,260,76171,1,2,3:2:0:0:
352,284,76252,6,0,P|318:298|313:259,1,85.0000016212464,4|0,0:0|0:0,0:0:0:0:
286,134,76415,2,0,P|252:120|247:159,1,85.0000016212464,8|0,0:0|0:0,0:0:0:0:
218,307,76578,2,0,P|127:334|79:264,1,170.000003242493,2|0,2:3|0:0,0:0:0:0:
141,36,76904,6,0,P|95:50|60:81,1,85.0000016212464,2|0,1:0|0:0,0:0:0:0:
252,23,77067,2,0,P|294:26|332:44,1,85.0000016212464,8|0,0:0|0:0,0:0:0:0:
342,263,77230,2,0,B|340:217|340:217|359:175,1,85.0000016212464,2|0,1:0|0:0,0:0:0:0:
467,104,77393,2,0,B|483:139|483:139|481:185,1,85.0000016212464,8|0,0:0|0:0,0:0:0:0:
391,350,77556,6,0,B|339:278|245:308|245:308|256:257|221:210,1,255.000004863739,4|0,0:0|0:0,0:0:0:0:
77,180,77882,2,0,B|199:204|265:157|265:157|237:129|227:81,1,255.000004863739,2|0,0:3|0:0,0:0:0:0:
403,60,78208,6,0,P|360:105|332:16,1,170.000003242493,2|8,3:2|0:0,0:0:0:0:
452,149,78453,1,2,3:2:0:0:
438,166,78534,2,0,P|417:243|418:337,1,170.000003242493,2|8,3:2|0:0,0:0:0:0:
249,360,78779,1,2,3:2:0:0:
235,344,78860,2,0,B|261:278|386:261|386:261|303:237,1,255.000004863739,4|0,0:0|0:0,0:0:0:0:
200,198,79186,2,0,B|106:187|27:281|27:281|19:244|32:212,1,255.000004863739,2|0,1:1|0:0,0:0:0:0:
83,103,79513,1,2,3:2:0:0:
110,85,79594,1,2,3:2:0:0:
145,85,79676,1,10,3:2:0:0:
182,101,79757,1,2,3:2:0:0:
224,116,79839,1,2,3:2:0:0:
276,120,79920,1,2,3:2:0:0:
328,101,80002,1,10,3:2:0:0:
365,59,80083,1,2,3:2:0:0:
378,3,80165,6,0,B|334:50|334:50|351:189,1,170.000003242493,4|8,0:0|0:0,0:0:0:0:
246,271,80410,1,2,3:2:0:0:
232,277,80491,2,0,B|188:230|188:230|205:91,1,170.000003242493,2|8,3:2|0:0,0:0:0:0:
385,239,80735,1,2,3:2:0:0:
398,251,80817,2,0,B|385:274|385:274|320:293,1,85.0000016212464,0|0,3:2|0:0,0:0:0:0:
152,323,80980,2,0,B|165:346|165:346|230:365,1,85.0000016212464,8|0,0:0|0:0,0:0:0:0:
200,125,81143,1,2,3:2:0:0:
134,108,81224,1,2,3:2:0:0:
68,128,81306,1,2,3:2:0:0:
28,183,81388,1,2,3:2:0:0:
36,250,81469,1,4,0:3:0:0:
0,70,81632,5,2,0:3:0:0:
221,3,81795,1,2,3:2:0:0:
261,11,81877,1,2,3:2:0:0:
303,21,81958,1,2,2:3:0:0:
139,96,82121,1,2,0:0:0:0:
311,285,82284,1,10,0:3:0:0:
321,236,82366,1,2,0:3:0:0:
332,188,82447,1,2,0:3:0:0:
330,178,82529,1,0,0:3:0:0:
327,169,82610,1,0,0:3:0:0:
325,160,82692,1,0,0:3:0:0:
323,150,82773,5,6,3:2:0:0:
253,108,82855,1,2,3:2:0:0:
179,121,82936,1,2,3:2:0:0:
135,176,83018,1,2,3:2:0:0:
83,194,83099,1,10,3:2:0:0:
35,184,83181,1,2,3:2:0:0:
11,151,83263,1,2,3:2:0:0:
10,117,83344,1,2,3:2:0:0:
31,93,83426,5,2,1:2:0:0:
94,144,83507,1,2,3:2:0:0:
94,220,83589,1,2,3:2:0:0:
71,281,83670,1,2,3:2:0:0:
85,336,83752,1,10,3:2:0:0:
126,366,83833,1,2,3:2:0:0:
171,364,83915,1,2,3:2:0:0:
202,340,83996,1,2,3:2:0:0:
214,307,84078,6,0,P|245:270|297:252,1,94.9999974632264,6|2,3:2|3:2,0:0:0:0:
389,376,84241,2,0,P|394:328|372:277,1,94.9999974632264,2|0,3:2|3:2,0:0:0:0:
251,174,84404,1,8,0:0:0:0:
236,128,84485,1,2,3:2:0:0:
246,81,84567,1,2,3:2:0:0:
275,43,84648,1,2,3:2:0:0:
321,31,84730,2,0,B|343:75|343:75|335:129,1,94.9999974632264,2|2,1:2|3:2,0:0:0:0:
157,93,84893,2,0,B|163:47|163:47|196:11,1,94.9999974632264,2|2,3:2|3:2,0:0:0:0:
151,218,85056,2,0,B|139:127|139:127|70:11|70:11|43:84,1,284.999992389679,8|0,0:0|0:0,0:0:0:0:
66,284,85382,5,2,3:2:0:0:
140,329,85464,1,2,3:2:0:0:
218,310,85545,1,2,3:2:0:0:
270,255,85627,1,2,3:2:0:0:
327,226,85708,1,10,3:2:0:0:
383,230,85790,1,2,3:2:0:0:
416,266,85872,1,2,3:2:0:0:
418,308,85953,1,2,3:2:0:0:
390,336,86035,5,2,2:1:0:0:
326,282,86116,1,2,2:0:0:0:
352,202,86197,2,0,B|364:156|364:156|350:96,1,94.9999974632264,0|0,0:1|0:0,0:0:0:0:
199,19,86360,2,0,B|187:65|187:65|201:125,1,94.9999974632264,8|0,0:0|0:0,0:0:0:0:
381,21,86523,1,2,0:0:0:0:
214,215,86686,5,6,3:2:0:0:
169,233,86768,1,0,3:2:0:0:
121,231,86849,1,0,3:2:0:0:
84,199,86931,1,0,3:2:0:0:
72,152,87013,5,10,3:2:0:0:
132,197,87094,1,2,3:2:0:0:
151,270,87176,1,10,3:2:0:0:
125,340,87257,1,2,3:2:0:0:
55,372,87339,5,2,3:2:0:0:
35,289,87420,1,2,3:2:0:0:
76,213,87502,1,10,3:2:0:0:
153,178,87583,1,2,3:2:0:0:
237,196,87665,5,10,3:2:0:0:
285,166,87746,1,2,3:2:0:0:
295,109,87828,1,10,3:2:0:0:
263,62,87909,1,2,3:2:0:0:
206,55,87991,5,6,3:2:0:0:
238,74,88072,1,2,3:2:0:0:
276,76,88154,1,10,3:2:0:0:
310,60,88235,1,2,3:2:0:0:
345,46,88317,1,2,3:2:0:0:
382,47,88398,1,2,3:2:0:0:
417,62,88480,1,10,3:2:0:0:
439,92,88561,1,2,3:2:0:0:
439,130,88643,6,0,B|434:180|381:191|363:224|363:224|396:249|395:302,1,189.999994926453,2|8,0:3|0:0,0:0:0:0:
295,362,88888,1,2,3:2:0:0:
274,370,88969,2,0,B|258:313|177:262|100:287|100:287|154:311|147:347,1,284.999992389679,2|0,3:2|0:0,0:0:0:0:
291,206,89295,2,0,B|317:168|317:168|327:103,1,94.9999974632264,4|0,0:0|0:0,0:0:0:0:
133,204,89458,1,10,2:2:0:0:
120,188,89540,1,2,2:3:0:0:
107,171,89621,2,0,B|96:126|96:126|110:61,1,94.9999974632264,2|0,3:2|0:0,0:0:0:0:
210,270,89784,1,8,0:0:0:0:
337,18,89947,6,0,B|338:106|423:133|423:133|451:186|386:184|376:212|376:212|373:256,1,284.999992389679,2|0,1:1|0:0,0:0:0:0:
501,308,90273,2,0,B|453:228|351:243|371:332|363:333|285:343|234:328,1,284.999992389679,2|0,1:0|0:0,0:0:0:0:
201,243,90599,1,2,3:2:0:0:
155,229,90681,1,2,3:2:0:0:
108,238,90763,1,10,3:2:0:0:
67,261,90844,1,2,3:2:0:0:
21,245,90926,1,2,3:2:0:0:
6,199,91007,1,2,3:2:0:0:
32,159,91089,1,10,3:2:0:0:
56,118,91170,1,2,3:2:0:0:
52,70,91252,6,0,B|75:32|162:33|197:94|136:138|216:182|292:151,1,284.999992389679,2|0,1:1|0:0,0:0:0:0:
462,119,91578,1,2,0:3:0:0:
380,144,91659,1,2,0:3:0:0:
298,171,91741,1,2,0:3:0:0:
217,197,91822,1,2,0:3:0:0:
135,225,91904,5,6,0:0:0:0:
85,329,92067,1,2,0:3:0:0:
244,283,92230,1,2,0:0:0:0:
63,335,92393,1,2,0:3:0:0:
48,74,92556,5,2,0:0:0:0:
0,163,92719,1,2,0:0:0:0:
60,50,92882,1,2,0:0:0:0:
102,132,93045,1,2,0:0:0:0:
351,9,93208,6,0,B|331:-19|274:-19|226:21|240:120|355:61|306:145|259:171|310:248,1,284.999992389679,4|0,0:1|0:0,0:0:0:0:
344,304,93534,5,2,0:0:0:0:
203,141,93697,1,2,0:0:0:0:
212,327,93860,2,0,P|224:349|247:358,1,50,2|0,0:3|0:3,0:0:0:0:
181,177,94186,2,0,P|170:199|148:208,1,50,2|0,0:3|0:3,0:0:0:0:
214,28,94512,2,0,P|225:49|249:58,1,50,2|0,0:3|0:3,0:0:0:0:
512,294,94838,5,2,0:0:0:0:
271,251,95001,1,2,0:0:0:0:
464,195,95165,2,0,P|467:170|453:149,1,50,2|0,0:3|0:3,0:0:0:0:
258,151,95491,2,0,P|259:127|246:106,1,50,2|0,0:3|0:3,0:0:0:0:
50,111,95817,2,0,P|53:86|40:66,1,50,2|0,0:3|0:3,0:0:0:0:
228,260,96142,5,2,0:0:0:0:
358,99,96305,1,2,0:0:0:0:
411,341,96468,1,2,0:3:0:0:
229,60,96632,5,2,3:2:0:0:
234,72,96713,1,2,3:2:0:0:
239,86,96795,1,8,0:0:0:0:
245,100,97284,5,8,0:0:0:0:
3,213,97447,5,2,2:3:0:0:
10,211,97528,1,2,2:3:0:0:
18,209,97610,2,0,L|54:199,1,34.9999989318848,2|0,3:2|0:0,0:0:0:0:
225,354,97936,1,2,2:3:0:0:
231,358,98017,1,2,2:3:0:0:
237,363,98099,1,8,0:0:0:0:
178,354,98180,1,2,3:2:0:0:
117,349,98262,1,2,3:2:0:0:
152,118,98425,5,2,2:3:0:0:
159,119,98506,1,2,2:3:0:0:
167,120,98588,2,0,L|204:127,1,34.9999989318848,2|0,3:2|0:0,0:0:0:0:
393,301,98914,5,2,2:3:0:0:
386,299,98995,1,2,2:3:0:0:
380,296,99077,1,2,3:2:0:0:
340,152,99240,1,0,0:0:0:0:
281,367,99403,1,8,0:0:0:0:
271,318,99485,1,2,3:2:0:0:
260,270,99566,1,2,3:2:0:0:
421,380,99729,1,2,0:0:0:0:
484,104,99892,1,8,0:0:0:0:
120,380,100218,5,2,0:3:0:0:
74,158,100381,1,2,0:3:0:0:
16,332,100544,1,2,0:3:0:0:
146,96,100707,2,0,B|179:124|179:124|202:282,1,150.000005722046,8|2,0:0|0:0,0:0:0:0:
38,338,101034,1,2,0:3:0:0:
309,252,101197,1,2,2:3:0:0:
301,252,101278,1,2,2:3:0:0:
294,252,101360,1,2,3:2:0:0:
139,383,101523,1,2,0:0:0:0:
278,40,101849,5,2,0:0:0:0:
333,233,102012,1,8,0:0:0:0:
339,181,102094,1,2,3:2:0:0:
345,128,102175,1,2,3:2:0:0:
245,321,102338,1,8,0:0:0:0:
432,282,102501,1,8,0:0:0:0:
113,84,102664,5,2,2:3:0:0:
115,90,102746,1,2,2:3:0:0:
116,97,102827,2,0,L|128:138,1,34.9999989318848,2|0,3:2|0:0,0:0:0:0:
344,4,103153,1,2,3:2:0:0:
343,12,103235,1,2,3:2:0:0:
341,20,103316,2,0,L|331:116,1,75.0000028610231,8|0,3:2|0:0,0:0:0:0:
366,213,103479,1,2,0:0:0:0:
110,243,103642,5,2,2:3:0:0:
118,241,103724,1,2,2:3:0:0:
126,239,103805,2,0,L|169:224,1,34.9999989318848,0|0,0:0|0:0,0:0:0:0:
17,71,104131,1,2,2:3:0:0:
24,74,104212,1,2,2:3:0:0:
33,76,104294,1,2,2:3:0:0:
0,304,104458,1,2,0:3:0:0:
166,39,104621,1,8,0:0:0:0:
268,132,104784,5,2,0:0:0:0:
46,166,104947,1,8,0:0:0:0:
331,329,105110,1,8,0:0:0:0:
184,353,105273,1,2,0:0:0:0:
401,233,105436,6,0,B|419:211|419:211|468:204,1,75.0000028610231,0|0,1:1|0:0,0:0:0:0:
347,147,105599,1,2,0:3:0:0:
180,271,105762,1,2,0:0:0:0:
90,73,105925,1,8,0:0:0:0:
95,124,106007,1,2,2:3:0:0:
102,175,106088,1,2,2:3:0:0:
302,330,106251,1,2,0:3:0:0:
11,384,106414,1,2,0:3:0:0:
219,95,106577,6,0,B|253:76|253:76|307:85,1,75.0000028610231,4|0,0:0|0:0,0:0:0:0:
225,383,106740,1,2,0:3:0:0:
429,15,107066,5,2,0:3:0:0:
509,214,107229,1,2,0:3:0:0:
507,221,107311,1,2,0:3:0:0:
505,228,107392,1,2,0:0:0:0:
313,26,107555,1,2,3:2:0:0:
323,100,107637,1,2,3:2:0:0:
333,173,107718,1,2,3:2:0:0:
344,247,107800,1,2,3:2:0:0:
355,321,107881,5,2,2:3:0:0:
356,313,107962,1,2,2:3:0:0:
357,305,108044,2,0,L|364:258,1,34.9999989318848,2|0,3:2|0:0,0:0:0:0:
179,102,108370,1,2,2:3:0:0:
104,366,108533,1,8,0:0:0:0:
93,312,108614,1,2,3:2:0:0:
84,258,108696,1,2,3:2:0:0:
269,112,108860,5,2,2:3:0:0:
270,104,108941,1,2,2:3:0:0:
271,96,109023,2,0,L|281:52,1,34.9999989318848,2|0,3:2|0:0,0:0:0:0:
428,291,109348,5,2,2:3:0:0:
429,298,109429,1,2,2:3:0:0:
430,304,109511,1,2,3:2:0:0:
251,207,109674,1,0,0:0:0:0:
482,52,109837,1,8,0:0:0:0:
427,68,109919,1,2,3:2:0:0:
372,83,110000,1,2,3:2:0:0:
510,236,110163,1,2,0:0:0:0:
223,317,110326,1,8,0:0:0:0:
97,34,110653,5,2,0:3:0:0:
242,102,110816,1,2,0:3:0:0:
0,154,110979,1,2,0:3:0:0:
106,310,111143,2,0,B|93:277|93:277|100:226,1,75.0000028610231,8|0,0:0|0:0,0:0:0:0:
221,92,111305,1,2,0:3:0:0:
180,365,111468,2,0,B|148:348|148:348|121:304,1,75.0000028610231,8|0,0:0|0:0,0:0:0:0:
112,112,111631,1,2,0:3:0:0:
325,381,111795,1,4,0:0:0:0:
282,253,111958,1,2,0:0:0:0:
492,0,112284,5,2,0:3:0:0:
307,137,112447,1,2,2:3:0:0:
314,87,112528,1,2,2:3:0:0:
320,34,112610,1,2,3:2:0:0:
179,300,112773,1,2,1:2:0:0:
170,225,112854,1,2,1:2:0:0:
161,150,112936,1,2,1:2:0:0:
152,75,113017,1,2,1:2:0:0:
143,0,113099,5,2,2:3:0:0:
145,7,113181,1,2,2:3:0:0:
149,13,113262,2,0,L|142:54,1,34.9999989318848,2|0,3:2|0:0,0:0:0:0:
19,289,113588,1,2,3:2:0:0:
21,281,113670,1,2,3:2:0:0:
22,273,113751,2,0,L|11:179,1,75.0000028610231,8|0,3:2|0:0,0:0:0:0:
121,370,113914,1,2,0:0:0:0:
327,108,114077,5,2,2:3:0:0:
325,116,114159,1,2,2:3:0:0:
322,124,114240,1,0,0:0:0:0:
310,209,114403,1,0,0:0:0:0:
163,67,114566,1,2,2:3:0:0:
165,73,114647,1,2,2:3:0:0:
167,80,114729,1,2,2:3:0:0:
189,197,114893,1,2,0:3:0:0:
447,93,115056,5,8,0:0:0:0:
393,263,115219,1,2,0:0:0:0:
367,15,115382,1,8,0:0:0:0:
473,340,115544,1,8,0:0:0:0:
339,382,115707,1,2,0:0:0:0:
132,265,115871,6,0,B|149:244|149:244|211:238,1,75.0000028610231,0|0,1:1|0:0,0:0:0:0:
31,189,116034,1,2,0:3:0:0:
175,358,116197,1,2,0:0:0:0:
93,117,116360,1,0,0:0:0:0:
146,129,116441,1,0,0:0:0:0:
200,139,116523,1,0,0:0:0:0:
10,13,116686,1,0,0:0:0:0:
331,77,116849,1,0,0:0:0:0:
493,332,117012,6,0,B|486:295|486:295|459:269,1,75.0000028610231,0|0,0:0|0:0,0:0:0:0:
148,380,117175,1,0,0:0:0:0:
165,384,117501,5,2,0:3:0:0:
70,144,117664,1,2,3:2:0:0:
62,197,117745,1,2,3:2:0:0:
53,251,117827,1,2,3:2:0:0:
201,12,117990,5,2,1:2:0:0:
214,88,118072,1,2,1:2:0:0:
229,168,118153,1,2,1:2:0:0:
246,250,118235,1,2,1:2:0:0:
263,332,118316,6,0,B|350:354|324:293|411:315|411:315|376:247|376:247|405:224|405:183,1,300,4|0,0:1|0:0,0:0:0:0:
366,110,118642,1,2,0:0:0:0:
485,267,118805,1,2,0:0:0:0:
426,37,118968,2,0,B|325:-16|264:79|264:79|226:28|211:126|143:100,1,300,8|0,0:0|0:0,0:0:0:0:
83,62,119294,1,2,0:0:0:0:
250,164,119457,1,0,0:0:0:0:
47,326,119620,5,4,0:3:0:0:
123,221,119783,1,2,0:0:0:0:
139,374,119947,1,8,0:3:0:0:
29,174,120110,1,2,0:3:0:0:
234,300,120273,6,0,B|319:280|282:178|217:157|233:94|233:94|254:84|254:84|278:30,1,300,8|0,0:0|0:0,0:0:0:0:
423,104,120599,2,0,B|435:152|398:174|348:171|322:123,1,150,4|0,0:3|0:0,0:0:0:0:
457,0,120925,1,4,0:0:0:0:
52,211,121251,5,2,0:0:0:0:
223,237,121414,1,2,0:0:0:0:
34,344,121577,2,0,B|18:255|78:241|124:180|57:120|57:120|99:86|98:40,1,300,8|0,0:0|0:0,0:0:0:0:
42,9,121903,1,2,0:0:0:0:
173,140,122066,1,0,0:0:0:0:
405,38,122229,5,0,0:0:0:0:
443,218,122392,1,8,0:0:0:0:
485,138,122555,1,2,1:2:0:0:
269,212,122718,1,0,0:0:0:0:
332,137,122881,5,8,0:0:0:0:
316,356,123044,1,0,1:0:0:0:
161,272,123207,1,2,1:2:0:0:
129,26,123370,1,2,1:2:0:0:
76,340,123533,1,2,0:3:0:0:
413,74,123860,5,2,0:0:0:0:
261,136,124023,1,2,0:0:0:0:
482,239,124186,2,0,B|504:212|476:154|379:153|352:253|343:311|233:266,1,300,8|0,0:0|0:0,0:0:0:0:
182,231,124512,1,2,0:0:0:0:
63,345,124675,1,0,0:0:0:0:
11,117,124838,5,4,0:3:0:0:
142,74,125001,1,2,0:0:0:0:
264,177,125164,1,8,0:3:0:0:
95,152,125327,1,2,0:3:0:0:
272,13,125490,6,0,B|355:16|378:136|288:126|302:186|302:186|344:206|346:256,1,300,8|0,0:0|0:0,0:0:0:0:
305,319,125816,1,2,0:0:0:0:
474,366,125979,1,0,0:0:0:0:
447,134,126142,5,4,0:0:0:0:
163,319,126305,1,10,0:0:0:0:
221,202,126468,1,0,0:0:0:0:
421,271,126631,1,2,0:3:0:0:
456,39,126794,5,8,0:0:0:0:
430,22,126876,1,8,0:0:0:0:
400,24,126957,1,2,0:0:0:0:
377,43,127039,1,2,0:0:0:0:
369,71,127120,1,2,2:3:0:0:
333,119,127202,1,2,2:3:0:0:
274,132,127283,1,2,2:3:0:0:
218,107,127365,1,2,2:3:0:0:
195,51,127446,5,4,2:3:0:0:
304,233,127610,1,0,1:0:0:0:
29,40,127773,5,8,0:0:0:0:
63,169,127936,1,2,0:3:0:0:
112,101,128099,1,2,0:3:0:0:
288,245,128262,5,8,0:0:0:0:
252,380,128425,1,2,0:3:0:0:
203,312,128588,1,2,0:3:0:0:
266,54,128751,6,0,B|347:29|348:89|418:75|418:75|443:49|443:49|438:113|466:160,1,300,4|0,0:1|0:0,0:0:0:0:
442,248,129077,1,2,0:0:0:0:
301,131,129240,1,2,0:0:0:0:
100,335,129403,6,0,B|156:390|279:337|222:240|129:213|198:132,1,300,8|0,0:0|0:0,0:0:0:0:
126,84,129729,1,2,0:0:0:0:
282,219,129892,1,0,0:0:0:0:
489,24,130055,5,4,0:0:0:0:
349,60,130218,1,0,0:0:0:0:
479,160,130381,1,2,3:2:0:0:
487,142,130463,1,2,3:2:0:0:
485,123,130544,1,2,2:3:0:0:
173,251,130707,6,0,B|177:162|275:163|328:208|328:208|337:178|337:178|371:199|436:214,1,300,8|0,0:0|0:0,0:0:0:0:
481,295,131033,2,0,B|484:283|480:269|471:246,1,50,4|0,0:3|0:0,0:0:0:0:
365,290,131197,2,0,B|361:301|365:315|374:338,1,50,2|0,0:3|0:0,0:0:0:0:
399,116,131360,1,4,0:0:0:0:
87,361,131686,5,2,0:0:0:0:
216,331,131849,1,2,0:0:0:0:
28,262,132012,2,0,B|-6:209|14:111|96:125|96:125|80:89|77:50|134:20,1,300,8|0,0:0|0:0,0:0:0:0:
189,88,132338,1,2,0:0:0:0:
330,19,132501,1,0,0:0:0:0:
408,282,132664,5,0,0:0:0:0:
426,92,132827,1,8,0:0:0:0:
500,173,132990,1,2,1:2:0:0:
282,275,133153,1,0,0:0:0:0:
286,79,133316,5,8,0:0:0:0:
346,382,133479,1,0,1:0:0:0:
389,198,133642,1,2,1:2:0:0:
65,112,133805,1,2,1:2:0:0:
246,0,133968,1,2,0:3:0:0:
149,354,134295,5,2,0:0:0:0:
201,210,134458,1,2,0:0:0:0:
332,361,134620,2,0,B|276:272|162:292|114:343|114:343|87:314|42:313,1,300,8|0,0:0|0:0,0:0:0:0:
14,246,134947,1,2,0:0:0:0:
135,119,135110,1,0,0:0:0:0:
308,279,135273,5,4,0:3:0:0:
284,90,135436,1,2,0:0:0:0:
207,192,135599,1,8,0:3:0:0:
196,318,135762,1,2,0:3:0:0:
407,191,135925,6,0,B|379:79|296:121|247:105|247:105|222:50|271:5,1,300,8|0,0:0|0:0,0:0:0:0:
302,187,136251,1,2,0:0:0:0:
345,368,136414,1,0,0:0:0:0:
472,86,136577,5,4,0:0:0:0:
311,289,136740,1,8,0:0:0:0:
275,166,136903,1,0,0:0:0:0:
440,372,137066,1,2,0:3:0:0:
345,92,137229,5,2,3:2:0:0:
268,63,137311,1,2,3:2:0:0:
197,86,137392,1,2,3:2:0:0:
169,143,137474,1,2,3:2:0:0:
124,170,137555,1,2,3:2:0:0:
81,169,137637,1,2,3:2:0:0:
52,145,137718,1,2,3:2:0:0:
44,112,137800,1,2,3:2:0:0:
46,102,137881,5,2,0:0:0:0:
48,92,137963,1,2,0:0:0:0:
50,83,138044,2,0,P|59:65|45:33,1,50,2|0,0:0|0:0,0:0:0:0:
177,45,138207,5,2,3:2:0:0:
181,55,138289,1,2,3:2:0:0:
197,47,138370,1,2,3:2:0:0:
201,57,138452,1,2,3:2:0:0:
221,60,138533,6,0,P|225:92|204:126,2,66.6666666666667,8|0|0,0:0|0:0|0:0,0:0:0:0:
266,176,138860,5,0,0:0:0:0:
345,191,138968,1,0,0:0:0:0:
420,161,139077,1,0,0:0:0:0:
413,143,139186,5,4,0:0:0:0:
363,294,139349,1,2,2:0:0:0:
319,77,139512,2,0,B|291:40|291:40|114:55,1,225.000008583069,8|0,0:0|0:0,0:0:0:0:
100,70,139838,2,0,P|118:115|117:238,1,150.000005722046,0|0,1:0|0:0,0:0:0:0:
170,319,140164,1,8,0:0:0:0:
349,162,140327,2,0,B|289:69|289:69|265:279,1,300.000011444092,2|0,1:2|0:0,0:0:0:0:
51,281,140816,2,0,B|75:241|75:241|189:227,1,150.000005722046,8|0,0:2|0:0,0:0:0:0:
246,336,141142,1,2,0:0:0:0:
355,114,141305,1,2,0:0:0:0:
438,201,141468,2,0,L|450:353,1,150.000005722046,8|0,0:0|0:0,0:0:0:0:
204,39,141794,5,0,1:0:0:0:
151,210,141957,1,2,0:0:0:0:
44,103,142120,1,8,0:0:0:0:
137,114,142283,1,2,0:3:0:0:
282,244,142447,2,0,B|104:262|104:262|82:307,1,225.000008583069,0|0,1:0|0:0,0:0:0:0:
144,363,142773,1,8,0:0:0:0:
280,77,142936,1,2,0:3:0:0:
352,141,143099,5,2,0:0:0:0:
367,227,143262,1,2,0:0:0:0:
440,71,143425,2,0,B|482:104|482:104|512:219,1,150.000005722046,8|0,0:0|0:0,0:0:0:0:
263,331,143751,1,2,2:0:0:0:
282,334,143832,1,2,2:0:0:0:
301,338,143914,1,2,2:0:0:0:
127,197,144077,1,8,3:2:0:0:
201,180,144158,1,8,3:2:0:0:
277,163,144240,1,8,3:2:0:0:
9,286,144403,5,4,0:0:0:0:
55,144,144566,1,2,0:0:0:0:
117,373,144729,1,8,0:0:0:0:
222,258,144892,1,2,0:3:0:0:
410,373,145055,2,0,B|452:350|452:350|423:167,1,225.000008583069,0|0,1:0|0:0,0:0:0:0:
361,120,145381,2,0,B|348:110|348:110|348:41,1,75.0000028610231,8|0,0:0|0:0,0:0:0:0:
283,177,145544,2,0,P|219:227|157:194,1,150.000005722046,2|2,0:3|0:0,0:0:0:0:
86,277,145870,1,2,0:0:0:0:
0,97,146033,6,0,B|16:59|16:59|128:46,1,150.000005722046,8|0,0:0|0:0,0:0:0:0:
178,185,146360,1,2,0:0:0:0:
76,173,146523,1,2,0:0:0:0:
168,291,146686,1,8,0:0:0:0:
323,261,146849,1,2,0:3:0:0:
354,3,147012,5,6,3:3:0:0:
371,79,147175,1,2,0:3:0:0:
450,252,147338,2,0,B|426:232|426:232|468:105,1,150.000005722046,8|0,0:0|0:0,0:0:0:0:
366,160,147664,1,2,0:3:0:0:
184,11,147827,2,0,B|160:31|160:31|202:158,1,150.000005722046,8|0,0:0|0:0,0:0:0:0:
256,55,148153,1,2,0:3:0:0:
62,195,148316,5,8,0:0:0:0:
236,344,148479,1,2,0:0:0:0:
243,190,148642,1,4,0:3:0:0:
208,260,148805,1,2,0:3:0:0:
321,352,148968,1,8,0:0:0:0:
197,95,149131,1,2,0:0:0:0:
327,37,149294,1,4,0:3:0:0:
292,107,149457,1,2,0:3:0:0:
154,366,149620,5,4,0:0:0:0:
42,284,149783,1,2,0:0:0:0:
253,232,149946,2,0,B|229:182|229:182|54:174,1,225.000008583069,8|0,0:0|0:0,0:0:0:0:
0,116,150273,2,0,P|14:66|88:97,1,150.000005722046,0|0,1:0|0:0,0:0:0:0:
229,236,150599,2,0,B|237:249|237:249|228:327,1,75.0000028610231,8|0,0:0|0:0,0:0:0:0:
325,175,150762,2,0,B|278:7|278:7|222:67|222:67|237:128,1,300.000011444092,2|2,1:2|0:3,0:0:0:0:
314,301,151251,2,0,B|336:259|336:259|457:247,1,150.000005722046,8|0,0:0|0:0,0:0:0:0:
277,373,151577,1,2,0:0:0:0:
202,89,151740,1,2,0:0:0:0:
97,216,151903,2,0,L|254:225,1,150.000005722046,8|0,0:0|0:0,0:0:0:0:
417,17,152229,5,2,0:0:0:0:
478,126,152392,1,2,0:0:0:0:
285,16,152555,1,8,0:0:0:0:
341,199,152718,1,2,0:3:0:0:
189,376,152881,2,0,B|211:279|321:280|324:347|392:314,1,225.000008583069,0|0,1:0|0:0,0:0:0:0:
502,233,153207,2,0,B|449:226|449:226|425:247,1,75.0000028610231,8|0,0:0|0:0,0:0:0:0:
276,384,153370,2,0,B|254:211|254:211|183:177,1,225.000008583069,2|0,1:2|0:0,0:0:0:0:
291,112,153696,1,2,0:0:0:0:
98,274,153860,1,8,0:0:0:0:
153,36,154023,1,2,0:3:0:0:
39,135,154185,5,2,0:2:0:0:
40,121,154267,1,2,0:2:0:0:
41,107,154348,1,2,0:2:0:0:
43,93,154430,1,2,0:2:0:0:
44,79,154511,1,8,3:2:0:0:
63,151,154593,1,8,3:2:0:0:
82,223,154675,1,8,3:2:0:0:
101,294,154756,1,8,3:2:0:0:
121,366,154838,5,4,0:0:0:0:
176,236,155001,1,2,0:0:0:0:
330,384,155164,1,8,0:0:0:0:
398,215,155327,1,2,0:3:0:0:
241,51,155490,2,0,B|274:15|274:15|403:33,1,150.000005722046,0|0,1:0|0:0,0:0:0:0:
494,219,155816,2,0,B|488:169|488:169|465:142,1,75.0000028610231,8|0,0:0|0:0,0:0:0:0:
313,108,155979,2,0,B|279:265|416:213|435:324|407:372,1,300.000011444092,2|0,1:2|0:0,0:0:0:0:
30,185,156468,6,0,B|52:143|52:143|173:131,1,150.000005722046,8|0,0:0|0:0,0:0:0:0:
225,311,156794,1,2,0:0:0:0:
254,190,156957,1,2,0:0:0:0:
108,357,157120,1,8,0:0:0:0:
38,89,157283,1,2,0:3:0:0:
314,272,157466,6,0,P|409:248|399:177,1,150.000005722046,4|0,0:0|0:0,0:0:0:0:
361,126,157710,1,2,2:3:0:0:
358,149,157792,1,2,2:3:0:0:
220,301,157955,2,0,B|211:233|211:233|222:209|222:209|203:85,1,150.000005722046,0|0,1:0|0:0,0:0:0:0:
258,61,158199,1,2,2:3:0:0:
261,84,158281,1,2,2:3:0:0:
37,280,158444,2,0,P|13:250|96:235,1,150.000005722046,8|0,0:0|0:0,0:0:0:0:
278,366,158770,5,4,0:3:0:0:
363,160,158933,1,2,3:2:0:0:
370,213,159014,1,2,3:2:0:0:
379,265,159096,1,2,3:2:0:0:
173,359,159259,1,2,0:3:0:0:
38,124,159422,5,2,1:2:0:0:
120,111,159504,1,2,1:2:0:0:
201,99,159585,1,2,1:2:0:0:
283,87,159667,1,2,1:2:0:0:
365,75,159748,1,2,1:2:0:0:
366,67,159830,1,2,0:0:0:0:
367,59,159911,1,2,0:0:0:0:
368,51,159993,1,2,0:0:0:0:
369,43,160074,1,4,0:0:0:0:
74,352,160400,5,2,0:0:0:0:
39,153,160563,1,2,0:0:0:0:
172,307,160726,2,0,P|184:329|208:337,1,50,2|0,0:3|0:3,0:0:0:0:
327,210,161052,2,0,P|350:219|373:209,1,50,2|0,0:3|0:3,0:0:0:0:
383,36,161379,2,0,P|406:28|418:5,1,50,2|0,0:3|0:3,0:0:0:0:
224,163,161704,5,2,0:0:0:0:
306,361,161867,1,2,0:0:0:0:
102,312,162030,2,0,P|126:299|146:325,1,50,2|0,0:3|0:3,0:0:0:0:
188,116,162357,2,0,P|214:121|213:154,1,50,2|0,0:3|0:3,0:0:0:0:
379,21,162683,2,0,P|395:42|373:66,1,50,2|0,0:3|0:3,0:0:0:0:
372,371,163008,5,2,0:0:0:0:
325,155,163171,1,2,0:0:0:0:
242,311,163334,1,2,0:3:0:0:
75,101,163498,5,2,3:2:0:0:
62,97,163579,1,2,3:2:0:0:
48,93,163661,1,2,2:3:0:0:
420,29,163972,5,2,2:3:0:0:
421,36,164053,1,2,2:3:0:0:
422,44,164135,2,0,L|429:80,1,34.9999989318848,2|0,3:2|0:0,0:0:0:0:
266,240,164461,1,2,2:3:0:0:
261,245,164542,1,2,2:3:0:0:
256,251,164624,1,8,0:0:0:0:
267,193,164705,1,2,3:2:0:0:
274,132,164787,1,2,3:2:0:0:
125,329,164950,5,2,2:3:0:0:
132,330,165031,1,2,2:3:0:0:
140,331,165113,2,0,L|178:329,1,34.9999989318848,2|0,3:2|0:0,0:0:0:0:
419,270,165439,5,2,2:3:0:0:
412,268,165520,1,2,2:3:0:0:
406,265,165602,1,2,3:2:0:0:
320,349,165765,1,0,0:0:0:0:
268,123,165928,1,8,0:0:0:0:
263,182,166009,1,2,3:2:0:0:
260,243,166091,1,2,3:2:0:0:
389,69,166254,1,2,0:0:0:0:
481,320,166417,1,8,0:0:0:0:
32,262,166743,5,2,0:3:0:0:
242,342,166906,1,2,0:3:0:0:
66,382,167069,1,2,0:3:0:0:
98,138,167233,1,2,3:2:0:0:
111,195,167315,1,2,3:2:0:0:
124,254,167396,1,2,3:2:0:0:
21,182,167559,1,2,0:3:0:0:
221,9,167722,1,2,3:2:0:0:
228,11,167803,1,2,3:2:0:0:
235,14,167885,1,2,2:3:0:0:
15,68,168048,1,2,0:0:0:0:
415,350,168374,5,2,0:0:0:0:
340,131,168537,1,8,0:0:0:0:
333,192,168618,1,2,3:2:0:0:
327,253,168700,1,2,3:2:0:0:
271,10,168863,1,8,0:0:0:0:
449,263,169026,1,8,0:0:0:0:
199,354,169189,5,2,2:3:0:0:
198,347,169271,1,2,2:3:0:0:
196,340,169352,2,0,L|191:297,1,34.9999989318848,2|0,3:2|0:0,0:0:0:0:
89,112,169678,1,2,3:2:0:0:
88,120,169760,1,2,3:2:0:0:
86,128,169841,2,0,L|76:224,1,75.0000028610231,8|0,3:2|0:0,0:0:0:0:
15,58,170004,1,2,0:0:0:0:
224,15,170167,5,2,2:3:0:0:
232,17,170249,1,2,2:3:0:0:
240,19,170330,2,0,L|283:34,1,34.9999989318848,0|0,0:0|0:0,0:0:0:0:
165,204,170657,1,2,2:3:0:0:
174,203,170739,1,2,2:3:0:0:
183,201,170820,1,2,2:3:0:0:
252,299,170983,1,2,0:3:0:0:
346,82,171146,1,8,0:0:0:0:
420,194,171309,5,2,0:0:0:0:
157,89,171472,1,8,0:0:0:0:
389,323,171635,1,8,0:0:0:0:
266,270,171798,1,2,0:0:0:0:
93,362,171961,6,0,B|78:337|78:337|87:289,1,75.0000028610231,0|0,1:1|0:0,0:0:0:0:
177,199,172124,1,2,0:3:0:0:
15,114,172287,1,2,0:0:0:0:
270,41,172450,1,8,0:0:0:0:
210,29,172532,1,2,2:3:0:0:
152,15,172613,1,2,2:3:0:0:
327,152,172776,1,2,0:3:0:0:
18,213,172939,1,2,0:3:0:0:
387,366,173102,6,0,B|385:323|385:323|365:275,1,75.0000028610231,4|0,0:0|0:0,0:0:0:0:
140,144,173265,1,2,0:3:0:0:
385,15,173591,5,2,0:3:0:0:
220,295,173754,1,8,0:0:0:0:
140,144,173918,1,2,0:3:0:0:
131,146,173999,1,2,0:3:0:0:
120,148,174080,1,0,1:0:0:0:
200,154,174162,1,0,1:0:0:0:
280,161,174243,1,0,1:0:0:0:
360,169,174325,1,0,1:0:0:0:
440,180,174407,5,2,2:3:0:0:
432,181,174489,1,2,2:3:0:0:
424,182,174570,2,0,L|377:191,1,34.9999989318848,2|0,3:2|0:0,0:0:0:0:
188,352,174895,5,2,2:3:0:0:
130,89,175058,1,8,0:0:0:0:
120,148,175140,1,2,3:2:0:0:
109,207,175221,1,2,3:2:0:0:
277,12,175385,5,2,2:3:0:0:
278,20,175466,1,2,2:3:0:0:
279,28,175548,2,0,L|289:72,1,34.9999989318848,2|0,3:2|0:0,0:0:0:0:
426,282,175874,5,2,2:3:0:0:
428,275,175956,1,2,2:3:0:0:
429,268,176037,1,2,3:2:0:0:
353,174,176201,1,0,0:0:0:0:
149,296,176364,1,8,0:0:0:0:
205,280,176445,1,2,3:2:0:0:
262,263,176527,1,2,3:2:0:0:
60,194,176690,1,2,0:0:0:0:
260,8,176853,1,8,0:0:0:0:
345,363,177179,5,2,0:3:0:0:
292,172,177342,1,2,0:3:0:0:
130,373,177505,1,2,0:3:0:0:
417,266,177668,2,0,B|399:245|399:245|325:232,1,75.0000028610231,8|0,0:0|0:0,0:0:0:0:
136,274,177831,1,2,0:3:0:0:
283,298,177994,1,2,0:3:0:0:
199,53,178157,1,2,2:3:0:0:
190,54,178238,1,2,2:3:0:0:
181,56,178320,1,2,3:2:0:0:
455,12,178483,1,2,0:3:0:0:
57,177,178809,5,2,0:3:0:0:
142,382,178972,1,2,3:2:0:0:
150,326,179053,1,2,3:2:0:0:
156,266,179135,1,2,2:3:0:0:
251,32,179298,1,2,1:2:0:0:
260,109,179379,1,2,1:2:0:0:
269,187,179461,1,2,1:2:0:0:
278,265,179542,1,2,1:2:0:0:
288,342,179624,5,2,2:3:0:0:
286,335,179706,1,2,2:3:0:0:
282,329,179787,2,0,L|289:288,1,34.9999989318848,2|0,3:2|0:0,0:0:0:0:
402,108,180113,1,2,3:2:0:0:
400,116,180195,1,2,3:2:0:0:
399,124,180277,2,0,L|416:219,1,75.0000028610231,8|0,3:2|0:0,0:0:0:0:
308,76,180439,1,2,0:0:0:0:
193,245,180602,1,2,2:3:0:0:
196,253,180684,1,2,2:3:0:0:
198,261,180766,1,0,3:2:0:0:
286,175,180929,1,0,0:0:0:0:
149,18,181091,5,2,2:3:0:0:
147,25,181173,1,2,2:3:0:0:
145,31,181254,1,2,2:3:0:0:
25,57,181418,1,2,0:3:0:0:
259,182,181581,1,8,0:0:0:0:
15,243,181744,1,2,0:0:0:0:
272,300,181907,1,8,0:0:0:0:
24,149,182069,1,8,0:0:0:0:
103,267,182232,1,2,0:0:0:0:
175,35,182396,6,0,B|192:14|192:14|240:10,1,75.0000028610231,0|0,1:1|0:0,0:0:0:0:
449,96,182559,1,2,0:3:0:0:
229,195,182722,1,2,0:0:0:0:
435,255,182885,1,8,0:0:0:0:
377,268,182966,1,2,2:3:0:0:
317,279,183048,1,2,2:3:0:0:
225,105,183211,1,2,0:3:0:0:
133,358,183374,1,2,0:3:0:0:
9,29,183537,6,0,B|16:55|16:55|84:73,1,75.0000028610231,4|0,0:0|0:0,0:0:0:0:
388,1,183700,1,2,0:3:0:0:
321,354,184026,5,0,0:3:0:0:
130,159,184189,1,8,0:0:0:0:
200,334,184352,1,2,3:2:0:0:
203,343,184433,1,2,3:2:0:0:
208,351,184515,5,2,3:2:0:0:
228,271,184597,1,2,3:2:0:0:
243,191,184678,1,2,3:2:0:0:
260,109,184760,1,2,3:2:0:0:
277,27,184841,5,2,0:2:0:0:
283,45,184923,1,2,0:2:0:0:
294,61,185005,1,2,0:2:0:0:
310,72,185086,1,2,0:2:0:0:
329,77,185168,1,2,0:2:0:0:
348,72,185249,1,2,0:2:0:0:
364,60,185331,5,10,3:2:0:0:
343,88,185412,1,2,3:2:0:0:
332,122,185494,1,2,3:2:0:0:
337,157,185576,1,2,3:2:0:0:
358,187,185657,1,2,1:2:0:0:
376,222,185739,1,2,3:2:0:0:
376,262,185820,1,4,3:3:0:0:
356,302,185902,1,2,3:2:0:0:
311,324,185983,1,2,3:2:0:0:
262,313,186065,1,2,3:2:0:0:
227,277,186146,1,2,3:2:0:0:
179,259,186228,1,2,3:2:0:0:
129,264,186309,5,10,2:3:0:0:
142,231,186391,1,2,2:3:0:0:
138,196,186472,1,2,2:3:0:0:
121,164,186554,1,2,2:3:0:0:
93,143,186635,1,2,2:3:0:0:
68,113,186717,1,2,2:3:0:0:
67,75,186798,1,6,2:3:0:0:
92,40,186880,1,2,2:3:0:0:
135,28,186961,1,2,2:3:0:0:
178,42,187043,1,2,2:3:0:0:
222,45,187124,1,2,1:2:0:0:
266,36,187206,1,2,2:3:0:0:
304,12,187287,5,10,0:0:0:0:
304,27,187369,1,2,0:0:0:0:
307,41,187451,1,2,0:0:0:0:
312,54,187532,1,2,0:0:0:0:
326,74,187614,1,2,1:2:0:0:
337,95,187695,1,2,0:0:0:0:
344,118,187777,1,4,0:3:0:0:
346,142,187858,1,2,3:0:0:0:
343,167,187940,1,2,3:0:0:0:
334,190,188021,1,2,3:0:0:0:
317,208,188103,1,2,3:0:0:0:
295,220,188184,1,2,3:0:0:0:
270,225,188266,5,10,2:3:0:0:
247,198,188347,1,2,2:3:0:0:
212,190,188429,1,2,2:3:0:0:
178,199,188510,1,2,2:3:0:0:
153,223,188592,1,2,2:3:0:0:
123,242,188673,1,2,2:3:0:0:
83,251,188755,1,6,2:3:0:0:
43,236,188836,1,2,2:3:0:0:
19,196,188918,1,2,2:3:0:0:
26,150,188999,1,2,2:3:0:0:
47,103,189081,1,2,1:2:0:0:
48,48,189162,1,2,2:3:0:0:
15,0,189244,6,0,B|12:47|12:47|33:96,1,85.0000016212464,8|0,0:0|0:0,0:0:0:0:
152,0,189407,1,2,0:3:0:0:
21,269,189570,2,0,B|49:244|49:244|95:232,1,85.0000016212464,8|0,0:0|0:0,0:0:0:0:
232,335,189733,1,2,0:3:0:0:
173,136,189896,1,8,0:0:0:0:
408,20,190059,5,2,2:3:0:0:
410,28,190141,1,2,2:3:0:0:
413,37,190222,2,0,L|417:81,1,34.9999989318848,2|0,3:2|0:0,0:0:0:0:
263,249,190548,1,2,3:2:0:0:
275,175,190630,1,2,3:2:0:0:
287,101,190711,1,2,2:3:0:0:
366,227,190874,1,2,0:3:0:0:
62,293,191037,1,2,3:0:0:0:
54,295,191119,1,2,3:0:0:0:
46,298,191201,1,2,3:2:0:0:
97,221,191364,1,2,0:0:0:0:
305,348,191527,5,2,2:3:0:0:
307,340,191608,1,2,2:3:0:0:
309,332,191690,1,2,3:2:0:0:
274,211,191853,1,2,0:0:0:0:
445,26,192016,1,8,0:0:0:0:
419,170,192179,1,2,0:3:0:0:
95,38,192342,1,8,0:0:0:0:
404,185,192505,1,8,0:0:0:0:
335,76,192668,1,2,0:0:0:0:
215,351,192831,6,0,B|196:332|196:332|190:270,1,75.0000028610231,0|0,1:1|0:0,0:0:0:0:
225,74,192994,1,2,0:3:0:0:
106,205,193157,1,2,0:0:0:0:
376,329,193320,1,2,3:2:0:0:
302,344,193402,1,2,3:2:0:0:
229,359,193483,1,2,2:3:0:0:
422,234,193646,1,8,0:0:0:0:
187,154,193809,1,8,0:0:0:0:
496,80,193972,1,4,0:1:0:0:
138,307,194135,1,2,0:3:0:0:
358,5,194461,5,2,0:3:0:0:
428,193,194624,1,2,2:3:0:0:
426,201,194706,1,2,2:3:0:0:
424,210,194787,1,2,3:2:0:0:
111,149,194951,1,2,1:2:0:0:
190,134,195032,1,2,1:2:0:0:
270,120,195114,1,2,1:2:0:0:
349,106,195195,1,2,1:2:0:0:
430,92,195277,5,6,0:0:0:0:
411,98,195358,1,2,0:0:0:0:
395,111,195440,1,2,0:0:0:0:
385,128,195521,1,2,0:0:0:0:
380,147,195603,1,2,0:0:0:0:
380,166,195684,1,2,0:0:0:0:
387,184,195766,1,0,1:0:0:0:
390,210,195847,1,2,0:0:0:0:
383,239,195929,5,10,3:2:0:0:
360,263,196010,1,2,3:2:0:0:
325,270,196092,1,2,3:2:0:0:
292,259,196173,1,2,3:2:0:0:
273,229,196255,1,2,1:2:0:0:
239,250,196336,1,2,3:2:0:0:
199,256,196418,1,2,3:2:0:0:
162,240,196499,1,2,3:2:0:0:
139,206,196581,1,2,3:2:0:0:
137,166,196662,1,2,3:2:0:0:
152,128,196744,1,2,3:2:0:0:
155,87,196826,1,2,3:2:0:0:
147,48,196907,1,0,1:2:0:0:
123,15,196989,1,2,3:2:0:0:
84,4,197070,1,2,3:2:0:0:
44,8,197152,1,2,3:2:0:0:
13,33,197233,5,10,3:2:0:0:
33,73,197315,1,2,3:2:0:0:
73,92,197396,1,2,3:2:0:0:
118,87,197478,1,2,3:2:0:0:
158,68,197559,1,2,3:2:0:0:
207,59,197641,1,2,3:2:0:0:
255,70,197722,1,2,3:2:0:0:
290,105,197804,1,2,3:2:0:0:
291,154,197885,5,4,0:2:0:0:
286,168,197967,1,2,0:0:0:0:
282,182,198048,1,2,0:0:0:0:
268,203,198130,1,2,0:0:0:0:
248,217,198211,1,2,0:0:0:0:
223,223,198293,1,2,0:0:0:0:
198,219,198374,1,2,0:0:0:0:
176,206,198456,1,2,0:0:0:0:
162,185,198537,5,10,3:2:0:0:
133,205,198619,1,2,3:2:0:0:
121,238,198701,1,2,3:2:0:0:
120,279,198782,1,2,3:2:0:0:
139,315,198864,1,2,1:2:0:0:
176,333,198945,1,2,3:2:0:0:
221,335,199027,1,2,3:2:0:0:
262,316,199108,1,2,3:2:0:0:
290,275,199190,5,2,2:3:0:0:
269,229,199271,1,2,2:3:0:0:
269,178,199353,1,2,2:3:0:0:
295,136,199434,1,2,2:3:0:0:
341,117,199516,1,2,1:3:0:0:
340,146,199597,1,2,2:0:0:0:
348,174,199679,1,0,1:0:0:0:
365,198,199760,1,2,2:0:0:0:
389,215,199842,5,8,3:2:0:0:
420,170,199923,1,0,3:2:0:0:
419,114,200005,1,0,3:2:0:0:
381,74,200086,1,0,3:2:0:0:
326,67,200168,1,0,3:2:0:0:
275,88,200249,1,0,3:2:0:0:
220,96,200331,1,0,3:2:0:0:
168,77,200412,1,0,3:2:0:0:
159,21,200494,5,4,3:2:0:0:
182,40,200576,1,0,3:2:0:0:
194,67,200657,1,0,3:2:0:0:
195,97,200739,1,0,3:2:0:0:
185,125,200820,1,0,3:2:0:0:
177,148,200902,1,0,3:2:0:0:
177,172,200983,1,0,1:2:0:0:
181,196,201065,1,0,3:2:0:0:
193,217,201146,5,2,3:2:0:0:
216,191,201228,1,2,3:2:0:0:
222,156,201309,1,2,1:2:0:0:
215,121,201391,1,2,3:2:0:0:
187,100,201472,1,2,1:2:0:0:
146,94,201554,1,2,3:2:0:0:
106,112,201635,1,2,3:2:0:0:
84,148,201717,1,2,3:2:0:0:
85,195,201798,5,2,0:3:0:0:
96,217,201880,1,2,0:3:0:0:
99,241,201961,1,2,0:3:0:0:
95,265,202043,1,2,0:3:0:0:
84,287,202124,1,2,0:3:0:0:
76,321,202206,1,2,0:3:0:0:
86,354,202287,1,0,1:2:0:0:
118,380,202369,1,2,0:3:0:0:
164,378,202451,5,6,3:2:0:0:
173,334,202532,1,2,3:2:0:0:
201,299,202614,1,2,3:2:0:0:
242,281,202695,1,2,3:2:0:0:
287,281,202777,1,2,3:2:0:0:
333,262,202858,1,2,3:2:0:0:
363,217,202940,1,2,1:2:0:0:
359,159,203021,1,2,3:2:0:0:
315,106,203103,5,2,0:0:0:0:
303,127,203184,1,2,0:0:0:0:
300,151,203266,1,2,0:0:0:0:
307,174,203347,1,2,0:0:0:0:
323,192,203429,5,2,1:2:0:0:
344,268,203510,1,2,1:2:0:0:
304,338,203592,1,2,1:2:0:0:
226,355,203673,1,2,1:2:0:0:
156,314,203755,5,2,3:2:0:0:
181,277,203836,1,2,3:2:0:0:
179,231,203918,1,2,3:2:0:0:
155,193,203999,1,2,3:2:0:0:
122,161,204081,1,2,3:2:0:0:
105,111,204162,1,2,3:2:0:0:
115,53,204244,1,2,3:2:0:0:
165,9,204326,1,2,3:2:0:0:
240,3,204407,5,2,2:3:0:0:
253,89,204489,1,2,2:3:0:0:
266,175,204570,2,0,L|275:92,3,50,2|0|0|0,2:3|0:0|0:0|0:0,0:0:0:0:
337,45,204896,5,2,0:3:0:0:
364,31,204978,1,2,0:3:0:0:
398,30,205059,1,2,0:3:0:0:
429,49,205141,1,2,0:3:0:0:
450,85,205222,1,2,0:3:0:0:
441,132,205304,1,2,0:3:0:0:
402,170,205385,1,2,2:3:0:0:
358,218,205467,1,2,2:3:0:0:
340,290,205548,1,2,2:3:0:0:
395,353,205630,1,2,2:3:0:0:
481,335,205711,1,6,2:3:0:0:
104,126,206037,6,0,L|98:96,1,29.9999990844727,2|0,0:3|0:0,0:0:0:0:
166,257,206364,1,2,0:0:0:0:
186,179,206527,1,2,0:0:0:0:
91,121,206719,2,0,L|85:91,1,29.9999990844727,2|0,0:3|0:0,0:0:0:0:
356,262,207045,5,2,0:0:0:0:
294,73,207348,2,0,L|300:43,1,29.9999990844727,2|0,0:3|0:0,0:0:0:0:
387,164,207734,5,2,0:0:0:0:
282,63,207978,2,0,L|288:33,1,29.9999990844727,2|0,0:3|0:0,0:0:0:0:
224,327,208353,5,2,0:0:0:0:
419,258,208644,2,0,L|458:262,1,29.9999990844727,2|0,0:3|0:0,0:0:0:0:
289,205,209035,5,2,0:0:0:0:
424,272,209298,2,0,L|463:276,1,29.9999990844727,2|0,0:3|0:0,0:0:0:0:
258,93,209653,6,0,B|210:77|142:91|138:174|53:155|14:116|30:48|30:48|55:134|140:141,1,449.99998626709,2|0,0:0|0:0,0:0:0:0:
