osu file format v14

[General]
AudioFilename: audio.mp3
AudioLeadIn: 0
PreviewTime: 75218
Countdown: 0
SampleSet: Soft
StackLeniency: 0.5
Mode: 0
LetterboxInBreaks: 0
WidescreenStoryboard: 1

[Editor]
Bookmarks: 16248,24957,27860,43343,58827,58888,58948,60521,60581,60642,61005,61065,61126,62819,62880,62940,64634,64694,64755,64815,64876,65118,65178,65239,65299,65360,65601,65662,65722,65783,65843,66085,66146,66206,66267,66327,66569,66630,66690,68747,68807,68868,70440,70501,70561,70622,70682,72739,72799,72860,72920,72980,73041,73101,73162,73222,73283,73343,73404,73464,73525,73585,73646,73706,73767,73827,73888,73948,75279,83021,91729,94632,110115,125599,141083,156567,172051,172535,187535,188018,196727,199630
DistanceSpacing: 1
BeatDivisor: 4
GridSize: 32
TimelineZoom: 1.7

[Metadata]
Title:Dressed as Goblins
TitleUnicode:Dressed as Goblins
Artist:Nekrogoblikon
ArtistUnicode:Nekrogoblikon
Creator:Dada
Version:Normal
Source:
Tags:welcome to bonkers featured artist fa rock melodic death metal english ioexception deadcode ceo of osu ceo_of_osu nao tomori naotoshi lmt
BeatmapID:2602297
BeatmapSetID:1233657

[Difficulty]
HPDrainRate:4
CircleSize:3
OverallDifficulty:5
ApproachRate:6
SliderMultiplier:1
SliderTickRate:0.5

[Events]
//Background and Video events
0,0,"82685729_p0.jpg",0,0
//Break Periods
2,172535,186485
//Storyboard Layer 0 (Background)
//Storyboard Layer 1 (Fail)
//Storyboard Layer 2 (Pass)
//Storyboard Layer 3 (Foreground)
//Storyboard Layer 4 (Overlay)
//Storyboard Sound Samples

[TimingPoints]
523,241.935483870968,4,2,2,75,1,0
765,241.935483870968,4,2,2,75,1,1
16248,241.935483870968,9,2,2,75,1,1
24957,241.935483870968,3,2,2,75,1,1
27860,241.935483870968,4,2,2,65,1,0
43343,-100,4,2,2,55,0,0
58827,-100,4,2,2,65,0,0
75279,-100,4,2,2,75,0,1
83021,241.935483870968,9,2,2,75,1,1
91729,241.935483870968,3,2,2,75,1,1
94632,241.935483870968,4,2,2,65,1,0
110115,-100,4,2,2,55,0,0
121728,-100,4,2,2,60,0,0
125599,-100,4,2,2,50,0,0
140115,-100,4,2,2,60,0,0
140599,-100,4,2,2,65,0,0
141083,-100,4,2,2,70,0,0
142050,-100,4,2,2,55,0,0
156567,-100,4,2,2,50,0,0
172535,241.935483870968,4,2,2,50,1,0
187535,-100,4,2,2,75,0,0
188018,241.935483870968,9,2,2,75,1,1
196727,241.935483870968,3,2,2,75,1,1
199630,-100,3,2,2,75,0,0

[Colours]
Combo1 : 181,123,45
Combo2 : 65,138,11
Combo3 : 136,96,55
Combo4 : 114,173,103

[HitObjects]
36,129,523,5,8,2:0:0:0:
66,34,765,6,0,B|138:58|138:58|181:55,1,100,6|8,2:0|2:0,2:0:0:0:
256,22,1248,2,0,B|323:55|323:55|352:88,1,100,2|8,2:0|2:0,2:0:0:0:
399,154,1732,6,0,L|295:202,1,100,2|8,2:0|2:0,2:0:0:0:
216,154,2216,2,0,L|112:202,1,100,2|8,2:0|2:0,2:0:0:0:
65,276,2700,6,0,P|99:315|160:343,1,100,2|8,2:0|2:0,2:0:0:0:
236,307,3184,2,0,P|287:303|350:326,1,100,2|8,2:0|2:0,2:0:0:0:
427,351,3668,6,0,B|443:303|443:303|424:244,1,100,2|8,2:0|2:0,2:0:0:0:
356,184,4152,1,2,2:0:0:0:
410,100,4394,1,8,2:0:0:0:
356,16,4635,6,0,B|323:11|323:11|254:30,1,100,4|8,2:0|2:0,2:0:0:0:
192,104,5119,2,0,B|161:91|161:91|110:40,1,100,2|8,2:0|2:0,2:0:0:0:
27,94,5603,6,0,L|7:205,1,100,2|8,2:0|2:0,2:0:0:0:
81,262,6087,2,0,L|192:242,1,100,2|8,2:0|2:0,2:0:0:0:
255,178,6571,6,0,P|305:166|359:179,1,100,4|8,2:0|2:0,2:0:0:0:
428,240,7055,2,0,P|440:290|426:344,1,100,2|8,2:0|2:0,2:0:0:0:
330,350,7539,5,8,2:0:0:0:
255,283,7781,1,8,2:0:0:0:
322,208,8023,1,8,2:0:0:0:
389,133,8265,1,8,2:0:0:0:
314,66,8506,6,0,B|240:51|240:51|199:66,1,100,4|8,2:0|2:0,2:0:0:0:
167,147,8990,2,0,B|143:155|143:155|69:140,1,100,2|8,2:0|2:0,2:0:0:0:
20,53,9474,6,0,L|122:34,1,100,2|8,2:0|2:0,2:0:0:0:
216,59,9958,2,0,L|318:40,1,100,2|8,2:0|2:0,2:0:0:0:
412,65,10442,6,0,P|422:121|449:167,1,100,2|8,2:0|2:0,2:0:0:0:
491,246,10926,2,0,P|481:302|454:348,1,100,2|8,2:0|2:0,2:0:0:0:
362,359,11410,6,0,B|312:345|312:345|280:304,1,100,2|8,2:0|2:0,2:0:0:0:
252,211,11894,1,2,2:0:0:0:
164,258,12135,1,8,2:0:0:0:
76,211,12377,6,0,P|99:166|142:131,1,100,4|8,2:0|2:0,2:0:0:0:
224,86,12861,2,0,P|266:113|321:122,1,100,2|8,2:0|2:0,2:0:0:0:
413,108,13345,6,0,L|431:214,1,100,2|8,2:0|2:0,2:0:0:0:
449,305,13829,2,0,L|342:286,1,100,2|8,2:0|2:0,2:0:0:0:
280,215,14313,6,0,B|207:226|207:226|187:245,1,100,4|8,2:0|2:0,2:0:0:0:
111,308,14797,2,0,B|92:289|92:289|81:216,1,100,2|8,2:0|3:2,2:0:0:0:
55,119,15281,5,8,3:2:0:0:
152,95,15523,1,0,3:0:0:0:
249,71,15765,1,8,3:2:0:0:
346,47,16006,1,0,3:0:0:0:
443,71,16248,6,0,P|425:142|431:182,1,100,4|8,2:0|2:0,2:0:0:0:
421,268,16731,2,0,P|372:255|331:228,1,100,2|8,2:0|2:0,2:0:0:0:
296,134,17215,1,4,3:2:0:0:
199,108,17457,1,0,3:2:0:0:
101,133,17699,2,0,B|75:274|75:274|98:332,1,200,4|8,3:2|2:0,2:0:0:0:
185,371,18425,6,0,B|212:330|212:330|193:276,1,100,4|8,2:0|2:0,2:0:0:0:
188,182,18909,2,0,B|196:133|196:133|246:107,1,100,0|8,2:0|2:0,2:0:0:0:
341,104,19393,1,4,3:2:0:0:
414,171,19635,1,0,3:2:0:0:
426,269,19877,2,0,B|321:273|355:345|251:350,1,200,4|8,3:2|2:0,2:0:0:0:
159,308,20602,6,0,L|201:216,1,100,4|8,2:0|2:0,2:0:0:0:
275,150,21086,2,0,L|232:58,1,100,0|8,2:0|2:0,2:0:0:0:
135,32,21570,1,4,3:2:0:0:
64,103,21812,1,0,3:2:0:0:
38,199,22054,2,0,B|63:339|63:339|132:327,1,200,4|8,3:2|2:0,2:0:0:0:
197,265,22780,6,0,P|255:235|309:233,1,100,4|8,2:0|2:0,2:0:0:0:
357,304,23264,2,0,P|422:300|469:275,1,100,0|8,2:0|2:0,2:0:0:0:
495,196,23748,1,4,3:2:0:0:
441,111,23989,1,0,3:2:0:0:
351,64,24231,2,0,B|282:142|282:142|186:170,1,200,4|8,3:2|2:0,2:0:0:0:
94,137,24957,6,0,P|89:89|60:43,1,100,6|2,3:2|2:0,2:0:0:0:
155,9,25440,1,2,2:0:0:0:
231,77,25682,5,10,2:0:0:0:
189,168,25924,1,2,2:0:0:0:
147,259,26166,1,8,2:0:0:0:
223,327,26408,6,0,B|270:312|270:312|328:333,1,100,2|8,2:0|3:2,2:0:0:0:
410,366,26892,1,8,3:2:0:0:
447,273,27134,5,2,3:2:0:0:
354,236,27376,1,2,3:2:0:0:
391,143,27618,1,8,2:0:0:0:
298,106,27860,5,6,1:2:0:0:
261,199,28101,1,0,1:0:0:0:
224,292,28343,1,8,2:0:0:0:
24,276,28827,5,0,1:0:0:0:
61,183,29069,1,0,1:0:0:0:
98,90,29311,1,8,2:0:0:0:
282,10,29795,5,0,1:0:0:0:
345,87,30037,2,0,B|369:118|369:118|383:177,2,100,8|0|0,2:0|1:0|2:0,2:0:0:0:
263,146,30763,2,0,L|151:165,1,100,8|0,2:0|1:0,2:0:0:0:
66,184,31247,1,0,1:0:0:0:
44,85,31489,1,8,2:0:0:0:
117,17,31730,5,0,1:0:0:0:
214,48,31972,1,0,1:0:0:0:
313,26,32214,1,10,2:0:0:0:
436,183,32698,5,0,1:0:0:0:
361,252,32940,1,0,1:0:0:0:
329,348,33182,1,8,2:0:0:0:
135,297,33666,5,0,1:0:0:0:
104,201,33908,2,0,B|128:176|128:176|214:161,2,100,8|0|0,2:0|1:0|2:0,2:0:0:0:
31,270,34634,2,0,L|48:371,2,100,8|0|0,2:0|1:0|1:0,2:0:0:0:
13,171,35360,1,8,2:0:0:0:
72,91,35601,5,4,1:2:0:0:
162,48,35843,1,0,1:0:0:0:
254,85,36085,1,8,2:0:0:0:
308,277,36569,5,0,1:0:0:0:
408,269,36811,1,0,1:0:0:0:
469,191,37053,1,8,2:0:0:0:
341,36,37537,5,0,1:0:0:0:
254,85,37779,2,0,B|205:93|205:93|151:82,2,100,8|0|0,2:0|1:0|1:0,2:0:0:0:
282,181,38505,2,0,B|331:173|331:173|385:184,1,100,8|0,2:0|1:0,2:0:0:0:
469,229,38989,2,0,B|477:180|477:180|466:126,1,100,0|8,1:0|2:0,2:0:0:0:
420,42,39472,5,4,1:2:0:0:
320,55,39714,1,0,1:0:0:0:
220,68,39956,1,8,2:0:0:0:
59,187,40440,5,0,1:0:0:0:
120,267,40682,1,0,1:0:0:0:
181,347,40924,1,8,2:0:0:0:
375,301,41408,5,0,1:0:0:0:
415,209,41650,2,0,B|428:178|428:178|403:101,2,100,8|8|8,2:0|2:0|2:0,2:0:0:0:
315,224,42376,2,0,L|197:203,1,100,8|0,3:2|3:0,3:0:0:0:
117,189,42860,1,2,3:0:0:0:
18,171,43101,1,2,3:0:0:0:
83,95,43343,6,0,P|134:66|197:58,1,100,4|0,2:0|2:0,2:0:0:0:
274,60,43827,1,8,2:0:0:0:
451,153,44311,6,0,P|394:138|331:146,1,100,8|0,2:0|2:0,2:0:0:0:
258,168,44795,1,8,2:0:0:0:
188,240,45037,1,0,2:0:0:0:
286,265,45279,6,0,L|384:247,1,100,8|0,2:0|2:0,2:0:0:0:
483,232,45763,1,8,2:0:0:0:
338,370,46247,6,0,L|239:352,1,100,8|0,2:0|2:0,2:0:0:0:
141,337,46730,2,0,L|42:319,1,100,8|0,2:0|2:0,2:0:0:0:
90,231,47214,6,0,L|188:213,1,100,12|0,2:0|2:0,2:0:0:0:
287,198,47698,1,8,2:0:0:0:
379,20,48182,6,0,L|421:110,1,100,8|0,2:0|2:0,2:0:0:0:
465,200,48666,1,8,2:0:0:0:
375,243,48908,1,0,2:0:0:0:
418,333,49150,6,0,P|373:357|321:364,1,100,8|0,2:0|2:0,2:0:0:0:
237,314,49634,2,0,P|192:290|140:283,1,100,8|0,2:0|2:0,2:0:0:0:
50,318,50118,6,0,P|23:264|29:160,2,150,8|0|0,2:0|1:0|1:0,2:0:0:0:
144,351,51085,5,12,2:0:0:0:
237,314,51327,1,0,2:0:0:0:
336,329,51569,1,8,2:0:0:0:
488,199,52053,5,8,2:0:0:0:
409,137,52295,1,0,2:0:0:0:
373,44,52537,2,0,B|337:28|337:28|259:42,1,100,8|0,2:0|2:0,2:0:0:0:
265,138,53021,6,0,B|205:148|205:148|169:132,1,100,8|0,3:2|3:2,3:2:0:0:
86,76,53505,2,0,L|34:187,1,100,10|2,3:2|3:2,2:0:0:0:
18,263,53989,5,10,3:2:0:0:
132,359,54351,1,8,3:2:0:0:
144,209,54714,1,8,3:2:0:0:
65,150,54956,5,4,2:0:0:0:
124,71,55198,1,0,2:0:0:0:
203,130,55440,2,0,B|249:151|249:151|307:146,1,100,8|0,2:0|2:0,2:0:0:0:
398,140,55924,5,0,1:0:0:0:
409,239,56166,1,0,2:0:0:0:
417,340,56408,2,0,B|388:332|388:332|310:346,1,100,0|8,2:0|2:0,2:0:0:0:
221,366,56892,6,0,L|117:348,1,100,0|0,1:0|2:0,2:0:0:0:
47,282,57376,2,0,L|29:178,1,100,8|0,2:0|2:0,2:0:0:0:
73,92,57860,5,0,1:0:0:0:
168,118,58101,1,0,1:0:0:0:
202,211,58343,1,0,3:0:0:0:
297,237,58585,1,0,3:0:0:0:
373,171,58827,6,0,B|409:73|409:73|493:22,3,200,0|8|0|8,3:0|2:0|1:0|2:0,2:0:0:0:
502,123,60521,1,0,3:0:0:0:
510,222,60763,2,0,B|491:272|491:272|450:301,1,100,0|0,1:0|3:0,2:0:0:0:
357,267,61247,2,0,B|307:286|307:286|278:327,1,100,8|0,2:0|2:0,2:0:0:0:
184,353,61730,5,0,1:0:0:0:
214,257,61972,1,0,1:0:0:0:
143,185,62214,1,8,2:0:0:0:
173,89,62456,1,0,1:0:0:0:
102,17,62698,6,0,B|70:46|70:46|52:111,1,100,0|0,1:0|3:0,2:0:0:0:
15,193,63182,2,0,B|47:222|47:222|65:287,1,100,8|0,2:0|2:0,2:0:0:0:
80,375,63666,1,0,1:0:0:0:
163,319,63908,5,2,2:0:0:0:
193,223,64150,1,10,2:0:0:0:
223,127,64392,1,2,2:0:0:0:
306,71,64634,6,0,B|340:78|340:78|340:210|340:210|375:218,1,200,0|8,3:2|3:2,2:0:0:0:
472,215,65360,5,0,3:2:0:0:
458,116,65601,1,0,3:2:0:0:
444,17,65843,1,0,3:2:0:0:
345,31,66085,6,0,P|290:38|242:32,1,100,8|0,3:2|3:2,2:0:0:0:
147,15,66569,6,0,L|111:218,3,200,0|8|2|8,3:2|2:0|2:0|2:0,2:0:0:0:
95,311,68263,1,2,2:0:0:0:
19,245,68505,1,0,2:0:0:0:
35,146,68747,6,0,L|51:46,2,100,2|8|0,2:0|2:0|1:0,2:0:0:0:
112,212,69472,6,0,B|149:222|149:222|215:201,1,100,2|0,2:0|1:0,2:0:0:0:
262,119,69956,2,0,B|320:100|320:100|357:110,1,100,8|8,2:0|2:0,2:0:0:0:
450,148,70440,6,0,L|469:256,1,100,4|0,3:2|3:0,2:0:0:0:
424,337,70924,2,0,L|315:317,1,100,8|0,2:0|1:0,2:0:0:0:
258,245,71408,1,0,1:0:0:0:
199,325,71650,5,2,2:0:0:0:
119,266,71892,1,10,2:0:0:0:
39,207,72134,1,2,2:0:0:0:
98,127,72376,6,0,B|168:156|168:156|204:151,1,100,4|8,2:0|2:0,2:0:0:0:
169,53,72860,1,0,3:2:0:0:
72,30,73101,5,0,3:2:0:0:
3,102,73343,2,0,L|21:204,1,100,8|0,3:2|3:2,2:0:0:0:
40,298,73827,2,0,L|161:319,1,100,0|8,3:2|3:2,2:0:0:0:
443,50,75279,6,0,B|374:38|374:38|345:49,1,100,4|8,2:0|2:0,2:0:0:0:
278,122,75763,2,0,B|249:132|249:132|180:120,1,100,2|8,2:0|2:0,2:0:0:0:
98,63,76247,6,0,B|77:110|77:110|88:171,1,100,2|8,2:0|2:0,2:0:0:0:
164,219,76730,2,0,B|185:266|185:266|174:327,1,100,2|8,2:0|2:0,2:0:0:0:
84,354,77214,6,0,L|66:254,1,100,2|8,2:0|2:0,2:0:0:0:
85,157,77698,2,0,L|102:57,1,100,2|8,2:0|2:0,2:0:0:0:
199,34,78182,6,0,P|251:67|288:78,1,100,2|8,2:0|2:0,2:0:0:0:
387,74,78666,1,2,2:0:0:0:
473,24,78908,1,8,2:0:0:0:
473,123,79150,6,0,B|460:174|460:174|479:237,1,100,4|8,2:0|2:0,2:0:0:0:
506,314,79634,2,0,B|455:327|455:327|392:308,1,100,2|8,2:0|2:0,2:0:0:0:
337,242,80118,6,0,P|277:236|238:249,1,100,2|8,2:0|2:0,2:0:0:0:
181,329,80601,2,0,P|121:319|87:296,1,100,2|8,2:0|2:0,2:0:0:0:
42,209,81085,6,0,L|141:162,1,100,2|8,2:0|2:0,2:0:0:0:
168,72,81569,2,0,L|267:25,1,100,2|8,2:0|2:0,2:0:0:0:
359,26,82053,5,8,3:2:0:0:
341,124,82295,1,8,3:2:0:0:
323,222,82537,1,0,3:2:0:0:
305,320,82779,1,8,3:2:0:0:
403,340,83021,6,0,B|445:312|445:312|463:257,1,100,4|8,2:0|2:0,2:0:0:0:
483,167,83504,2,0,B|467:119|467:119|425:91,1,100,2|8,2:0|2:0,2:0:0:0:
325,92,83988,1,0,3:2:0:0:
225,92,84230,1,8,3:2:0:0:
155,163,84472,2,0,B|89:238|89:238|155:314,1,200,8|8,3:2|2:0,2:0:0:0:
229,380,85198,6,0,P|285:365|328:333,1,100,6|8,2:0|2:0,2:0:0:0:
389,269,85682,2,0,P|348:228|298:206,1,100,2|8,2:0|2:0,2:0:0:0:
211,192,86166,1,0,3:2:0:0:
125,244,86408,1,8,3:2:0:0:
39,192,86650,2,0,P|66:97|161:60,1,200,8|8,3:2|2:0,2:0:0:0:
249,88,87375,6,0,L|352:69,1,100,6|8,2:0|2:0,2:0:0:0:
446,57,87859,2,0,L|427:160,1,100,2|8,2:0|2:0,2:0:0:0:
410,254,88343,1,0,3:2:0:0:
392,352,88585,1,8,3:2:0:0:
317,288,88827,2,0,B|239:299|239:299|221:339|221:339|144:350,1,200,8|8,3:2|2:0,2:0:0:0:
59,297,89553,6,0,P|92:250|146:227,1,100,6|8,2:0|2:0,2:0:0:0:
224,200,90037,2,0,P|204:146|158:109,1,100,2|8,2:0|2:0,2:0:0:0:
74,101,90521,1,0,3:2:0:0:
7,175,90762,1,8,3:2:0:0:
36,270,91004,2,0,B|139:256|118:333|221:319,1,200,8|8,3:2|2:0,2:0:0:0:
314,359,91729,6,0,B|382:346|382:346|407:321,1,100,6|2,3:2|3:2,3:2:0:0:
461,243,92212,1,2,3:2:0:0:
410,156,92454,5,8,3:2:0:0:
312,134,92696,1,2,3:2:0:0:
214,112,92938,1,8,2:0:0:0:
163,25,93180,6,0,P|99:41|66:69,1,100,0|8,3:0|3:2,2:0:0:0:
47,158,93664,1,8,3:2:0:0:
88,249,93906,5,0,3:2:0:0:
178,205,94148,1,0,3:2:0:0:
214,112,94390,1,8,3:2:0:0:
304,68,94632,5,4,1:2:0:0:
402,85,94873,1,0,1:0:0:0:
500,102,95115,1,8,2:0:0:0:
418,284,95599,5,0,1:0:0:0:
321,300,95841,1,0,1:0:0:0:
222,318,96083,1,8,2:0:0:0:
101,158,96567,5,0,1:0:0:0:
198,174,96809,2,0,B|260:163|260:163|294:130,2,100,8|0|0,2:0|1:0|1:0,2:0:0:0:
163,79,97535,2,0,L|63:61,1,100,8|0,2:0|1:0,2:0:0:0:
5,143,98019,1,0,1:0:0:0:
40,236,98261,1,8,2:0:0:0:
139,253,98502,5,4,1:2:0:0:
174,346,98744,1,0,1:0:0:0:
273,363,98986,1,10,2:0:0:0:
401,208,99470,5,0,1:0:0:0:
303,191,99712,1,0,1:0:0:0:
239,269,99954,1,8,2:0:0:0:
437,301,100438,5,0,1:0:0:0:
500,224,100680,2,0,L|480:117,2,100,8|0|0,2:0|1:0|1:0,2:0:0:0:
401,208,101406,2,0,L|292:188,1,100,8|0,2:0|1:0,2:0:0:0:
203,174,101890,1,0,1:0:0:0:
104,156,102132,1,8,2:0:0:0:
122,57,102373,5,4,1:2:0:0:
221,75,102615,1,0,1:0:0:0:
320,93,102857,1,8,2:0:0:0:
314,292,103341,5,0,1:0:0:0:
413,274,103583,1,0,1:0:0:0:
512,256,103825,1,8,2:0:0:0:
322,193,104309,5,0,1:0:0:0:
223,175,104551,2,0,B|172:166|172:166|128:190,2,100,8|0|0,2:0|1:0|1:0,2:0:0:0:
264,266,105277,2,0,B|306:289|306:289|357:280,1,100,8|0,2:0|1:0,2:0:0:0:
448,256,105761,2,0,L|466:153,1,100,0|8,1:0|2:0,2:0:0:0:
480,58,106244,5,4,1:2:0:0:
385,25,106486,1,0,1:0:0:0:
290,58,106728,1,8,2:0:0:0:
269,256,107212,5,0,1:0:0:0:
174,223,107454,1,0,1:0:0:0:
79,256,107696,1,8,2:0:0:0:
25,63,108180,5,0,3:2:0:0:
120,30,108422,2,0,P|168:20|223:33,2,100,8|0|0,3:2|2:0|2:0,3:2:0:0:
99,128,109148,2,0,P|109:176|96:231,1,100,8|0,3:2|3:2,3:2:0:0:
55,316,109632,2,0,P|103:326|158:313,1,100,2|2,3:2|3:2,2:0:0:0:
233,257,110115,6,0,L|343:276,1,100,6|0,3:2|3:2,3:2:0:0:
430,292,110599,2,0,L|410:181,1,100,8|0,3:2|3:2,3:2:0:0:
394,94,111083,6,0,B|316:84|331:140|254:131,2,150,2|2|2,3:2|3:0|3:0,3:0:0:0:
484,138,112051,6,0,P|487:184|472:250,1,100,2|0,3:2|3:2,3:0:0:0:
395,295,112535,2,0,P|349:292|283:307,1,100,8|0,3:2|3:2,3:0:0:0:
208,351,113019,6,0,B|93:331|93:331|55:344,2,150,8|2|8,3:2|3:0|3:2,3:0:0:0:
306,368,113986,6,0,L|325:257,1,100,6|0,3:2|3:2,3:2:0:0:
224,251,114470,2,0,L|204:140,1,100,8|0,3:2|3:2,3:2:0:0:
255,64,114954,5,2,3:2:0:0:
398,21,115317,1,2,3:0:0:0:
441,164,115680,1,2,3:0:0:0:
470,259,115922,6,0,B|417:309|417:309|380:319,1,100,2|0,3:2|3:2,3:0:0:0:
319,245,116406,2,0,B|292:252|292:252|239:302,1,100,8|0,3:2|3:2,3:0:0:0:
170,374,116890,5,8,3:2:0:0:
144,227,117252,1,8,3:2:0:0:
118,80,117615,1,8,3:2:0:0:
216,62,117857,6,0,P|269:56|317:75,1,100,6|0,3:2|3:2,3:2:0:0:
358,160,118341,2,0,P|354:209|373:255,1,100,8|0,3:2|3:2,3:2:0:0:
470,281,118825,6,0,B|488:255|488:255|472:167|472:167|490:142,2,150,2|2|2,3:2|3:0|3:0,3:0:0:0:
396,349,119793,6,0,B|345:359|345:359|295:348,1,100,2|0,3:2|3:2,3:0:0:0:
220,285,120277,2,0,B|230:234|230:234|219:184,1,100,8|0,3:2|3:2,3:0:0:0:
150,114,120761,6,0,B|69:57|69:57|11:140,1,200,8|8,3:2|3:2,3:0:0:0:
46,337,121728,5,4,1:2:0:0:
145,355,121970,1,0,1:0:0:0:
214,283,122212,1,8,2:0:0:0:
313,301,122454,1,8,2:0:0:0:
382,229,122696,6,0,L|481:210,1,100,0|0,1:0|2:0,2:0:0:0:
483,110,123180,2,0,L|383:91,1,100,0|8,2:0|2:0,2:0:0:0:
285,73,123664,5,0,1:0:0:0:
186,91,123906,1,0,1:0:0:0:
129,174,124148,1,8,3:2:0:0:
147,273,124390,1,2,3:2:0:0:
230,330,124632,6,0,P|274:312|317:274,1,100,8|2,3:2|3:2,2:0:0:0:
322,177,125115,2,0,P|368:197|406:229,1,100,2|8,3:2|2:0,2:0:0:0:
453,317,125599,6,0,B|503:257|503:257|481:120,3,200,4|8|0|8,2:0|2:0|1:0|2:0,2:0:0:0:
407,71,127293,1,0,2:0:0:0:
314,108,127535,2,0,B|281:131|281:131|213:137,1,100,0|0,1:0|2:0,2:0:0:0:
121,142,128019,1,8,2:0:0:0:
53,68,128261,1,0,1:0:0:0:
151,47,128502,6,0,P|213:34|250:14,1,100,2|2,2:0|1:2,2:0:0:0:
345,9,128986,2,0,P|401:37|432:66,1,100,8|8,2:0|2:0,2:0:0:0:
479,148,129470,5,4,2:0:0:0:
393,198,129712,2,0,L|293:181,1,100,0|8,1:0|2:0,2:0:0:0:
195,163,130196,1,0,2:0:0:0:
96,144,130438,1,0,1:0:0:0:
77,243,130680,5,2,1:2:0:0:
176,262,130922,1,10,2:0:0:0:
275,281,131164,1,2,1:2:0:0:
331,364,131406,6,0,B|395:352|395:352|420:324,1,100,10|0,2:0|1:0,2:0:0:0:
469,240,131890,1,0,1:0:0:0:
412,157,132132,5,10,2:0:0:0:
313,174,132373,1,2,1:2:0:0:
214,191,132615,1,2,1:2:0:0:
157,108,132857,6,0,P|109:117|57:95,1,100,10|0,2:0|1:0,2:0:0:0:
118,15,133341,6,0,B|258:39|258:39|322:21,3,200,4|8|0|8,2:0|2:0|1:0|2:0,2:0:0:0:
413,11,135035,1,0,2:0:0:0:
425,110,135277,2,0,B|413:160|413:160|428:217,1,100,0|0,1:0|2:0,2:0:0:0:
476,293,135761,2,0,B|426:305|426:305|369:290,1,100,8|0,2:0|1:0,2:0:0:0:
307,223,136244,5,0,2:0:0:0:
285,320,136486,1,0,1:0:0:0:
188,298,136728,1,8,2:0:0:0:
210,201,136970,1,8,2:0:0:0:
232,104,137212,5,4,2:0:0:0:
135,82,137454,2,0,B|96:88|96:88|46:125,1,100,0|8,1:0|2:0,2:0:0:0:
23,221,137938,1,0,2:0:0:0:
88,297,138180,1,0,1:0:0:0:
164,232,138422,5,2,1:2:0:0:
262,249,138664,1,10,2:0:0:0:
360,266,138906,1,2,1:2:0:0:
436,201,139148,6,0,B|442:162|442:162|425:102,1,100,8|0,2:0|1:0,2:0:0:0:
349,38,139632,1,0,1:0:0:0:
294,121,139873,5,10,2:0:0:0:
195,102,140115,1,2,2:0:0:0:
96,83,140357,1,2,1:2:0:0:
41,166,140599,6,0,B|64:212|64:212|62:264,1,100,2|2,2:0|1:2,2:0:0:0:
21,352,141083,6,2,B|182:416|182:125|343:189,1,400,6|8,2:0|2:0,2:0:0:0:
499,316,142535,2,0,P|475:337|408:360,1,100,0|0,1:0|2:0,2:0:0:0:
311,369,143019,6,0,B|283:378|283:378|194:366,2,100,2|0|0,2:0|1:0|2:0,2:0:0:0:
355,279,143744,2,0,L|372:179,1,100,0|8,1:0|2:0,2:0:0:0:
467,147,144228,2,0,L|449:47,1,100,0|8,1:0|2:0,2:0:0:0:
352,22,144712,5,0,1:0:0:0:
258,56,144954,2,0,B|245:83|245:83|257:152,1,100,6|0,2:0|2:0,2:0:0:0:
350,188,145438,2,0,B|362:256|362:256|349:284,1,100,2|0,2:0|2:0,2:0:0:0:
281,357,145922,5,10,2:0:0:0:
215,281,146164,1,0,1:0:0:0:
139,347,146406,1,2,2:0:0:0:
73,271,146648,1,8,2:0:0:0:
149,205,146890,6,0,P|159:171|154:102,1,100,0|2,1:0|1:2,2:0:0:0:
94,27,147373,2,0,P|55:58|29:100,1,100,10|0,2:0|1:0,2:0:0:0:
4,198,147857,5,0,1:2:0:0:
73,271,148099,1,0,1:2:0:0:
149,205,148341,1,2,1:2:0:0:
218,278,148583,1,2,1:2:0:0:
294,212,148825,6,0,B|349:175|362:106|362:106|429:78,1,200,6|0,2:0|2:0,2:0:0:0:
500,146,149551,1,0,1:0:0:0:
434,221,149793,2,0,B|379:258|366:327|366:327|299:355,1,200,8|2,2:0|2:0,2:0:0:0:
102,323,150761,6,0,P|163:320|132:215,1,200,4|2,2:0|2:0,2:0:0:0:
44,187,151486,1,0,1:0:0:0:
72,90,151728,2,0,P|145:68|177:81,1,100,8|2,2:0|2:0,2:0:0:0:
242,138,152212,2,0,L|346:118,1,100,8|2,2:0|2:0,2:0:0:0:
401,40,152696,5,0,1:2:0:0:
491,83,152938,1,0,1:2:0:0:
499,183,153180,1,2,2:0:0:0:
402,358,153664,5,10,2:0:0:0:
311,314,153906,1,2,1:2:0:0:
303,215,154148,1,6,2:0:0:0:
212,171,154390,1,2,2:0:0:0:
130,227,154632,6,0,L|111:327,1,100,6|0,1:2|1:2,2:0:0:0:
202,367,155115,2,0,L|302:348,1,100,0|0,1:2|1:2,2:0:0:0:
398,327,155599,6,0,P|366:283|359:222,1,100,2|10,2:0|2:0,2:0:0:0:
391,144,156083,1,8,2:0:0:0:
335,60,156325,1,8,2:0:0:0:
235,67,156567,6,0,P|182:123|178:156,1,100,6|0,2:0|2:0,2:0:0:0:
172,243,157051,2,0,P|123:250|77:231,1,100,8|0,2:0|2:0,2:0:0:0:
15,153,157535,1,0,1:0:0:0:
80,342,158019,1,8,2:0:0:0:
178,359,158261,1,0,2:0:0:0:
276,376,158502,1,0,1:0:0:0:
456,289,158986,6,0,P|423:268|380:207,1,100,8|0,2:0|2:0,2:0:0:0:
452,145,159470,2,0,P|460:106|447:33,1,100,0|0,1:0|1:0,2:0:0:0:
358,14,159954,1,8,2:0:0:0:
174,92,160438,1,0,1:0:0:0:
319,229,160922,6,0,P|337:271|334:340,1,100,8|0,2:0|2:0,2:0:0:0:
248,369,161406,2,0,L|140:350,1,100,0|0,1:0|1:0,2:0:0:0:
51,330,161890,1,8,2:0:0:0:
72,231,162132,1,0,2:0:0:0:
153,173,162373,6,0,P|186:141|209:89,2,100,8|0|0,2:0|1:0|1:0,2:0:0:0:
62,129,163099,2,0,P|29:97|6:45,2,100,8|0|0,2:0|1:0|1:0,2:0:0:0:
120,47,163825,1,8,2:0:0:0:
208,92,164067,1,0,1:0:0:0:
296,47,164309,6,0,P|331:47|400:78,1,100,4|0,2:0|2:0,2:0:0:0:
449,152,164793,1,8,2:0:0:0:
334,315,165277,2,0,P|308:324|229:317,1,100,0|0,1:0|1:0,2:0:0:0:
163,250,165761,1,8,2:0:0:0:
175,151,166002,1,0,1:0:0:0:
76,139,166244,1,0,1:0:0:0:
36,335,166728,6,0,L|135:352,1,100,8|0,2:0|2:0,2:0:0:0:
233,337,167212,2,0,L|332:319,1,100,0|0,1:0|1:0,2:0:0:0:
429,297,167696,1,8,2:0:0:0:
481,211,167938,1,0,1:0:0:0:
457,114,168180,1,0,1:0:0:0:
273,35,168664,6,0,L|290:134,1,100,8|0,2:0|2:0,2:0:0:0:
191,151,169148,2,0,L|173:250,1,100,0|0,1:0|1:0,2:0:0:0:
273,267,169632,2,0,L|290:366,1,100,8|0,2:0|1:0,2:0:0:0:
256,192,170115,12,8,171809,2:0:0:0:
199,45,187535,5,8,3:2:0:0:
123,109,187776,1,8,3:2:0:0:
47,173,188018,6,0,B|36:239|36:239|53:279,1,100,6|8,2:0|2:0,2:0:0:0:
136,318,188501,2,0,B|166:305|166:305|232:316,1,100,2|8,2:0|2:0,2:0:0:0:
330,335,188985,1,0,3:2:0:0:
427,353,189227,1,8,3:2:0:0:
492,278,189469,2,0,B|481:225|481:225|376:116,1,200,8|8,3:2|2:0,2:0:0:0:
293,171,190195,6,0,L|174:192,1,100,6|8,2:0|2:0,2:0:0:0:
95,203,190679,2,0,L|116:84,1,100,2|8,2:0|2:0,2:0:0:0:
133,6,191163,1,0,3:2:0:0:
231,25,191405,1,8,3:2:0:0:
318,76,191647,2,0,P|409:91|480:186,1,200,8|8,3:2|2:0,2:0:0:0:
471,270,192372,6,0,B|406:281|406:281|366:273,1,100,6|8,2:0|2:0,2:0:0:0:
284,226,192856,2,0,B|250:218|250:218|185:230,1,100,2|8,2:0|2:0,2:0:0:0:
122,308,193340,1,0,3:2:0:0:
44,244,193582,1,8,3:2:0:0:
108,167,193824,2,0,B|145:110|145:110|283:85,1,200,8|8,3:2|2:0,2:0:0:0:
330,170,194550,6,0,P|377:208|430:221,1,100,6|8,2:0|2:0,2:0:0:0:
492,156,195034,2,0,P|501:96|486:43,1,100,2|8,2:0|2:0,2:0:0:0:
403,12,195518,1,0,3:2:0:0:
306,38,195759,1,8,3:2:0:0:
209,64,196001,2,0,B|86:42|86:42|73:120,1,200,8|8,3:2|2:0,2:0:0:0:
120,206,196727,6,0,B|151:225|151:225|230:208,1,100,6|2,3:2|3:2,3:2:0:0:
311,193,197210,1,2,3:2:0:0:
392,135,197452,5,8,3:2:0:0:
450,216,197694,1,2,3:2:0:0:
508,297,197936,1,8,2:0:0:0:
427,355,198178,6,0,B|378:366|378:366|317:355,1,100,2|8,3:2|3:2,3:2:0:0:
231,332,198662,1,2,3:2:0:0:
256,233,198904,5,8,3:2:0:0:
206,143,199146,1,2,3:2:0:0:
156,53,199388,1,2,3:2:0:0:
58,21,199630,5,0,3:2:0:0:
