osu file format v14

[General]
AudioFilename: audio.mp3
AudioLeadIn: 0
PreviewTime: 75218
Countdown: 0
SampleSet: Soft
StackLeniency: 0.5
Mode: 0
LetterboxInBreaks: 0
WidescreenStoryboard: 1

[Editor]
Bookmarks: 16248,24957,27860,43343,58827,58888,58948,60521,60581,60642,61005,61065,61126,62819,62880,62940,64634,64694,64755,64815,64876,65118,65178,65239,65299,65360,65601,65662,65722,65783,65843,66085,66146,66206,66267,66327,66569,66630,66690,68747,68807,68868,70440,70501,70561,70622,70682,72739,72799,72860,72920,72980,73041,73101,73162,73222,73283,73343,73404,73464,73525,73585,73646,73706,73767,73827,73888,73948,75279,83021,91729,94632,110115,125599,141083,156567,172051,172535,187535,188018,196727,199630
DistanceSpacing: 1
BeatDivisor: 4
GridSize: 4
TimelineZoom: 2.4

[Metadata]
Title:Dressed as Goblins
TitleUnicode:Dressed as Goblins
Artist:Nekrogoblikon
ArtistUnicode:Nekrogoblikon
Creator:Dada
Version:LMT's Expert
Source:
Tags:welcome to bonkers featured artist fa rock melodic death metal english ioexception deadcode ceo of osu ceo_of_osu nao tomori naotoshi lmt
BeatmapID:2602195
BeatmapSetID:1233657

[Difficulty]
HPDrainRate:5
CircleSize:4.2
OverallDifficulty:9
ApproachRate:9.4
SliderMultiplier:2
SliderTickRate:0.5

[Events]
//Background and Video events
0,0,"82685729_p0.jpg",0,0
//Break Periods
//Storyboard Layer 0 (Background)
//Storyboard Layer 1 (Fail)
//Storyboard Layer 2 (Pass)
//Storyboard Layer 3 (Foreground)
//Storyboard Layer 4 (Overlay)
//Storyboard Sound Samples

[TimingPoints]
523,241.935483870968,4,2,2,75,1,0
765,241.935483870968,4,2,2,75,1,1
16248,241.935483870968,9,2,2,75,1,1
24957,241.935483870968,3,2,2,75,1,1
24957,-125,3,2,2,75,0,1
27860,241.935483870968,4,2,2,65,1,0
28101,-142.857142857143,4,2,2,65,0,0
30037,-100,4,2,2,65,0,0
43343,-142.857142857143,4,2,2,55,0,0
46247,-100,4,2,2,55,0,0
47214,-142.857142857143,4,2,2,55,0,0
50118,-100,4,2,2,55,0,0
51085,-142.857142857143,4,2,2,55,0,0
58827,-142.857142857143,4,2,2,65,0,0
60279,-66.6666666666667,4,2,2,65,0,0
61368,-133.333333333333,4,2,2,65,0,0
75279,-100,4,2,2,75,0,1
83021,241.935483870968,9,2,2,75,1,1
91729,241.935483870968,3,2,2,75,1,1
91729,-125,3,2,2,75,0,1
94632,241.935483870968,4,2,2,65,1,0
94873,-142.857142857143,4,2,2,65,0,0
96809,-100,4,2,2,65,0,0
109632,-125,4,2,2,65,0,0
110115,-125,4,2,2,55,0,0
112051,-142.857142857143,4,2,2,55,0,0
121728,-142.857142857143,4,2,2,60,0,0
125599,-142.857142857143,4,2,2,50,0,0
127051,-66.6666666666667,4,2,2,50,0,0
129712,-142.857142857143,4,2,2,50,0,0
140115,-142.857142857143,4,2,2,60,0,0
140599,-142.857142857143,4,2,2,65,0,0
141083,-100,4,2,2,70,0,0
142050,-100,4,2,2,55,0,0
142535,-142.857142857143,4,2,2,55,0,0
143019,-100,4,2,2,55,0,0
144228,-142.857142857143,4,2,2,55,0,0
144954,-100,4,2,2,55,0,0
145438,-333.333333333333,4,2,2,55,0,0
146164,-142.857142857143,4,2,2,55,0,0
156567,-142.857142857143,4,2,2,50,0,0
156809,-100,4,2,2,50,0,0
172535,241.935483870968,4,2,2,50,1,0
180035,-200,4,2,2,50,0,0
187535,-200,4,2,2,75,0,0
188018,241.935483870968,9,2,2,75,1,1
196727,241.935483870968,3,2,2,75,1,1
196727,-142.857142857143,3,2,2,75,0,1
199630,-142.857142857143,3,2,2,75,0,0

[Colours]
Combo1 : 181,123,45
Combo2 : 65,138,11
Combo3 : 136,96,55
Combo4 : 114,173,103

[HitObjects]
0,0,523,5,8,2:0:0:0:
268,153,765,6,0,B|281:159|281:159|353:142|353:142|362:149,1,100,6|0,2:0|2:0,2:0:0:0:
447,145,1006,2,0,B|466:142|466:142|446:131|446:131|314:227|314:227|293:221,1,200,8|2,2:0|2:0,2:0:0:0:
264,294,1369,1,0,2:0:0:0:
189,310,1490,1,8,2:0:0:0:
119,288,1611,1,0,2:0:0:0:
85,221,1732,6,0,B|91:205|91:205|74:143|74:143|87:130,1,100,2|0,2:0|2:0,2:0:0:0:
10,212,1974,2,0,B|1:223|1:223|67:369|67:369|75:334,1,200,8|2,2:0|2:0,2:0:0:0:
143,369,2337,1,0,2:0:0:0:
216,375,2458,1,8,2:0:0:0:
285,353,2579,1,0,2:0:0:0:
236,267,2700,6,0,B|244:207|244:207|296:181,1,100,2|0,2:0|2:0,2:0:0:0:
162,168,2942,2,0,B|185:165|185:165|323:238|323:238|347:234,1,200,8|2,2:0|2:0,2:0:0:0:
406,278,3305,1,0,2:0:0:0:
406,278,3426,1,8,2:0:0:0:
329,330,3547,5,0,2:0:0:0:
398,354,3668,1,2,2:0:0:0:
470,335,3789,1,0,2:0:0:0:
506,272,3910,1,8,2:0:0:0:
489,201,4031,1,0,2:0:0:0:
342,329,4152,5,2,2:0:0:0:
397,345,4273,1,0,2:0:0:0:
458,329,4394,1,8,2:0:0:0:
489,275,4515,1,2,2:0:0:0:
415,166,4635,6,0,B|407:159|407:159|325:165|325:165|286:143,1,100,4|0,2:0|2:0,2:0:0:0:
256,112,4877,2,0,B|267:95|267:95|319:249|319:249|265:240,1,200,8|2,2:0|2:0,2:0:0:0:
232,220,5240,1,0,2:0:0:0:
180,166,5361,1,8,2:0:0:0:
174,93,5482,1,0,2:0:0:0:
264,13,5603,6,0,B|246:23|246:23|149:4,1,100,2|0,2:0|2:0,2:0:0:0:
103,80,5845,2,0,B|79:66|79:66|273:108,1,200,8|2,2:0|2:0,2:0:0:0:
114,157,6208,1,0,2:0:0:0:
44,171,6329,1,8,2:0:0:0:
2,112,6450,1,0,2:0:0:0:
140,239,6571,6,0,B|127:235|127:235|56:253|56:253|26:248,1,100,4|0,2:0|2:0,2:0:0:0:
350,95,6813,2,0,B|335:110|335:110|366:267|366:267|399:289,1,200,8|2,2:0|2:0,2:0:0:0:
512,208,7176,1,0,2:0:0:0:
452,165,7297,1,8,2:0:0:0:
447,239,7418,1,0,2:0:0:0:
472,95,7539,6,0,B|460:75|460:75|480:17|480:17|467:0,1,100,8|0,2:0|2:0,2:0:0:0:
37,173,7781,6,0,B|25:153|25:153|45:95|45:95|32:78,1,100,8|0,2:0|2:0,2:0:0:0:
285,366,8023,5,8,2:0:0:0:
305,289,8144,1,8,2:0:0:0:
209,272,8265,5,8,2:0:0:0:
196,179,8385,1,8,2:0:0:0:
270,60,8506,6,0,B|284:59|284:59|258:158,1,100,4|0,2:0|2:0,2:0:0:0:
179,90,8748,2,0,B|162:80|162:80|352:120,1,200,8|2,2:0|2:0,2:0:0:0:
488,134,9111,1,0,2:0:0:0:
497,43,9232,1,8,2:0:0:0:
416,3,9353,1,0,2:0:0:0:
416,79,9474,6,0,B|420:91|420:91|484:127|484:127|510:123,1,100,2|0,2:0|2:0,2:0:0:0:
496,228,9716,2,0,B|484:217|484:217|317:251|317:251|343:279,1,200,8|2,2:0|2:0,2:0:0:0:
378,327,10079,1,0,2:0:0:0:
287,363,10200,1,8,2:0:0:0:
202,323,10321,1,0,2:0:0:0:
204,239,10442,6,0,B|214:224|214:224|205:164|205:164|183:153,1,100,2|0,2:0|2:0,2:0:0:0:
248,73,10684,2,0,B|234:68|234:68|46:101,1,200,8|2,2:0|2:0,2:0:0:0:
63,310,11047,1,0,2:0:0:0:
63,310,11168,1,8,2:0:0:0:
19,238,11289,5,0,2:0:0:0:
91,236,11410,1,2,2:0:0:0:
162,258,11531,1,0,2:0:0:0:
221,300,11652,1,8,2:0:0:0:
257,365,11773,1,0,2:0:0:0:
85,244,11894,5,2,2:0:0:0:
146,251,12015,1,0,2:0:0:0:
200,279,12135,1,8,2:0:0:0:
232,332,12256,1,0,2:0:0:0:
306,270,12377,6,0,B|318:273|318:273|387:243|387:243|425:250,1,100,4|0,2:0|2:0,2:0:0:0:
483,262,12619,2,0,B|472:266|472:266|322:184|322:184|281:193,1,200,8|2,2:0|2:0,2:0:0:0:
368,124,12982,1,0,2:0:0:0:
355,36,13103,1,8,2:0:0:0:
269,30,13224,1,0,2:0:0:0:
249,118,13345,6,0,B|231:127|231:127|180:112|180:112|160:84,1,100,2|0,2:0|2:0,2:0:0:0:
107,27,13587,2,0,B|95:5|95:5|34:146|34:146|90:115,1,200,8|2,2:0|2:0,2:0:0:0:
133,175,13950,1,0,2:0:0:0:
197,254,14071,1,8,2:0:0:0:
161,341,14192,1,0,2:0:0:0:
102,269,14313,6,0,B|89:265|89:265|20:289|20:289|-4:282,1,100,4|0,2:0|2:0,2:0:0:0:
264,120,14555,2,0,B|283:114|283:114|424:181|424:181|446:172,1,200,8|2,2:0|2:0,2:0:0:0:
192,131,14918,1,0,2:0:0:0:
131,186,15039,5,8,3:2:0:0:
128,193,15099,1,0,3:2:0:0:
126,199,15160,1,0,3:2:0:0:
123,204,15220,1,0,3:2:0:0:
121,211,15281,2,0,B|110:215|110:215|63:194|63:194|41:202,2,66.6666666666667,8|0|0,3:2|3:0|3:0,2:0:0:0:
130,204,15523,2,0,B|141:200|141:200|188:221|188:221|210:213,2,66.6666666666667,0|0|0,3:0|3:0|3:0,2:0:0:0:
129,216,15765,5,8,3:2:0:0:
93,170,15845,1,2,3:2:0:0:
107,119,15926,1,2,3:2:0:0:
147,94,16006,1,2,3:2:0:0:
163,60,16087,1,2,3:2:0:0:
152,32,16168,1,2,3:2:0:0:
139,33,16248,6,0,B|155:54|155:54|215:72|215:72|256:51,1,100,4|0,2:0|2:0,2:0:0:0:
310,21,16489,2,0,B|293:8|293:8|238:158|238:158|282:158,1,200,8|2,2:0|2:0,2:0:0:0:
341,108,16852,1,0,2:0:0:0:
430,206,16973,2,0,L|409:306,1,100,8|0,2:0|2:0,2:0:0:0:
344,350,17215,5,4,3:2:0:0:
294,365,17296,1,2,3:2:0:0:
247,340,17377,1,2,3:2:0:0:
242,304,17457,1,2,3:2:0:0:
256,282,17538,1,2,3:2:0:0:
273,277,17618,1,2,3:2:0:0:
281,285,17699,5,4,3:2:0:0:
260,265,17780,1,2,3:2:0:0:
221,267,17860,1,2,3:2:0:0:
182,292,17941,1,2,3:2:0:0:
131,303,18022,1,2,3:2:0:0:
80,280,18102,1,2,3:2:0:0:
58,227,18183,5,8,2:0:0:0:
145,223,18304,1,8,2:0:0:0:
166,141,18425,2,0,B|187:66|187:66|146:105,1,100,4|0,2:0|2:0,2:0:0:0:
79,117,18667,2,0,B|83:137|83:137|238:168|238:168|258:145,1,200,8|0,2:0|2:0,2:0:0:0:
298,87,19030,1,0,2:0:0:0:
398,155,19151,2,0,B|486:173|486:173|455:178,1,100,8|0,2:0|2:0,2:0:0:0:
427,243,19393,5,4,3:2:0:0:
393,274,19473,1,2,3:2:0:0:
407,324,19554,1,2,3:2:0:0:
461,325,19635,1,2,3:2:0:0:
464,318,19715,1,2,3:2:0:0:
450,319,19796,1,2,3:2:0:0:
454,329,19877,5,4,3:2:0:0:
417,314,19957,1,2,3:2:0:0:
370,328,20038,1,2,3:2:0:0:
328,360,20118,1,2,3:2:0:0:
268,368,20199,1,2,3:2:0:0:
215,340,20280,1,2,3:2:0:0:
207,284,20360,5,8,2:0:0:0:
113,313,20481,1,8,2:0:0:0:
24,269,20602,2,0,B|17:198|17:198|33:232,1,100,4|0,2:0|2:0,2:0:0:0:
18,340,20844,2,0,B|9:323|9:323|121:194|121:194|114:161,1,200,8|0,2:0|2:0,2:0:0:0:
59,135,21207,1,0,2:0:0:0:
26,73,21328,1,8,2:0:0:0:
82,24,21449,1,0,2:0:0:0:
148,56,21570,5,4,3:2:0:0:
173,100,21651,1,2,3:2:0:0:
225,111,21731,1,2,3:2:0:0:
273,90,21812,1,2,3:2:0:0:
267,79,21893,1,2,3:2:0:0:
255,82,21973,1,2,3:2:0:0:
260,95,22054,5,4,3:2:0:0:
292,69,22135,1,2,3:2:0:0:
339,72,22215,1,2,3:2:0:0:
377,112,22296,1,2,3:2:0:0:
426,135,22377,1,2,3:2:0:0:
483,121,22457,1,2,3:2:0:0:
508,68,22538,5,8,2:0:0:0:
426,34,22659,1,8,2:0:0:0:
367,118,22780,2,0,L|350:229,1,100,4|0,2:0|2:0,2:0:0:0:
431,265,23022,2,0,B|441:276|441:276|426:351|426:351|401:358,1,100,8|0,2:0|2:0,2:0:0:0:
121,321,23264,5,0,2:0:0:0:
193,297,23385,1,0,2:0:0:0:
209,226,23506,1,8,2:0:0:0:
176,160,23627,1,0,2:0:0:0:
107,129,23748,5,4,3:2:0:0:
76,90,23828,1,2,3:2:0:0:
91,36,23909,1,2,3:2:0:0:
136,27,23989,1,2,3:2:0:0:
139,41,24070,1,2,3:2:0:0:
131,46,24151,1,2,3:2:0:0:
128,37,24231,5,4,3:2:0:0:
180,33,24312,1,2,3:2:0:0:
233,52,24393,1,2,3:2:0:0:
265,101,24473,1,2,3:2:0:0:
317,127,24554,1,2,3:2:0:0:
370,112,24635,1,2,3:2:0:0:
393,57,24715,5,8,2:0:0:0:
477,20,24836,1,8,2:0:0:0:
483,121,24957,2,0,B|474:135|474:135|491:254|491:254|470:297,2,160,6|2|2,3:2|2:0|2:0,2:0:0:0:
309,275,25561,5,4,3:0:0:0:
307,268,25622,1,4,3:0:0:0:
305,261,25682,1,10,2:0:0:0:
234,251,25803,2,0,B|222:246|222:246|87:271|87:271|55:252,1,160,4|4,3:0|2:3,2:0:0:0:
18,88,26166,5,8,2:0:0:0:
95,135,26287,1,8,2:0:0:0:
182,101,26408,2,0,B|203:93|203:93|322:139|322:139|345:131,1,160,2|8,2:0|3:2,2:0:0:0:
336,131,26711,1,8,2:0:0:0:
337,121,26771,1,8,2:0:0:0:
339,111,26832,1,8,2:0:0:0:
340,101,26892,1,8,3:2:0:0:
308,30,27013,1,8,2:0:0:0:
419,26,27134,6,0,B|431:24|431:24|484:39|484:39|504:27,1,80,2|0,3:2|3:2,2:0:0:0:
291,196,27376,2,0,L|190:177,1,80,2|0,3:2|3:2,2:0:0:0:
24,340,27618,2,0,B|34:333|34:333|87:348|87:348|99:346,2,80.3306666666667,8|8|6,2:0|2:0|1:2,2:0:0:0:
24,331,28101,6,0,B|32:312|38:307|10:224|-3:292,1,69.9999999999999,0|0,2:0|2:0,2:0:0:0:
86,239,28343,2,0,B|107:226|137:237|162:283|204:309|223:295,1,140,8|0,2:0|2:0,2:0:0:0:
328,196,28827,5,0,1:0:0:0:
256,176,28948,2,0,B|249:164|228:179|207:226|249:237,1,69.9999999999999,0|0,2:0|1:0,2:0:0:0:
331,307,29190,5,0,2:0:0:0:
398,276,29311,2,0,P|412:178|424:117,1,140,8|0,2:0|2:0,2:0:0:0:
302,32,29795,5,0,1:0:0:0:
242,73,29916,1,0,2:0:0:0:
176,51,30037,2,0,B|151:36|126:58|67:92|50:72,1,100,8|0,2:0|2:0,2:0:0:0:
315,153,30279,5,0,1:0:0:0:
243,179,30400,2,0,B|213:200|194:224|179:279|137:261,1,100,8|0,2:0|2:0,2:0:0:0:
372,297,30642,5,0,2:0:0:0:
441,329,30763,1,8,2:0:0:0:
502,287,30884,2,0,B|509:249|492:233|481:181|497:165,1,100,8|0,2:0|1:0,2:0:0:0:
347,85,31126,5,0,2:0:0:0:
419,100,31247,2,0,B|412:62|429:46|440:-6|424:-22,1,100,8|0,2:0|1:0,2:0:0:0:
210,105,31489,5,8,2:0:0:0:
140,121,31610,2,0,B|122:116|85:125|32:132|36:120,1,100,8|0,2:0|1:0,2:0:0:0:
193,178,31851,2,0,B|147:185|88:275|186:350|212:264,1,200,8|0,2:0|2:0,2:0:0:0:
325,283,32214,5,10,2:0:0:0:
393,267,32335,1,2,2:0:0:0:
327,290,32456,1,2,2:0:0:0:
390,277,32577,2,0,B|420:272|443:286|434:305|461:314|496:307,1,100,2|0,2:0|1:0,2:0:0:0:
373,346,32819,2,0,B|344:356|265:281|345:184|370:196,1,200,4|4,3:0|2:3,2:0:0:0:
268,90,33182,5,10,2:0:0:0:
268,90,33303,1,2,2:0:0:0:
268,90,33424,1,2,2:0:0:0:
268,90,33545,2,0,B|294:66|368:78|369:138|307:112,1,100,2|0,2:0|1:0,2:0:0:0:
175,164,33787,5,0,2:0:0:0:
106,151,33908,2,0,B|76:147|68:149|10:167|1:157,1,100,8|0,2:0|2:0,2:0:0:0:
320,284,34150,5,0,1:0:0:0:
386,265,34271,2,0,B|407:260|420:262|446:288|478:300|494:295,1,100,8|0,2:0|2:0,2:0:0:0:
187,344,34513,5,0,2:0:0:0:
241,296,34634,2,0,P|257:219|288:78,1,200,8|0,2:0|1:0,2:0:0:0:
506,86,34997,5,8,2:0:0:0:
447,41,35118,2,0,B|423:35|393:41|353:76|339:57,1,100,0|0,1:0|2:0,2:0:0:0:
188,112,35360,5,8,2:0:0:0:
97,139,35480,1,8,2:0:0:0:
42,74,35601,2,0,B|67:45|141:62|102:230|66:205,1,200,4|0,1:2|1:0,2:0:0:0:
6,240,35964,1,0,2:0:0:0:
68,302,36085,5,10,2:0:0:0:
131,268,36206,2,0,B|157:252|189:263|206:297|206:297|206:288|206:288|247:342|249:343|304:346,1,200,2|0,2:0|2:0,2:0:0:0:
354,317,36569,1,0,1:0:0:0:
310,239,36690,5,2,2:0:0:0:
369,195,36811,2,0,B|398:187|402:186|424:224|483:222,1,100,2|0,1:2|2:0,2:0:0:0:
304,164,37053,2,0,B|249:173|191:92|274:-3|291:73,1,200,8|0,2:0|2:0,2:0:0:0:
221,122,37416,1,0,2:0:0:0:
152,66,37537,5,0,1:0:0:0:
82,85,37658,1,0,1:0:0:0:
135,139,37779,2,0,P|121:195|109:256,1,100,8|0,2:0|2:0,2:0:0:0:
347,189,38021,5,0,1:0:0:0:
355,266,38142,2,0,P|336:313|322:361,1,100,8|0,2:0|1:0,2:0:0:0:
283,237,38384,2,0,B|246:279|196:239|199:229,1,100,2|8,2:0|2:0,2:0:0:0:
216,55,38626,5,2,2:0:0:0:
285,35,38747,1,2,1:2:0:0:
351,62,38868,1,2,2:0:0:0:
407,114,38989,1,2,1:2:0:0:
353,70,39110,1,2,1:2:0:0:
407,122,39230,1,10,2:0:0:0:
481,127,39351,6,0,B|486:83|491:48|497:24,1,100,8|4,2:0|1:2,2:0:0:0:
505,193,39593,2,0,B|512:269|341:287|237:224|289:185,1,300,0|8,2:0|2:0,2:0:0:0:
247,120,40077,5,2,2:0:0:0:
192,69,40198,1,2,2:0:0:0:
118,67,40319,1,2,2:0:0:0:
52,106,40440,1,2,1:2:0:0:
116,74,40561,1,2,2:0:0:0:
55,115,40682,1,2,1:2:0:0:
64,191,40803,6,0,B|67:221|167:229|142:176,1,100,2|8,2:0|2:0,2:0:0:0:
176,303,41045,2,0,B|158:344|70:303|225:213|294:267|296:323,1,200,2|0,2:0|2:0,2:0:0:0:
357,287,41408,2,0,B|384:331|445:348|433:304,1,100,0|0,1:0|2:0,2:0:0:0:
505,232,41650,5,8,2:0:0:0:
464,171,41771,1,0,2:0:0:0:
393,153,41892,1,8,2:0:0:0:
322,175,42013,1,0,2:0:0:0:
250,203,42134,1,8,2:0:0:0:
176,188,42255,1,0,2:0:0:0:
118,138,42376,5,8,3:2:0:0:
107,92,42456,1,2,3:2:0:0:
142,62,42537,1,2,3:2:0:0:
182,71,42618,1,2,3:2:0:0:
190,84,42698,1,2,3:2:0:0:
184,95,42779,1,2,3:2:0:0:
176,94,42860,5,2,3:0:0:0:
210,117,42940,1,2,3:2:0:0:
263,124,43021,1,2,3:2:0:0:
300,94,43101,1,2,3:2:0:0:
344,82,43182,1,2,3:2:0:0:
375,100,43263,1,2,3:2:0:0:
376,115,43343,6,0,B|361:112|361:112|290:31|290:31|267:26,1,140,4|0,2:0|2:0,2:0:0:0:
455,110,43706,1,0,2:0:0:0:
420,178,43827,2,0,B|411:186|411:186|485:210,1,69.9999999999999,8|0,2:0|2:0,2:0:0:0:
267,280,44069,6,0,B|276:273|276:273|258:345,1,69.9999999999999,0|0,2:0|2:0,2:0:0:0:
193,298,44311,2,0,B|184:291|184:291|67:315|67:315|45:310,1,140,8|0,2:0|2:0,2:0:0:0:
64,237,44674,2,0,L|-16:224,1,69.9999999999999,0|8,2:0|2:0,2:0:0:0:
222,128,44916,5,0,2:0:0:0:
283,171,45037,2,0,B|294:167|294:167|404:194|404:194|437:176,1,140,0|8,2:0|2:0,2:0:0:0:
457,120,45521,6,0,B|487:97|462:54|447:124,1,69.9999999999999,0|0,2:0|2:0,2:0:0:0:
309,277,45763,6,0,B|279:254|304:211|319:281,1,69.9999999999999,8|0,2:0|2:0,2:0:0:0:
458,371,46005,6,0,B|488:348|463:305|448:375,1,69.9999999999999,0|0,2:0|2:0,2:0:0:0:
377,348,46247,6,0,B|394:362|447:354|536:282|471:237|435:259,1,200,8|0,2:0|2:0,2:0:0:0:
303,349,46610,2,0,B|251:335|210:379|263:384,1,100,0|8,2:0|2:0,2:0:0:0:
300,152,46851,5,0,2:0:0:0:
240,115,46972,2,0,B|224:104|206:101|170:159|131:135,1,100,0|0,2:0|2:0,2:0:0:0:
228,189,47214,6,0,B|246:186|246:186|390:196,1,140,12|0,2:0|2:0,2:0:0:0:
257,262,47577,2,0,B|246:266|246:266|164:258,1,69.9999999999999,0|8,2:0|2:0,2:0:0:0:
390,58,47819,5,0,2:0:0:0:
429,122,47940,2,0,B|465:168|465:168|464:144,1,69.9999999999999,0|0,2:0|2:0,2:0:0:0:
466,58,48182,2,0,B|439:59|439:59|350:105|350:105|321:101,1,140,8|0,2:0|2:0,2:0:0:0:
263,62,48545,2,0,B|247:57|247:57|297:41,1,69.9999999999999,0|8,2:0|2:0,2:0:0:0:
340,263,48787,5,0,2:0:0:0:
402,215,48908,2,0,B|418:210|418:210|280:171,1,140,0|8,2:0|2:0,2:0:0:0:
249,233,49392,6,0,B|241:259|165:238|217:219,1,69.9999999999999,0|0,2:0|2:0,2:0:0:0:
121,65,49634,6,0,B|147:58|167:135|124:99,1,69.9999999999999,8|0,2:0|2:0,2:0:0:0:
33,263,49876,6,0,B|14:243|70:187|61:242,1,69.9999999999999,0|0,2:0|2:0,2:0:0:0:
100,289,50118,6,0,B|92:301|-28:217|70:78|86:171,1,200,8|0,2:0|1:0,2:0:0:0:
132,201,50480,1,0,1:0:0:0:
412,96,50722,1,0,1:0:0:0:
412,96,50843,1,0,1:0:0:0:
412,96,50964,1,0,2:0:0:0:
470,44,51085,6,0,B|451:39|451:39|360:67|360:67|316:50,1,140,12|0,2:0|2:0,2:0:0:0:
272,22,51448,1,0,2:0:0:0:
304,136,51569,6,0,B|294:152|244:140|265:104|281:125,1,69.9999999999999,8|0,2:0|2:0,2:0:0:0:
366,195,51811,6,0,B|376:179|426:191|405:227|389:206,1,69.9999999999999,0|0,2:0|2:0,2:0:0:0:
289,214,52053,6,0,B|251:255|182:268|159:192|212:213,1,140,8|0,2:0|2:0,2:0:0:0:
238,273,52416,2,0,L|226:355,1,69.9999999999999,0|8,2:0|2:0,2:0:0:0:
81,247,52658,1,0,2:0:0:0:
81,247,52779,2,0,L|72:163,1,69.9999999999999,0|0,2:0|2:0,2:0:0:0:
82,106,53021,5,8,3:2:0:0:
118,87,53101,1,2,3:2:0:0:
163,95,53182,1,2,3:2:0:0:
181,125,53263,1,2,3:2:0:0:
210,141,53343,1,2,3:2:0:0:
229,134,53424,1,2,3:2:0:0:
228,122,53505,5,10,3:2:0:0:
231,168,53585,1,2,3:2:0:0:
274,196,53666,1,2,3:2:0:0:
326,188,53747,5,2,3:2:0:0:
295,186,53827,1,2,3:2:0:0:
274,202,53908,1,2,3:2:0:0:
306,211,53989,6,0,B|318:219|318:219|422:187|422:187|451:195,1,140,10|0,3:2|3:2,2:0:0:0:
422,261,54351,2,0,L|405:348,1,69.9999999999999,8|0,3:2|3:2,2:0:0:0:
196,350,54593,5,0,2:0:0:0:
124,367,54714,1,8,3:2:0:0:
73,311,54835,1,8,3:2:0:0:
102,242,54956,5,4,2:0:0:0:
17,111,55198,1,0,2:0:0:0:
153,31,55440,1,8,2:0:0:0:
253,157,55682,1,0,2:0:0:0:
406,368,55924,5,0,1:0:0:0:
491,237,56166,1,0,2:0:0:0:
491,237,56287,1,8,2:0:0:0:
355,157,56529,1,0,2:0:0:0:
355,157,56650,1,8,2:0:0:0:
355,157,56771,1,8,2:0:0:0:
355,157,56892,5,0,1:0:0:0:
47,226,57134,1,0,2:0:0:0:
408,23,57376,5,8,2:0:0:0:
460,78,57497,2,0,L|451:152,1,69.9999999999999,0|0,2:0|2:0,2:0:0:0:
381,284,57739,5,8,2:0:0:0:
320,327,57860,1,0,1:0:0:0:
312,254,57980,1,0,2:0:0:0:
374,209,58101,6,0,B|388:204|388:204|448:233,1,69.9999999999999,0|0,1:0|2:0,2:0:0:0:
257,34,58343,2,0,B|262:45|262:45|243:118,1,69.9999999999999,0|0,3:0|2:0,2:0:0:0:
124,211,58585,2,0,B|110:216|110:216|50:187,1,69.9999999999999,0|0,3:0|2:0,2:0:0:0:
25,128,58827,5,0,3:0:0:0:
30,120,58888,1,0,3:0:0:0:
36,111,58948,1,0,3:0:0:0:
123,6,59069,2,0,B|132:16|132:16|111:127|111:127|127:152,1,140,0|8,1:0|2:0,2:0:0:0:
215,317,59432,5,0,2:0:0:0:
300,358,59553,2,0,B|289:301|289:301|307:278,1,69.9999999999999,0|0,1:0|2:0,2:0:0:0:
363,262,59795,2,0,B|372:253|372:253|234:239,1,140,0|0,1:0|2:0,2:0:0:0:
174,233,60158,1,0,2:0:0:0:
236,155,60279,6,0,B|242:127|340:106|377:161|409:211|449:179|449:179|414:187|408:184|385:153,1,300,8|0,2:0|3:0,2:0:0:0:
391,158,60581,1,0,3:0:0:0:
391,150,60642,1,0,3:0:0:0:
435,93,61005,5,0,3:0:0:0:
433,86,61065,1,0,3:0:0:0:
430,79,61126,1,0,3:0:0:0:
385,26,61247,1,8,2:0:0:0:
317,46,61368,2,0,B|304:40|304:40|184:49|184:49|163:32,1,150,0|0,2:0|2:0,2:0:0:0:
134,124,61730,6,0,B|92:158|14:131|24:60|66:60,1,150,0|0,1:0|1:0,2:0:0:0:
123,208,62093,1,0,2:0:0:0:
190,178,62214,2,0,B|199:161|254:167|244:197,1,75.0000000000002,8|0,2:0|2:0,2:0:0:0:
228,264,62456,2,0,B|224:282|157:284|179:252,1,75.0000000000002,0|0,1:0|2:0,2:0:0:0:
302,251,62698,5,0,1:0:0:0:
354,303,62819,1,0,3:0:0:0:
351,309,62880,1,0,3:0:0:0:
347,314,62940,2,0,B|337:318|337:318|299:360|299:360|274:363,1,75.0000000000002,0|0,3:0|2:0,2:0:0:0:
487,281,63182,5,8,2:0:0:0:
424,235,63303,2,0,B|405:165|405:165|408:157|408:157|372:13,1,225.000000000001,0|0,2:0|1:0,2:0:0:0:
130,105,63908,6,0,B|103:130|55:79|81:78,1,75.0000000000002,2|0,2:0|2:0,2:0:0:0:
195,209,64150,2,0,B|170:199|143:241|169:271,1,75.0000000000002,10|0,2:0|2:0,2:0:0:0:
321,166,64392,2,0,B|333:153|325:121|278:117|247:139,1,75.0000000000002,2|0,2:0|2:0,2:0:0:0:
503,299,64634,5,0,3:2:0:0:
498,294,64694,1,0,3:2:0:0:
493,290,64755,1,0,3:2:0:0:
488,286,64815,1,0,3:2:0:0:
481,281,64876,2,0,B|482:280|468:277|468:277|418:294|418:294|388:281,1,75.0000000000002,0|0,3:2|2:0,2:0:0:0:
361,230,65118,2,0,B|370:232|370:232|388:347|388:347|370:380,1,150,8|0,3:2|3:2,2:0:0:0:
11,161,65601,5,0,3:2:0:0:
16,156,65662,1,0,3:2:0:0:
21,152,65722,1,0,3:2:0:0:
26,148,65783,1,0,3:2:0:0:
33,143,65843,2,0,B|32:142|46:139|46:139|96:156|96:156|126:143,1,75.0000000000002,0|0,3:2|3:2,2:0:0:0:
199,97,66085,5,8,3:2:0:0:
257,141,66206,1,0,3:2:0:0:
263,138,66267,1,0,3:2:0:0:
269,133,66327,1,0,3:2:0:0:
336,104,66448,1,0,3:2:0:0:
328,27,66569,5,0,3:2:0:0:
326,22,66630,1,0,3:2:0:0:
324,16,66690,1,0,3:2:0:0:
396,53,66811,2,0,B|386:64|386:64|359:188|359:188|387:236,1,150,0|8,1:0|2:0,2:0:0:0:
171,274,67174,5,0,2:0:0:0:
228,327,67295,2,0,B|236:323|236:323|282:348|282:348|314:345,1,75.0000000000002,2|0,2:0|2:0,2:0:0:0:
257,251,67537,2,0,B|236:254|236:254|162:376,1,150,2|2,2:0|2:0,2:0:0:0:
94,358,67900,5,0,2:0:0:0:
35,316,68021,1,8,2:0:0:0:
35,245,68142,1,0,2:0:0:0:
103,206,68263,1,2,2:0:0:0:
98,201,68323,1,0,2:0:0:0:
107,199,68384,2,0,B|109:206|109:206|101:260,2,37.5000000000001,0|0|0,2:0|2:0|2:0,2:0:0:0:
182,163,68747,5,2,2:0:0:0:
174,158,68807,1,2,2:0:0:0:
180,153,68868,1,2,2:0:0:0:
191,157,68928,1,0,2:0:0:0:
186,167,68989,1,8,2:0:0:0:
257,120,69110,2,0,B|244:114|244:114|124:123|124:123|103:106,1,150,0|0,2:0|2:0,2:0:0:0:
311,62,69472,5,2,2:0:0:0:
303,57,69533,1,2,2:0:0:0:
309,52,69593,1,2,2:0:0:0:
320,56,69654,1,2,2:0:0:0:
315,66,69714,1,2,1:2:0:0:
374,110,69835,1,0,2:0:0:0:
428,63,69956,2,0,B|449:53|481:80|518:104|520:70,1,75.0000000000002,8|0,2:0|2:0,2:0:0:0:
374,185,70198,2,0,B|353:195|321:168|284:144|282:178,1,75.0000000000002,8|0,2:0|2:0,2:0:0:0:
241,206,70440,6,0,B|231:202|231:202|125:232|125:232|90:222,1,150,4|0,3:2|3:0,2:0:0:0:
55,165,70803,1,0,2:0:0:0:
119,118,70924,2,0,B|135:102|135:102|122:182,1,75.0000000000002,8|0,2:0|2:0,2:0:0:0:
269,294,71166,2,0,L|253:379,1,75.0000000000002,0|0,1:0|2:0,2:0:0:0:
344,268,71408,6,0,B|354:264|354:264|460:294|460:294|495:284,1,150,0|2,1:0|2:0,2:0:0:0:
462,216,71771,1,0,2:0:0:0:
507,156,71892,1,10,2:0:0:0:
259,33,72134,5,2,2:0:0:0:
212,89,72255,1,0,2:0:0:0:
262,147,72376,1,4,2:0:0:0:
145,256,72618,5,8,2:0:0:0:
71,286,72739,1,8,3:2:0:0:
65,278,72799,1,0,3:2:0:0:
58,267,72860,2,0,B|67:249|67:249|25:146|25:146|39:112,1,150,0|0,3:2|3:2,2:0:0:0:
126,26,73343,5,8,3:2:0:0:
133,26,73404,1,0,3:2:0:0:
140,30,73464,1,0,3:2:0:0:
145,34,73525,1,0,3:2:0:0:
149,41,73585,1,0,3:2:0:0:
151,48,73646,1,0,3:2:0:0:
151,55,73706,1,0,3:2:0:0:
148,62,73767,1,0,3:2:0:0:
144,68,73827,1,0,3:2:0:0:
138,73,73888,1,0,3:2:0:0:
131,75,73948,1,0,3:2:0:0:
63,52,74069,5,8,3:2:0:0:
225,65,74190,1,8,3:2:0:0:
256,192,74311,12,0,75037,2:0:0:0:
237,276,75279,6,0,L|254:173,1,100,6|0,2:0|2:0,2:0:0:0:
197,128,75521,2,0,B|180:118|180:118|343:153|343:153|315:161,1,200,8|2,2:0|2:0,2:0:0:0:
269,98,75884,1,0,2:0:0:0:
255,4,76005,1,8,2:0:0:0:
348,0,76126,1,0,2:0:0:0:
412,60,76247,6,0,B|416:72|416:72|480:108|480:108|506:104,1,100,2|0,2:0|2:0,2:0:0:0:
476,14,76489,2,0,L|444:212,1,200,8|2,2:0|2:0,2:0:0:0:
420,298,76851,1,0,2:0:0:0:
335,321,76972,1,8,2:0:0:0:
358,236,77093,1,0,2:0:0:0:
271,260,77214,6,0,B|261:258|261:258|195:279|195:279|171:272,1,100,2|0,2:0|2:0,2:0:0:0:
235,348,77456,2,0,B|241:342|241:342|201:171|201:171|168:197,1,200,8|2,2:0|2:0,2:0:0:0:
121,219,77819,1,0,2:0:0:0:
121,219,77940,1,8,2:0:0:0:
48,238,78061,5,0,2:0:0:0:
8,178,78182,1,2,2:0:0:0:
30,115,78303,1,0,2:0:0:0:
90,84,78424,1,8,2:0:0:0:
158,97,78545,1,0,2:0:0:0:
40,206,78666,5,2,2:0:0:0:
36,149,78787,1,0,2:0:0:0:
75,115,78908,1,8,2:0:0:0:
127,118,79029,1,2,2:0:0:0:
194,159,79150,6,0,B|202:164|202:164|251:105|251:105|235:73,1,100,4|0,2:0|2:0,2:0:0:0:
178,25,79392,2,0,B|195:22|195:22|345:104|345:104|356:100,1,200,8|2,2:0|2:0,2:0:0:0:
396,178,79755,1,0,2:0:0:0:
375,269,79876,1,8,2:0:0:0:
309,216,79997,1,0,2:0:0:0:
393,187,80118,6,0,B|411:178|411:178|462:193|462:193|482:221,1,100,2|0,2:0|2:0,2:0:0:0:
512,278,80360,2,0,B|498:292|498:292|466:95,1,200,8|2,2:0|2:0,2:0:0:0:
489,26,80722,1,0,2:0:0:0:
405,0,80843,1,8,2:0:0:0:
347,76,80964,1,0,2:0:0:0:
256,39,81085,6,0,B|243:35|243:35|174:59|174:59|150:52,1,100,2|0,2:0|2:0,2:0:0:0:
84,88,81327,2,0,B|74:68|74:68|282:136,1,200,8|2,2:0|2:0,2:0:0:0:
326,216,81690,1,0,2:0:0:0:
242,261,81811,2,0,B|229:278|229:278|246:188,1,100,8|8,2:0|2:0,2:0:0:0:
187,337,82053,5,8,3:2:0:0:
174,339,82114,1,0,3:2:0:0:
162,341,82174,1,0,3:2:0:0:
150,343,82235,1,0,3:2:0:0:
137,345,82295,1,8,3:2:0:0:
105,279,82416,1,8,3:2:0:0:
126,348,82537,5,0,3:2:0:0:
113,350,82597,1,0,3:2:0:0:
101,352,82658,1,0,3:2:0:0:
89,354,82718,1,0,3:2:0:0:
76,356,82779,1,8,3:2:0:0:
33,292,82900,1,8,3:2:0:0:
61,217,83021,6,0,B|71:197|71:197|57:140|57:140|19:128,1,100,6|0,2:0|2:0,2:0:0:0:
225,55,83262,2,0,B|208:42|208:42|153:192|153:192|197:192,1,200,8|2,2:0|2:0,2:0:0:0:
253,164,83625,1,0,2:0:0:0:
331,123,83746,2,0,B|340:109|340:109|325:40|325:40|297:30,1,100,8|0,2:0|2:0,2:0:0:0:
431,78,83988,5,0,3:2:0:0:
464,102,84069,1,0,3:2:0:0:
463,144,84150,1,0,3:2:0:0:
424,166,84230,1,8,3:2:0:0:
410,164,84311,1,0,3:2:0:0:
408,154,84391,1,0,3:2:0:0:
429,164,84472,5,8,3:2:0:0:
410,187,84553,1,0,3:2:0:0:
418,230,84633,1,0,3:2:0:0:
449,259,84714,1,0,3:2:0:0:
464,301,84795,1,0,3:2:0:0:
436,341,84875,1,0,3:2:0:0:
397,350,84956,5,8,2:0:0:0:
305,361,85077,1,8,2:0:0:0:
232,307,85198,2,0,B|224:303|224:303|150:326|150:326|120:313,1,100,6|0,2:0|2:0,2:0:0:0:
147,228,85440,2,0,B|151:248|151:248|306:279|306:279|326:256,1,200,8|2,2:0|2:0,2:0:0:0:
341,174,85803,1,0,2:0:0:0:
292,100,85924,2,0,B|279:100|279:100|253:175|253:175|270:209,1,100,8|0,2:0|2:0,2:0:0:0:
177,142,86166,5,0,3:2:0:0:
139,123,86246,1,0,3:2:0:0:
109,129,86327,1,0,3:2:0:0:
93,140,86408,1,8,3:2:0:0:
77,143,86488,1,0,3:2:0:0:
63,140,86569,1,0,3:2:0:0:
59,134,86650,5,8,3:2:0:0:
88,155,86730,1,0,3:2:0:0:
134,154,86811,1,0,3:2:0:0:
167,127,86891,1,0,3:2:0:0:
210,101,86972,1,0,3:2:0:0:
260,105,87053,1,0,3:2:0:0:
298,139,87133,5,8,2:0:0:0:
389,133,87254,1,8,2:0:0:0:
446,65,87375,2,0,B|439:-6|439:-6|455:28,1,100,6|0,2:0|2:0,2:0:0:0:
354,55,87617,2,0,B|351:42|351:42|490:96|490:96|508:152,1,200,8|2,2:0|2:0,2:0:0:0:
480,222,87980,1,0,2:0:0:0:
390,262,88101,1,8,2:0:0:0:
306,229,88222,1,0,2:0:0:0:
230,181,88343,5,0,3:2:0:0:
188,180,88424,1,0,3:2:0:0:
148,204,88504,1,0,3:2:0:0:
115,216,88585,1,8,3:2:0:0:
87,208,88666,1,0,3:2:0:0:
78,195,88746,1,0,3:2:0:0:
78,186,88827,5,8,3:2:0:0:
83,215,88908,1,0,3:2:0:0:
116,224,88988,1,0,3:2:0:0:
148,195,89069,1,0,3:2:0:0:
147,149,89150,1,0,3:2:0:0:
109,116,89230,1,0,3:2:0:0:
60,116,89311,5,8,2:0:0:0:
116,39,89432,1,8,2:0:0:0:
198,72,89553,2,0,B|210:65|210:65|279:86|279:86|313:69,1,100,6|0,2:0|2:0,2:0:0:0:
372,47,89795,2,0,B|382:58|382:58|367:133|367:133|342:140,1,100,8|0,2:0|2:0,2:0:0:0:
424,191,90037,5,2,2:0:0:0:
352,215,90158,1,0,2:0:0:0:
336,286,90279,1,8,2:0:0:0:
369,352,90400,1,0,2:0:0:0:
290,377,90521,5,0,3:2:0:0:
243,356,90601,1,0,3:2:0:0:
201,362,90682,1,0,3:2:0:0:
162,369,90762,1,8,3:2:0:0:
136,363,90843,1,0,3:2:0:0:
125,350,90924,1,0,3:2:0:0:
133,341,91004,5,8,3:2:0:0:
113,315,91085,1,0,3:2:0:0:
77,296,91166,1,0,3:2:0:0:
33,293,91246,1,0,3:2:0:0:
88,281,91327,1,0,3:2:0:0:
126,243,91408,1,0,3:2:0:0:
120,184,91488,5,8,2:0:0:0:
59,110,91609,1,8,2:0:0:0:
128,40,91729,2,0,B|139:39|139:39|178:88,2,53.3333333333333,6|0|0,3:2|3:2|3:2,2:0:0:0:
180,80,91970,2,0,B|191:81|191:81|230:32,2,53.3333333333333,2|0|0,3:2|3:2|3:2,2:0:0:0:
229,37,92212,2,0,B|240:36|240:36|279:85,2,53.3333333333333,2|0|0,3:2|3:2|3:2,2:0:0:0:
266,79,92454,5,8,3:2:0:0:
300,105,92535,1,0,3:2:0:0:
298,144,92616,1,0,3:2:0:0:
269,175,92696,1,2,3:2:0:0:
256,217,92777,1,0,3:2:0:0:
265,259,92858,1,0,3:2:0:0:
299,280,92938,5,8,2:0:0:0:
386,306,93059,1,8,2:0:0:0:
426,227,93180,2,0,B|410:214|410:214|377:223,3,40,0|0|0|0,3:0|3:0|3:0|3:0,2:0:0:0:
434,229,93422,1,8,3:2:0:0:
442,230,93483,1,0,3:2:0:0:
448,233,93543,1,0,3:2:0:0:
457,234,93604,1,0,3:2:0:0:
467,237,93664,2,0,B|477:236|477:236|493:181|493:181|460:164,1,80,8|8,3:2|3:2,2:0:0:0:
396,100,93906,5,0,3:2:0:0:
301,76,94027,1,0,3:2:0:0:
288,72,94087,1,0,3:0:0:0:
273,71,94148,1,0,3:2:0:0:
184,85,94269,1,0,3:2:0:0:
113,139,94390,1,8,3:2:0:0:
93,225,94511,1,8,3:2:0:0:
141,310,94632,1,4,1:2:0:0:
150,316,94873,6,0,B|131:309|108:322|84:337|57:323,1,69.9999999999999,0|0,1:0|2:0,2:0:0:0:
211,264,95115,2,0,B|232:251|262:262|287:308|329:334|348:320,1,140,8|0,2:0|2:0,2:0:0:0:
480,159,95599,5,0,1:0:0:0:
407,154,95720,2,0,B|392:158|390:102|450:79|436:134,1,69.9999999999999,0|0,2:0|1:0,2:0:0:0:
293,94,95962,5,0,2:0:0:0:
336,30,96083,2,0,P|322:128|310:189,1,140,8|0,2:0|2:0,2:0:0:0:
178,62,96567,5,0,1:0:0:0:
144,130,96688,1,0,2:0:0:0:
105,68,96809,2,0,B|88:52|58:66|33:86|-8:72,1,100,8|0,2:0|2:0,2:0:0:0:
102,242,97051,5,0,1:0:0:0:
171,276,97172,2,0,B|196:272|219:287|225:308|274:306,1,100,8|0,2:0|1:0,2:0:0:0:
512,354,97414,5,0,2:0:0:0:
438,364,97535,1,8,2:0:0:0:
391,307,97656,2,0,B|398:269|381:253|370:201|386:185,1,100,0|0,2:0|1:0,2:0:0:0:
218,118,97898,5,0,2:0:0:0:
290,133,98019,2,0,B|283:95|300:79|311:27|295:11,1,100,0|0,1:0|1:0,2:0:0:0:
458,31,98261,5,8,2:0:0:0:
512,105,98382,2,0,B|494:100|457:109|404:116|408:104,1,100,8|4,2:0|1:2,2:0:0:0:
387,42,98623,2,0,B|396:35|485:85|487:187|531:186,1,200,0|0,2:0|2:0,2:0:0:0:
490,255,98986,5,10,2:0:0:0:
436,306,99107,1,2,2:0:0:0:
375,264,99228,1,2,2:0:0:0:
419,205,99349,2,0,B|438:228|437:255|416:257|422:284|446:311,1,100,2|0,2:0|1:0,2:0:0:0:
491,357,99591,2,0,B|528:343|376:281|260:375|323:383,1,200,0|0,2:0|2:0,2:0:0:0:
247,311,99954,5,10,2:0:0:0:
247,311,100075,1,2,2:0:0:0:
247,311,100196,1,2,2:0:0:0:
247,311,100317,2,0,B|271:285|259:211|199:210|225:272,1,100,2|0,2:0|1:0,2:0:0:0:
158,150,100559,5,2,2:0:0:0:
90,185,100680,1,10,2:0:0:0:
20,157,100801,1,2,2:0:0:0:
8,88,100922,2,0,B|12:79|52:22|103:40,1,100,0|8,1:0|2:0,2:0:0:0:
163,37,101164,2,0,B|195:32|234:46|248:92|291:78,1,100,0|0,1:0|2:0,2:0:0:0:
315,27,101406,2,0,B|294:45|266:154|374:175|396:137,1,200,8|0,2:0|1:0,2:0:0:0:
512,265,101769,5,0,2:0:0:0:
437,260,101890,2,0,B|413:254|383:260|343:295|329:276,1,100,2|0,1:2|1:0,2:0:0:0:
226,345,102132,5,8,2:0:0:0:
149,357,102252,1,8,2:0:0:0:
89,316,102373,2,0,B|118:292|209:343|219:395|284:369,1,200,4|0,1:2|1:0,2:0:0:0:
265,297,102736,1,0,2:0:0:0:
217,221,102857,5,8,2:0:0:0:
173,161,102978,2,0,B|158:121|73:173|55:154,1,100,2|0,2:0|2:0,2:0:0:0:
201,67,103220,2,0,B|244:83|263:156|231:166,1,100,2|0,2:0|1:0,2:0:0:0:
336,195,103462,5,0,2:0:0:0:
395,147,103583,2,0,B|424:139|428:138|450:176|509:174,1,100,0|0,1:0|2:0,2:0:0:0:
323,123,103825,2,0,B|353:132|411:194|341:299|352:332|312:262,1,200,8|0,2:0|2:0,2:0:0:0:
263,315,104188,1,0,2:0:0:0:
173,269,104309,5,0,1:0:0:0:
103,246,104430,1,0,2:0:0:0:
36,278,104551,2,0,B|-3:308|16:373|51:378,1,100,8|0,2:0|2:0,2:0:0:0:
248,220,104793,5,0,1:0:0:0:
218,157,104914,2,0,B|204:149|140:165|122:165|94:149,1,100,8|0,2:0|1:0,2:0:0:0:
349,139,105156,5,0,2:0:0:0:
409,95,105277,2,0,B|428:81|472:84|483:94|509:90,1,100,8|0,2:0|2:0,2:0:0:0:
269,74,105519,5,0,1:0:0:0:
204,37,105640,2,0,B|179:23|153:23|99:31|92:10,1,100,8|0,2:0|1:0,2:0:0:0:
40,103,105882,5,0,1:0:0:0:
34,176,106002,1,8,2:0:0:0:
104,149,106123,2,0,B|129:143|157:152|171:205|123:224,1,100,8|4,2:0|1:2,2:0:0:0:
78,267,106365,2,0,B|40:275|66:236|179:208|234:288,1,200,0|0,2:0|2:0,2:0:0:0:
273,338,106728,1,8,2:0:0:0:
412,80,106970,5,0,2:0:0:0:
340,54,107091,1,2,2:0:0:0:
271,92,107212,1,0,1:0:0:0:
223,152,107333,1,2,2:0:0:0:
274,101,107454,1,0,1:0:0:0:
223,161,107575,2,0,B|250:126|219:78|160:86|182:122,1,100,2|8,2:0|2:0,2:0:0:0:
190,18,107817,2,0,B|233:55|191:216|76:203|118:154,1,200,0|0,2:0|2:0,2:0:0:0:
8,251,108180,5,2,3:2:0:0:
59,243,108261,1,2,3:2:0:0:
99,264,108341,1,2,3:2:0:0:
123,298,108422,2,0,B|117:317|88:332|76:319|76:319|92:315|98:299,2,66.6666666666667,8|0|0,3:2|3:2|3:2,2:0:0:0:
197,286,108664,5,8,2:0:0:0:
269,285,108785,1,8,2:0:0:0:
330,323,108906,1,4,2:3:0:0:
393,363,109027,1,4,2:3:0:0:
467,366,109148,5,8,3:2:0:0:
502,340,109228,1,2,3:2:0:0:
508,303,109309,1,2,3:2:0:0:
486,267,109390,1,2,3:2:0:0:
466,233,109470,1,2,3:2:0:0:
468,206,109551,1,2,3:2:0:0:
484,187,109632,2,0,P|492:215|515:259,5,53.3333333333333,2|0|0|2|0|0,3:2|3:2|3:2|3:2|3:2|3:2,2:0:0:0:
440,129,110115,5,6,3:2:0:0:
403,116,110196,1,2,3:2:0:0:
364,118,110277,1,2,3:2:0:0:
333,139,110357,1,2,3:2:0:0:
308,170,110438,1,2,3:2:0:0:
277,190,110519,1,2,3:2:0:0:
242,193,110599,1,10,3:2:0:0:
217,182,110680,1,2,3:2:0:0:
207,165,110761,1,2,3:2:0:0:
214,153,110841,5,0,3:2:0:0:
176,186,110922,1,2,3:2:0:0:
136,192,111002,1,2,3:2:0:0:
101,177,111083,1,2,3:2:0:0:
78,153,111164,1,2,3:2:0:0:
55,142,111244,1,2,3:2:0:0:
32,145,111325,1,2,3:2:0:0:
17,158,111406,1,2,3:2:0:0:
18,175,111486,1,2,3:2:0:0:
29,184,111567,5,8,3:2:0:0:
7,160,111648,1,2,3:2:0:0:
13,129,111728,1,2,3:2:0:0:
46,105,111809,1,2,3:2:0:0:
89,113,111890,1,2,3:2:0:0:
126,135,111970,1,2,3:2:0:0:
171,131,112051,2,0,P|157:157|146:207,2,46.6666666666666,10|0|0,3:2|3:2|3:2,3:0:0:0:
233,78,112293,5,0,3:2:0:0:
268,102,112373,2,0,P|276:127|288:178,1,46.6666666666666,0|0,3:2|3:2,3:0:0:0:
279,226,112535,1,8,3:2:0:0:
249,261,112615,2,0,P|212:287|190:294,1,46.6666666666666,0|0,3:2|3:2,3:0:0:0:
347,188,112777,1,0,3:2:0:0:
390,193,112857,2,0,P|419:198|459:219,1,46.6666666666666,0|0,3:2|3:2,3:0:0:0:
506,220,113019,6,0,B|482:248|429:224|425:113|487:118,1,140,8|10,3:2|3:2,3:0:0:0:
460,59,113382,2,0,B|430:59|420:65|390:83|374:70,1,69.9999999999999,2|8,3:2|3:2,3:0:0:0:
207,3,113623,5,2,3:2:0:0:
137,27,113744,2,0,B|112:26|105:31|84:28,2,46.6666666666666,10|0|0,3:2|3:2|3:2,3:0:0:0:
192,120,113986,5,6,3:2:0:0:
212,168,114067,1,2,3:2:0:0:
198,216,114148,1,2,3:2:0:0:
169,255,114228,1,2,3:2:0:0:
126,267,114309,1,2,3:2:0:0:
96,256,114390,1,2,3:2:0:0:
84,238,114470,1,10,3:2:0:0:
83,217,114551,1,2,3:2:0:0:
95,207,114632,1,2,3:2:0:0:
103,213,114712,5,0,3:2:0:0:
130,195,114793,1,2,3:2:0:0:
178,193,114873,1,2,3:2:0:0:
218,223,114954,1,2,3:2:0:0:
260,250,115035,1,2,3:2:0:0:
308,248,115115,1,2,3:2:0:0:
348,225,115196,1,2,3:2:0:0:
361,203,115277,1,2,3:2:0:0:
357,186,115357,1,2,3:2:0:0:
344,179,115438,5,8,3:2:0:0:
365,221,115519,1,2,3:2:0:0:
412,236,115599,1,2,3:2:0:0:
460,224,115680,1,2,3:2:0:0:
482,191,115761,1,2,3:2:0:0:
484,158,115841,1,2,3:2:0:0:
475,140,115922,2,0,P|452:145|419:164,2,46.6666666666666,2|0|0,3:2|3:2|3:2,3:0:0:0:
472,62,116164,5,0,3:2:0:0:
443,42,116244,2,0,P|428:39|390:62,1,46.6666666666666,0|0,3:2|3:2,3:0:0:0:
319,44,116406,5,8,3:2:0:0:
292,78,116486,2,0,P|281:112|285:157,1,46.6666666666666,0|0,3:2|3:2,3:0:0:0:
201,160,116648,5,0,3:2:0:0:
216,188,116728,2,0,P|229:209|265:240,1,46.6666666666666,0|0,3:2|3:2,3:0:0:0:
293,278,116890,6,0,B|304:267|304:267|160:262,1,140,8|8,3:2|3:2,3:0:0:0:
116,297,117252,2,0,B|107:305|107:305|121:370,1,69.9999999999999,8|2,3:2|3:2,3:0:0:0:
121,115,117494,5,8,3:2:0:0:
59,80,117615,2,0,B|45:78|45:78|0:94,2,46.6666666666666,8|0|0,3:2|3:2|3:2,3:0:0:0:
201,57,117857,5,6,3:2:0:0:
243,42,117938,1,2,3:2:0:0:
290,58,118019,1,2,3:2:0:0:
322,95,118099,1,2,3:2:0:0:
360,120,118180,1,2,3:2:0:0:
406,122,118261,1,2,3:2:0:0:
440,97,118341,6,0,P|430:123|425:172,2,46.6666666666666,8|0|0,3:2|3:2|3:2,3:0:0:0:
492,180,118583,2,0,P|482:206|477:255,2,46.6666666666666,6|0|0,3:0|3:2|3:2,3:0:0:0:
415,273,118825,6,0,B|401:270|401:270|289:283|289:283|254:271,1,140,2|8,3:2|3:2,3:0:0:0:
226,337,119188,2,0,B|215:331|215:331|150:344,1,69.9999999999999,4|0,3:0|3:2,3:0:0:0:
179,97,119430,5,8,3:2:0:0:
113,131,119551,2,0,B|107:130|107:130|75:139|75:139|48:130,2,46.6666666666666,4|0|0,3:0|3:2|3:2,3:0:0:0:
274,106,119793,5,2,3:2:0:0:
306,78,119873,1,2,3:2:0:0:
352,79,119954,1,2,3:2:0:0:
385,106,120035,1,2,3:2:0:0:
425,125,120115,1,2,3:2:0:0:
477,120,120196,1,2,3:2:0:0:
511,85,120277,6,0,B|509:70|509:70|457:39,2,46.6666666666666,8|0|0,3:2|3:2|3:2,3:0:0:0:
420,15,120519,2,0,L|363:8,2,46.6666666666666,0|0|0,3:2|3:2|3:2,3:0:0:0:
324,166,120761,5,8,3:2:0:0:
356,201,120841,1,0,3:2:0:0:
364,260,120922,1,0,3:2:0:0:
329,302,121002,1,8,3:2:0:0:
281,316,121083,1,0,3:2:0:0:
247,299,121164,1,0,3:2:0:0:
244,284,121244,5,8,3:2:0:0:
260,341,121325,1,0,3:2:0:0:
210,381,121406,1,0,3:2:0:0:
158,376,121486,1,8,3:2:0:0:
134,342,121567,1,0,3:2:0:0:
136,313,121648,1,0,3:2:0:0:
146,303,121728,5,4,1:2:0:0:
52,158,121970,1,0,1:0:0:0:
351,48,122212,1,8,2:0:0:0:
435,201,122454,1,8,2:0:0:0:
235,182,122696,5,0,1:0:0:0:
499,83,122938,1,0,2:0:0:0:
499,83,123059,1,8,2:0:0:0:
443,366,123301,1,0,2:0:0:0:
443,366,123422,1,8,2:0:0:0:
398,305,123543,1,8,2:0:0:0:
470,295,123664,5,0,1:0:0:0:
267,380,123906,1,0,1:0:0:0:
110,131,124148,5,8,3:2:0:0:
119,142,124208,1,8,3:2:0:0:
119,154,124269,1,8,3:2:0:0:
113,167,124329,1,8,3:2:0:0:
103,171,124390,2,0,B|92:171|92:171|76:177|76:177|46:178,3,35,10|0|0|0,3:2|3:2|3:2|3:2,2:0:0:0:
194,169,124632,5,8,3:2:0:0:
195,180,124692,2,0,B|202:186|202:186|288:170,1,69.9999999999999,8|0,3:2|3:2,2:0:0:0:
325,212,124873,5,4,3:0:0:0:
323,221,124934,1,4,3:0:0:0:
320,231,124994,1,8,3:2:0:0:
318,241,125055,2,0,L|402:259,1,69.9999999999999,8|0,3:2|3:2,2:0:0:0:
458,244,125236,5,8,3:2:0:0:
504,179,125357,1,8,2:0:0:0:
484,110,125478,1,8,2:0:0:0:
420,80,125599,6,0,B|403:79|387:84|361:103|328:91,1,69.9999999999999,4|0,2:0|2:0,2:0:0:0:
302,43,125841,2,0,B|344:74|305:136|199:120|234:74,1,140,0|8,1:0|2:0,2:0:0:0:
87,314,126325,6,0,B|110:304|140:316|150:344|180:335,1,69.9999999999999,0|0,2:0|2:0,2:0:0:0:
216,294,126567,2,0,B|238:285|294:304|311:353|373:342,1,140,0|0,1:0|2:0,2:0:0:0:
354,335,127051,6,0,B|328:304|210:294|156:376|85:350|66:315,1,300,8|0,2:0|2:0,2:0:0:0:
71,310,127535,5,0,1:0:0:0:
28,196,127777,1,0,2:0:0:0:
154,104,128019,1,8,2:0:0:0:
264,177,128261,1,0,1:0:0:0:
260,305,128502,5,2,2:0:0:0:
132,219,128744,1,2,1:2:0:0:
471,101,128986,1,8,2:0:0:0:
430,242,129228,1,8,2:0:0:0:
266,28,129470,5,4,2:0:0:0:
266,28,129712,2,0,P|260:71|250:175,1,140,0|8,1:0|2:0,2:0:0:0:
27,264,130196,5,0,2:0:0:0:
150,257,130438,2,0,P|194:255|241:254,1,69.9999999999999,0|0,1:0|2:0,2:0:0:0:
417,277,130680,6,0,B|422:262|455:238|473:259|443:275,1,69.9999999999999,2|0,1:2|2:0,2:0:0:0:
320,139,130922,6,0,B|335:135|372:152|363:178|334:160,1,69.9999999999999,10|0,2:0|2:0,2:0:0:0:
491,71,131164,6,0,B|501:82|505:123|478:128|479:94,1,69.9999999999999,2|0,1:2|2:0,2:0:0:0:
430,177,131406,5,10,2:0:0:0:
430,177,131648,2,0,B|415:157|365:180|323:214|278:189,1,140,0|0,1:0|1:0,2:0:0:0:
479,98,132132,6,0,B|478:128|505:123|501:82|491:71,1,69.9999999999999,10|0,2:0|2:0,2:0:0:0:
338,162,132373,6,0,B|363:178|372:152|335:135|320:139,1,69.9999999999999,2|0,1:2|2:0,2:0:0:0:
446,272,132615,6,0,B|473:259|455:238|422:262|417:277,1,69.9999999999999,2|0,1:2|2:0,2:0:0:0:
433,360,132857,5,10,2:0:0:0:
436,355,132918,2,0,B|413:340|382:360|348:371|307:355,1,105,0|0,2:0|1:0,2:0:0:0:
45,172,133341,6,0,B|74:170|96:206|62:236,1,69.9999999999999,4|0,2:0|2:0,2:0:0:0:
21,287,133583,2,0,B|0:275|56:237|157:243|141:297,1,140,0|8,1:0|2:0,2:0:0:0:
482,150,134067,5,0,2:0:0:0:
365,112,134309,2,0,B|325:101|276:153|227:173|217:152,1,140,0|0,1:0|2:0,2:0:0:0:
82,30,134793,2,0,B|122:19|171:71|220:91|230:70,1,140,8|0,2:0|2:0,2:0:0:0:
104,216,135277,5,0,1:0:0:0:
104,216,135519,2,0,B|41:251|5:143|92:118|80:160,1,140,0|8,2:0|2:0,2:0:0:0:
88,322,136002,1,0,1:0:0:0:
324,379,136244,5,0,2:0:0:0:
499,319,136486,1,0,1:0:0:0:
390,35,136728,1,8,2:0:0:0:
217,94,136970,1,8,2:0:0:0:
359,207,137212,5,4,2:0:0:0:
359,207,137454,2,0,B|396:186|434:201|450:228|499:212,1,140,0|8,1:0|2:0,2:0:0:0:
260,272,137938,5,0,2:0:0:0:
142,320,138180,2,0,P|104:319|57:317,1,69.9999999999999,0|0,1:0|2:0,2:0:0:0:
41,215,138422,6,0,B|27:197|15:162|54:128|40:191,1,69.9999999999999,2|0,1:2|2:0,2:0:0:0:
187,97,138664,6,0,B|195:75|219:47|268:64|207:84,1,69.9999999999999,10|0,2:0|2:0,3:0:0:0:
388,106,138906,6,0,B|410:102|446:109|456:160|409:117,1,69.9999999999999,2|0,1:2|1:2,3:0:0:0:
324,62,139148,5,8,2:0:0:0:
324,62,139390,2,0,P|346:117|381:221,1,140,0|0,1:0|1:0,2:0:0:0:
24,356,139873,5,10,2:0:0:0:
140,302,140115,1,2,2:0:0:0:
184,295,140196,1,0,2:0:0:0:
229,310,140277,1,0,2:0:0:0:
258,334,140357,1,2,1:2:0:0:
234,342,140438,1,0,2:0:0:0:
217,356,140519,1,0,2:0:0:0:
213,368,140599,5,2,2:0:0:0:
194,338,140680,1,0,2:0:0:0:
209,295,140761,1,2,2:0:0:0:
245,264,140841,1,2,1:2:0:0:
261,206,140922,1,0,2:0:0:0:
249,146,141002,1,2,2:0:0:0:
211,105,141083,6,0,B|194:82|151:74|126:109|126:109|137:67|233:68|308:91|338:156|338:202|338:213|316:306|290:323|290:323|337:274|370:256|403:277|406:313|429:320|487:338|537:311|539:285|505:242|474:285,1,800,6|8,2:0|2:0,2:0:0:0:
419,238,142535,2,0,B|370:224|330:245|285:262|260:236,1,140,0|0,1:0|2:0,2:0:0:0:
182,168,143019,6,0,B|139:124|277:113|290:248|265:311|210:349|135:376|59:328|89:277,1,400,2|0,2:0|2:0,2:0:0:0:
272,99,143744,2,0,B|296:76|375:95|390:132|446:138|481:116,1,200,0|8,1:0|2:0,2:0:0:0:
481,110,144228,2,0,B|444:89|393:105|373:161|332:136,1,140,0|8,1:0|2:0,2:0:0:0:
267,109,144712,1,0,1:0:0:0:
349,52,144954,6,2,B|414:52|412:-4|295:3|275:115|278:198|324:248,1,300,6|0,2:0|2:0,2:0:0:0:
380,262,145438,6,2,B|388:256|388:256|407:271|407:271|423:264|423:264|428:269|428:269|438:267,1,60.0000000000001,2|0,2:0|2:0,2:0:0:0:
497,239,145922,5,10,2:0:0:0:
477,136,146164,2,0,B|465:110|412:139|362:175|336:142,1,140,0|2,1:0|2:0,2:0:0:0:
88,344,146648,5,8,2:0:0:0:
68,264,146890,2,0,B|83:252|135:258|149:290|186:298|212:282,1,140,0|2,1:0|1:2,2:0:0:0:
342,349,147373,5,10,2:0:0:0:
419,248,147615,1,0,1:0:0:0:
335,151,147857,1,0,1:2:0:0:
270,128,147978,1,0,2:0:0:0:
203,152,148099,1,0,1:2:0:0:
138,181,148220,1,0,2:0:0:0:
66,183,148341,1,2,1:2:0:0:
6,127,148462,1,2,2:0:0:0:
12,43,148583,1,2,1:2:0:0:
92,6,148704,1,2,2:0:0:0:
189,21,148825,6,2,B|220:41|249:100|240:172|216:207|216:207|241:195|241:195|220:222|195:261|167:346|212:374|242:345,2,420,6|0|2,2:0|1:0|2:0,2:0:0:0:
175,20,150761,2,2,B|138:15|51:102|194:228|370:196|420:71|376:63,2,420,4|0|8,2:0|1:0|2:0,2:0:0:0:
265,49,152696,5,0,1:2:0:0:
300,114,152817,1,0,2:0:0:0:
281,173,152938,1,0,1:2:0:0:
237,191,153059,1,0,2:0:0:0:
237,265,153180,5,2,2:0:0:0:
168,277,153301,1,0,2:0:0:0:
122,262,153422,1,2,1:2:0:0:
164,201,153543,5,0,2:0:0:0:
233,185,153664,1,10,2:0:0:0:
296,219,153785,1,0,2:0:0:0:
338,255,153906,1,2,1:2:0:0:
381,268,154027,1,0,2:0:0:0:
421,256,154148,6,0,P|413:312|409:349,1,69.9999999999999,6|0,2:0|2:0,2:0:0:0:
489,334,154390,2,0,P|493:299|498:264,1,69.9999999999999,2|2,2:0|2:0,2:0:0:0:
411,80,154632,5,6,1:2:0:0:
224,33,154873,1,0,1:2:0:0:
138,337,155115,1,0,1:2:0:0:
325,384,155357,1,0,1:2:0:0:
299,156,155599,5,2,2:0:0:0:
251,142,155680,1,0,2:0:0:0:
208,156,155761,1,0,2:0:0:0:
187,182,155841,1,10,2:0:0:0:
219,186,155922,1,0,2:0:0:0:
240,199,156002,1,0,2:0:0:0:
250,212,156083,5,8,2:0:0:0:
214,206,156164,1,0,2:0:0:0:
173,231,156244,1,0,2:0:0:0:
137,251,156325,1,8,2:0:0:0:
90,249,156406,1,0,2:0:0:0:
50,224,156486,1,0,2:0:0:0:
37,180,156567,1,6,2:0:0:0:
37,180,156809,6,0,P|36:117|36:69,1,100,4|0,2:3|2:0,2:0:0:0:
296,276,157051,2,0,P|296:325|297:375,1,100,10|0,2:0|2:0,2:0:0:0:
159,139,157293,1,2,2:0:0:0:
159,139,157414,2,0,B|200:115|255:122|289:159|372:138,1,200,6|0,2:3|2:0,2:0:0:0:
468,151,157777,6,0,P|491:96|515:50,1,100,0|0,1:0|2:0,2:0:0:0:
418,257,158019,2,0,P|457:273|526:309,1,100,10|0,2:0|2:0,2:0:0:0:
233,221,158261,1,2,2:0:0:0:
233,221,158382,2,0,B|182:213|124:257|74:306|27:288,1,200,6|0,2:3|2:0,2:0:0:0:
216,303,158744,6,0,P|248:341|283:390,1,100,4|0,2:3|2:0,2:0:0:0:
126,163,158986,2,0,P|104:120|56:60,1,100,8|0,2:0|2:0,2:0:0:0:
285,122,159228,1,2,2:0:0:0:
285,122,159349,2,0,B|336:109|384:121|455:170|510:148,1,200,6|0,2:3|2:0,2:0:0:0:
457,42,159712,5,0,1:0:0:0:
427,367,159954,1,8,2:0:0:0:
101,338,160196,1,0,1:0:0:0:
128,13,160438,1,4,1:2:0:0:
128,13,160922,5,8,2:0:0:0:
208,117,161164,1,0,2:0:0:0:
100,204,161406,1,0,1:0:0:0:
14,106,161648,1,0,1:0:0:0:
312,6,161890,5,8,2:0:0:0:
312,6,162132,1,0,2:0:0:0:
437,358,162373,5,8,2:0:0:0:
386,181,162615,1,0,1:0:0:0:
478,141,162857,1,0,1:0:0:0:
478,262,163099,5,8,2:0:0:0:
207,349,163341,1,0,1:0:0:0:
174,265,163583,1,0,1:0:0:0:
259,272,163825,5,8,2:0:0:0:
118,333,164067,1,0,1:0:0:0:
38,56,164309,1,4,2:0:0:0:
38,56,164551,6,0,P|66:51|144:36,1,100,6|0,2:3|2:0,2:0:0:0:
399,155,164793,2,0,P|427:150|505:135,1,100,8|0,2:0|2:0,2:0:0:0:
262,42,165035,1,2,2:0:0:0:
262,42,165156,2,0,P|273:124|291:270,1,200,6|0,2:3|2:0,2:0:0:0:
385,292,165519,6,0,P|413:287|491:272,1,100,0|0,1:0|2:0,2:0:0:0:
177,200,165761,2,0,P|127:209|78:218,1,100,8|0,2:0|2:0,2:0:0:0:
282,346,166002,1,2,1:2:0:0:
282,346,166123,2,0,P|271:264|267:224,1,100,6|0,2:3|1:0,2:0:0:0:
278,240,166486,6,0,P|270:158|265:112,1,100,4|0,2:0|2:0,2:0:0:0:
217,86,166728,1,8,2:0:0:0:
217,86,166849,2,0,P|158:97|103:107,1,100,2|0,2:0|2:0,2:0:0:0:
302,74,167091,2,0,P|383:64|524:48,1,200,6|0,2:3|2:0,2:0:0:0:
507,125,167454,5,0,1:0:0:0:
23,204,167696,1,8,2:0:0:0:
509,312,167938,1,0,1:0:0:0:
31,383,168180,1,4,1:2:0:0:
31,383,168664,6,0,P|26:320|20:259,1,100,8|0,2:0|2:0,2:0:0:0:
198,169,168906,2,0,P|193:106|187:45,1,100,4|0,2:3|2:0,2:0:0:0:
83,180,169148,2,0,B|109:160|200:179|232:241|265:266|294:213,1,200,0|0,1:0|1:0,2:0:0:0:
512,298,169632,2,0,B|486:278|395:297|363:359|330:384|301:331,1,200,8|0,2:0|1:0,2:0:0:0:
34,71,170115,5,8,2:0:0:0:
349,30,170357,1,0,1:0:0:0:
286,138,170599,1,0,1:0:0:0:
439,132,170841,5,8,2:0:0:0:
153,17,171083,1,0,1:0:0:0:
193,136,171325,1,0,1:0:0:0:
267,53,171567,5,8,2:0:0:0:
238,372,171809,1,8,2:0:0:0:
7,251,172535,5,2,2:0:0:0:
75,225,172776,1,2,2:0:0:0:
156,235,172938,1,2,2:0:0:0:
156,235,173018,1,2,2:0:0:0:
221,277,173180,1,2,2:0:0:0:
221,277,173260,1,2,2:0:0:0:
254,153,173502,5,2,2:0:0:0:
316,195,173744,1,2,2:0:0:0:
400,193,173905,1,2,2:0:0:0:
400,193,173986,1,2,2:0:0:0:
461,148,174147,1,2,2:0:0:0:
461,148,174228,1,2,2:0:0:0:
320,34,174470,5,2,2:0:0:0:
249,7,174712,1,2,2:0:0:0:
173,12,174873,1,2,2:0:0:0:
173,12,174954,1,2,2:0:0:0:
108,52,175115,1,2,2:0:0:0:
108,52,175196,1,2,2:0:0:0:
62,228,175438,5,2,2:0:0:0:
136,239,175599,1,2,2:0:0:0:
136,239,175680,1,2,2:0:0:0:
208,252,175841,1,2,2:0:0:0:
208,252,175922,1,2,2:0:0:0:
285,302,176083,5,2,2:0:0:0:
285,302,176164,1,2,2:0:0:0:
378,276,176325,1,2,2:0:0:0:
378,276,176405,1,4,2:0:0:0:
378,276,176647,5,2,2:0:0:0:
457,272,176809,1,2,2:0:0:0:
457,272,176889,1,2,2:0:0:0:
501,209,177051,1,2,2:0:0:0:
501,209,177131,1,2,2:0:0:0:
453,88,177373,5,2,2:0:0:0:
381,65,177535,1,2,2:0:0:0:
381,65,177615,1,2,2:0:0:0:
306,70,177776,1,2,2:0:0:0:
306,70,177857,1,2,2:0:0:0:
287,149,178018,5,2,2:0:0:0:
287,149,178099,1,2,2:0:0:0:
220,182,178260,1,2,2:0:0:0:
220,182,178341,1,2,2:0:0:0:
111,313,178583,5,2,2:0:0:0:
186,338,178744,1,2,2:0:0:0:
263,316,178986,5,2,2:0:0:0:
263,316,179067,1,2,2:0:0:0:
317,260,179470,5,2,2:0:0:0:
389,251,179631,1,2,2:0:0:0:
458,275,179793,1,2,2:0:0:0:
482,172,180035,6,2,L|486:122,2,50,2|2|4,2:0|2:0|2:0,2:0:0:0:
391,74,180518,5,2,2:0:0:0:
322,99,180680,1,2,2:0:0:0:
322,99,180760,1,2,2:0:0:0:
244,89,180922,1,2,2:0:0:0:
244,89,181002,1,2,2:0:0:0:
257,224,181244,5,2,2:0:0:0:
189,194,181405,1,2,2:0:0:0:
189,194,181486,1,2,2:0:0:0:
112,195,181647,1,2,2:0:0:0:
112,195,181728,1,2,2:0:0:0:
41,230,181889,1,2,2:0:0:0:
41,230,181970,1,2,2:0:0:0:
226,338,182212,5,2,2:0:0:0:
304,354,182454,1,2,2:0:0:0:
375,324,182615,1,2,2:0:0:0:
375,324,182696,1,2,2:0:0:0:
406,254,182857,1,2,2:0:0:0:
406,254,182938,1,2,2:0:0:0:
417,103,183180,5,2,2:0:0:0:
349,73,183341,1,2,2:0:0:0:
349,73,183422,1,2,2:0:0:0:
272,64,183583,1,2,2:0:0:0:
272,64,183664,1,2,2:0:0:0:
198,81,183825,1,2,2:0:0:0:
198,81,183905,1,2,2:0:0:0:
47,224,184147,5,2,2:0:0:0:
115,249,184389,1,2,2:0:0:0:
190,237,184551,1,2,2:0:0:0:
190,237,184631,1,2,2:0:0:0:
257,205,184793,1,2,2:0:0:0:
257,205,184873,1,2,2:0:0:0:
288,353,185115,5,2,2:0:0:0:
346,303,185357,1,2,2:0:0:0:
420,294,185518,1,2,2:0:0:0:
420,294,185599,1,2,2:0:0:0:
491,311,185760,1,2,2:0:0:0:
491,311,185841,1,2,2:0:0:0:
493,157,186083,5,2,2:0:0:0:
424,186,186325,1,0,2:0:0:0:
350,189,186567,1,2,2:0:0:0:
285,149,186809,1,0,2:0:0:0:
256,82,187051,1,2,2:0:0:0:
278,10,187293,1,0,2:0:0:0:
56,88,187535,5,8,3:2:0:0:
103,98,187615,1,0,3:2:0:0:
137,131,187696,1,0,3:2:0:0:
145,178,187776,1,8,3:2:0:0:
130,228,187857,1,0,3:2:0:0:
90,261,187938,1,0,3:2:0:0:
44,266,188018,6,0,B|64:256|64:256|121:270|121:270|133:308,1,100,6|0,2:0|2:0,2:0:0:0:
202,378,188259,2,0,B|223:368|223:368|249:219|249:219|219:183,1,200,8|2,2:0|2:0,2:0:0:0:
219,111,188622,1,0,2:0:0:0:
266,23,188743,2,0,B|278:8|278:8|337:3|337:3|369:21,1,100,8|0,2:0|2:0,2:0:0:0:
460,101,188985,5,0,3:2:0:0:
412,96,189066,1,2,3:2:0:0:
376,126,189147,1,2,3:2:0:0:
374,169,189227,1,10,3:2:0:0:
397,195,189308,1,2,3:2:0:0:
420,198,189388,1,2,3:2:0:0:
431,188,189469,5,8,3:2:0:0:
393,174,189550,1,2,3:2:0:0:
350,197,189630,1,2,3:2:0:0:
308,225,189711,1,2,3:2:0:0:
264,226,189792,1,2,3:2:0:0:
238,210,189872,1,2,3:2:0:0:
233,188,189953,5,8,2:0:0:0:
150,147,190074,1,8,2:0:0:0:
57,175,190195,2,0,B|49:184|49:184|61:263|61:263|72:267,1,100,6|0,2:0|2:0,2:0:0:0:
148,304,190437,2,0,B|161:289|161:289|-3:315|-3:315|32:338,1,200,8|2,2:0|2:0,2:0:0:0:
199,373,190800,1,0,2:0:0:0:
280,333,190921,2,0,B|280:320|280:320|355:294|355:294|389:311,1,100,8|0,2:0|2:0,2:0:0:0:
362,218,191163,5,0,3:2:0:0:
405,208,191243,1,2,3:2:0:0:
448,229,191324,1,2,3:2:0:0:
462,262,191405,1,10,3:2:0:0:
459,291,191485,1,2,3:2:0:0:
445,309,191566,1,2,3:2:0:0:
432,309,191647,5,8,3:2:0:0:
471,311,191727,1,2,3:2:0:0:
504,277,191808,1,2,3:2:0:0:
512,228,191888,1,2,3:2:0:0:
494,174,191969,1,2,3:2:0:0:
457,144,192050,1,2,3:2:0:0:
405,134,192130,5,8,2:0:0:0:
432,45,192251,1,8,2:0:0:0:
345,4,192372,2,0,B|328:0|328:0|260:30|260:30|224:22,1,100,6|0,2:0|2:0,2:0:0:0:
131,105,192614,2,0,B|120:91|120:91|283:133|283:133|255:147,1,200,8|2,2:0|2:0,2:0:0:0:
204,215,192977,1,0,2:0:0:0:
115,188,193098,1,8,2:0:0:0:
28,216,193219,1,0,2:0:0:0:
6,300,193340,5,0,3:2:0:0:
46,325,193421,1,2,3:2:0:0:
90,331,193501,1,2,3:2:0:0:
134,322,193582,1,10,3:2:0:0:
162,308,193663,1,2,3:2:0:0:
192,304,193743,1,2,3:2:0:0:
205,313,193824,5,8,3:2:0:0:
187,296,193905,1,2,3:2:0:0:
207,265,193985,1,2,3:2:0:0:
245,267,194066,1,2,3:2:0:0:
271,292,194147,1,2,3:2:0:0:
311,312,194227,1,2,3:2:0:0:
351,310,194308,5,8,2:0:0:0:
423,250,194429,1,8,2:0:0:0:
502,296,194550,2,0,B|492:307|492:307|506:380|506:380|482:391,1,100,6|0,2:0|2:0,2:0:0:0:
341,228,194792,2,0,B|351:217|351:217|337:144|337:144|361:133,1,100,8|0,2:0|2:0,2:0:0:0:
378,69,195034,5,2,2:0:0:0:
314,37,195155,1,2,2:0:0:0:
244,55,195276,1,8,2:0:0:0:
199,115,195397,1,2,2:0:0:0:
212,188,195518,5,0,3:2:0:0:
200,235,195598,1,2,3:2:0:0:
160,257,195679,1,2,3:2:0:0:
113,254,195759,1,10,3:2:0:0:
97,237,195840,1,2,3:2:0:0:
97,222,195921,1,2,3:2:0:0:
109,215,196001,5,8,3:2:0:0:
152,209,196082,1,2,3:2:0:0:
192,242,196163,1,2,3:2:0:0:
231,271,196243,1,2,3:2:0:0:
280,271,196324,1,2,3:2:0:0:
312,250,196405,1,2,3:2:0:0:
316,227,196485,5,8,2:0:0:0:
402,272,196606,1,8,2:0:0:0:
472,225,196727,2,0,B|471:213|471:213|478:192|478:192|466:158,2,46.6666666666666,6|0|0,3:2|3:2|3:2,2:0:0:0:
472,225,196968,2,0,B|462:231|462:231|440:236|440:236|416:263,2,46.6666666666666,2|0|0,3:2|3:2|3:2,2:0:0:0:
472,225,197210,2,0,B|482:230|482:230|497:246|497:246|533:253,2,46.6666666666666,2|0|0,3:2|3:2|3:2,2:0:0:0:
388,154,197452,5,8,3:2:0:0:
362,120,197533,1,0,3:2:0:0:
323,122,197614,1,0,3:2:0:0:
292,151,197694,1,2,3:2:0:0:
250,164,197775,1,0,3:2:0:0:
208,155,197856,1,0,3:2:0:0:
174,129,197936,2,0,B|163:137|163:137|151:177|151:177|162:211,1,69.9999999999999,8|8,2:0|2:0,2:0:0:0:
77,270,198178,6,0,B|79:263|79:263|65:217,3,35,2|0|0|0,3:2|3:2|3:2|3:2,3:0:0:0:
74,280,198420,1,8,3:2:0:0:
70,287,198481,1,0,3:2:0:0:
63,292,198541,1,0,3:2:0:0:
54,292,198602,1,0,3:2:0:0:
45,289,198662,2,0,B|43:296|43:296|57:342,3,35,2|0|0|0,3:2|3:2|3:2|3:2,3:0:0:0:
48,284,198904,1,8,3:2:0:0:
52,280,198964,1,0,3:2:0:0:
57,277,199025,1,0,3:2:0:0:
63,275,199085,1,0,3:2:0:0:
68,274,199146,1,2,3:2:0:0:
74,275,199206,1,0,3:2:0:0:
80,276,199267,1,0,3:2:0:0:
85,278,199327,1,0,3:2:0:0:
90,282,199388,1,2,3:2:0:0:
94,286,199448,1,0,3:2:0:0:
97,291,199509,1,0,3:2:0:0:
99,296,199569,1,0,3:2:0:0:
101,302,199630,1,0,3:2:0:0:
