osu file format v14

[General]
AudioFilename: audio.mp3
AudioLeadIn: 0
PreviewTime:75218
Countdown: 0
SampleSet: Soft
StackLeniency: 0.5
Mode: 0
LetterboxInBreaks: 0
WidescreenStoryboard: 1

[Editor]
Bookmarks:16248,24957,27860,43343,58827,58888,58948,60521,60581,60642,61005,61065,61126,62819,62880,62940,64634,64694,64755,64815,64876,65118,65178,65239,65299,65360,65601,65662,65722,65783,65843,66085,66146,66206,66267,66327,66569,66630,66690,68747,68807,68868,70440,70501,70561,70622,70682,72739,72799,72860,72920,72980,73041,73101,73162,73222,73283,73343,73404,73464,73525,73585,73646,73706,73767,73827,73888,73948,75279,83021,91729,94632,110115,125599,141083,156567,172051,172535,187535,188018,196727,199630
DistanceSpacing: 1
BeatDivisor: 4
GridSize: 8
TimelineZoom: 1.7

[Metadata]
Title:Dressed as Goblins
TitleUnicode:Dressed as Goblins
Artist:Nekrogoblikon
ArtistUnicode:Nekrogoblikon
Creator:Dada
Version:Easy
Source:
Tags:welcome to bonkers featured artist fa rock melodic death metal english ioexception deadcode ceo of osu ceo_of_osu nao tomori naotoshi lmt
BeatmapID:2582829
BeatmapSetID:1233657

[Difficulty]
HPDrainRate:3
CircleSize:3
OverallDifficulty:3
ApproachRate:4
SliderMultiplier:0.799999999999999
SliderTickRate:0.5

[Events]
//Background and Video events
0,0,"82685729_p0.jpg",0,0
//Break Periods
2,172540,186215
//Storyboard Layer 0 (Background)
//Storyboard Layer 1 (Fail)
//Storyboard Layer 2 (Pass)
//Storyboard Layer 3 (Foreground)
//Storyboard Layer 4 (Overlay)
//Storyboard Sound Samples

[TimingPoints]
523,241.935483870968,4,2,2,75,1,0
765,241.935483870968,4,2,2,75,1,1
16248,241.935483870968,9,2,2,75,1,1
24957,241.935483870968,3,2,2,75,1,1
27860,241.935483870968,4,2,2,65,1,0
43343,-100,4,2,2,55,0,0
58827,-100,4,2,2,65,0,0
75279,-100,4,2,2,75,0,1
83021,241.935483870968,9,2,2,75,1,1
91729,241.935483870968,3,2,2,75,1,1
94632,241.935483870968,4,2,2,65,1,0
110115,-100,4,2,2,55,0,0
121728,-100,4,2,2,60,0,0
125599,-100,4,2,2,50,0,0
140115,-100,4,2,2,60,0,0
140598,-100,4,2,2,65,0,0
141083,-100,4,2,2,70,0,0
142050,-100,4,2,2,55,0,0
156567,-100,4,2,2,50,0,0
172535,241.935483870968,4,2,2,50,1,0
187535,-100,4,2,2,75,0,0
188018,241.935483870968,9,2,2,75,1,1
196727,241.935483870968,3,2,2,75,1,1
199630,-100,3,2,2,75,0,0

[Colours]
Combo1 : 181,123,45
Combo2 : 65,138,11
Combo3 : 136,96,55
Combo4 : 114,173,103

[HitObjects]
114,168,765,6,0,P|150:173|210:165,1,79.9999999999999,6|8,2:0|2:0,2:0:0:0:
264,134,1248,1,2,2:0:0:0:
372,11,1732,2,0,B|362:107|362:107|383:175,1,159.99999999999983,2|2,2:0|2:0,2:0:0:0:
346,324,2700,2,0,B|327:313|327:313|265:318,1,79.9999999999999,2|8,2:0|2:0,2:0:0:0:
188,321,3184,1,2,2:0:0:0:
48,242,3668,2,0,P|105:207|128:113,1,159.99999999999983,2|2,2:0|2:0,2:0:0:0:
285,83,4635,6,0,B|303:97|303:97|330:151,1,79.9999999999999,4|8,2:0|2:0,2:0:0:0:
292,219,5119,1,2,2:0:0:0:
190,343,5603,2,0,L|347:315,1,159.99999999999983,2|2,2:0|2:0,2:0:0:0:
480,224,6571,2,0,B|467:184|467:184|427:168,1,79.9999999999999,4|8,2:0|2:0,2:0:0:0:
355,143,7055,1,2,2:0:0:0:
206,200,7539,5,8,2:0:0:0:
87,91,8023,1,8,2:0:0:0:
227,15,8506,6,0,B|286:4|286:4|306:13,1,79.9999999999999,4|8,2:0|2:0,2:0:0:0:
369,59,8990,1,2,2:0:0:0:
484,171,9474,1,2,2:0:0:0:
433,322,9958,1,2,2:0:0:0:
277,354,10442,2,0,P|268:324|270:272,1,79.9999999999999,2|8,2:0|2:0,2:0:0:0:
289,197,10926,1,2,2:0:0:0:
367,57,11410,1,2,2:0:0:0:
208,39,11894,1,2,2:0:0:0:
100,158,12377,6,0,B|91:184|91:184|113:236,1,79.9999999999999,4|8,2:0|2:0,2:0:0:0:
148,304,12861,1,2,2:0:0:0:
297,362,13345,1,2,2:0:0:0:
433,278,13829,1,2,2:0:0:0:
429,119,14313,2,0,B|393:98|393:98|350:100,1,79.9999999999999,4|8,2:0|2:0,2:0:0:0:
274,111,14797,1,2,2:0:0:0:
170,233,15281,5,8,3:2:0:0:
325,275,15765,1,8,3:2:0:0:
403,262,16006,1,8,3:2:0:0:
481,249,16248,6,0,B|492:187|492:187|483:168,1,79.9999999999999,4|8,2:0|2:0,2:0:0:0:
433,110,16731,1,2,2:0:0:0:
312,5,17215,1,4,3:2:0:0:
189,108,17699,2,0,P|174:186|186:277,1,159.99999999999983,4|8,3:2|2:0,2:0:0:0:
229,330,18425,6,0,B|253:321|253:321|307:329,1,79.9999999999999,4|8,2:0|2:0,2:0:0:0:
386,336,18909,1,2,2:0:0:0:
487,212,19393,1,4,3:2:0:0:
447,57,19877,2,0,B|368:45|368:45|289:88,1,159.99999999999983,4|8,3:2|2:0,2:0:0:0:
226,120,20602,6,0,P|193:97|153:95,1,79.9999999999999,4|8,2:0|2:0,2:0:0:0:
75,112,21086,1,2,2:0:0:0:
9,258,21570,1,4,3:2:0:0:
131,362,22054,2,0,B|205:336|205:336|253:264,1,159.99999999999983,4|8,3:2|2:0,2:0:0:0:
288,197,22780,6,0,L|373:212,1,79.9999999999999,4|8,2:0|2:0,2:0:0:0:
444,230,23264,1,2,2:0:0:0:
503,378,23748,1,4,3:2:0:0:
350,326,24231,2,0,P|267:308|190:333,1,159.99999999999983,4|8,3:2|2:0,2:0:0:0:
129,372,24957,5,6,3:2:0:0:
84,218,25440,1,2,2:0:0:0:
61,140,25682,1,10,2:0:0:0:
216,177,26166,1,8,2:0:0:0:
295,197,26408,1,2,2:0:0:0:
185,313,26892,1,8,3:2:0:0:
129,372,27134,1,2,3:2:0:0:
84,218,27618,1,8,2:0:0:0:
61,140,27860,6,0,B|108:76|108:76|198:63,1,159.99999999999983,6|8,1:2|2:0,2:0:0:0:
323,151,28827,1,0,1:0:0:0:
460,69,29311,1,8,2:0:0:0:
462,228,29795,6,0,P|423:277|317:307,1,159.99999999999983,0|0,1:0|1:0,2:0:0:0:
228,186,30763,2,0,B|174:177|174:177|76:227,1,159.99999999999983,8|0,2:0|1:0,2:0:0:0:
43,296,31489,1,8,2:0:0:0:
96,354,31730,6,0,L|254:326,1,159.99999999999983,0|10,1:0|2:0,2:0:0:0:
410,295,32698,1,0,1:0:0:0:
462,143,33182,1,8,2:0:0:0:
357,22,33666,6,0,P|305:57|265:157,1,159.99999999999983,0|0,1:0|1:0,2:0:0:0:
287,302,34634,2,0,B|177:328|177:328|130:312,1,159.99999999999983,8|0,2:0|1:0,2:0:0:0:
78,253,35360,1,8,2:0:0:0:
78,173,35601,6,0,B|106:98|106:98|183:61,1,159.99999999999983,4|8,1:2|2:0,2:0:0:0:
338,57,36569,1,0,1:0:0:0:
454,166,37053,1,8,2:0:0:0:
418,321,37537,6,0,B|315:340|315:340|261:317,1,159.99999999999983,0|0,1:0|1:0,2:0:0:0:
228,161,38505,2,0,B|125:142|125:142|71:165,1,159.99999999999983,8|0,2:0|1:0,2:0:0:0:
22,225,39230,1,8,2:0:0:0:
27,304,39472,6,0,P|99:325|191:313,1,159.99999999999983,4|8,1:2|2:0,2:0:0:0:
321,235,40440,1,0,1:0:0:0:
283,79,40924,1,8,2:0:0:0:
129,34,41408,6,0,B|100:112|100:112|132:188,1,159.99999999999983,0|8,1:0|2:0,2:0:0:0:
164,339,42376,2,0,B|242:368|242:368|318:336,1,159.99999999999983,8|2,3:2|3:0,3:0:0:0:
370,282,43101,1,2,3:0:0:0:
427,225,43343,5,4,2:0:0:0:
313,111,43827,1,8,2:0:0:0:
199,225,44311,1,8,2:0:0:0:
313,339,44795,1,8,2:0:0:0:
427,225,45279,1,8,2:0:0:0:
313,111,45763,1,8,2:0:0:0:
199,225,46247,1,8,2:0:0:0:
142,282,46489,1,0,2:0:0:0:
85,339,46730,1,8,2:0:0:0:
44,184,47214,5,12,2:0:0:0:
199,225,47698,1,8,2:0:0:0:
240,70,48182,1,8,2:0:0:0:
85,29,48666,1,8,2:0:0:0:
44,184,49150,1,8,2:0:0:0:
199,225,49634,1,8,2:0:0:0:
240,70,50118,1,8,2:0:0:0:
450,310,51085,5,12,2:0:0:0:
292,339,51569,1,8,2:0:0:0:
263,181,52053,1,8,2:0:0:0:
421,152,52537,1,8,2:0:0:0:
450,310,53021,1,8,3:2:0:0:
292,339,53505,1,10,3:2:0:0:
277,260,53747,1,0,2:0:0:0:
263,181,53989,2,0,B|276:103|276:103|303:59,2,119.99999999999984,10|8|8,3:2|3:2|3:2,2:0:0:0:
277,260,54956,6,0,P|221:285|107:284,1,159.99999999999983,4|8,2:0|2:0,2:0:0:0:
22,163,55924,2,0,P|78:138|192:139,1,159.99999999999983,0|0,1:0|2:0,2:0:0:0:
249,165,56650,1,8,2:0:0:0:
322,134,56892,6,0,P|402:133|476:163,1,159.99999999999983,0|8,1:0|2:0,2:0:0:0:
507,236,57618,1,0,2:0:0:0:
473,308,57860,6,0,B|389:322,1,79.9999999999999,0|0,1:0|1:0,2:0:0:0:
316,339,58343,2,0,B|232:353,1,79.9999999999999,0|0,3:0|3:0,2:0:0:0:
157,366,58827,6,0,B|73:161|73:161|313:56,1,479.9999999999994,0|8,3:0|2:0,2:0:0:0:
448,137,60763,1,0,1:0:0:0:
410,292,61247,1,8,2:0:0:0:
295,182,61730,5,0,1:0:0:0:
257,337,62214,1,8,2:0:0:0:
142,227,62698,2,0,B|172:174|172:174|142:68,1,159.99999999999983,0|8,1:0|2:0,2:0:0:0:
10,166,63666,5,0,1:0:0:0:
49,321,64150,1,10,2:0:0:0:
204,282,64634,2,0,L|379:312,1,159.99999999999983,0|8,3:2|3:2,2:0:0:0:
473,195,65601,2,0,L|315:167,1,159.99999999999983,0|8,3:2|3:2,2:0:0:0:
171,96,66569,6,0,B|35:119|35:119|71:323|71:323|206:299,1,479.9999999999994,0|8,3:2|2:0,2:0:0:0:
363,273,68505,1,0,2:0:0:0:
336,115,68989,1,8,2:0:0:0:
213,218,69472,5,2,2:0:0:0:
186,60,69956,1,8,2:0:0:0:
62,162,70440,2,0,B|47:264|47:264|70:322,1,159.99999999999983,4|8,3:2|2:0,2:0:0:0:
218,370,71408,5,0,1:0:0:0:
326,252,71892,1,10,2:0:0:0:
434,134,72376,2,0,P|409:95|294:56,1,159.99999999999983,4|0,2:0|3:2,2:0:0:0:
217,187,73343,2,0,P|170:184|79:104,1,159.99999999999983,8|0,3:2|3:2,2:0:0:0:
67,38,74069,1,8,3:2:0:0:
400,329,75279,6,0,L|315:343,1,79.9999999999999,4|8,2:0|2:0,2:0:0:0:
241,356,75763,1,2,2:0:0:0:
100,282,76247,2,0,L|257:254,1,159.99999999999983,2|2,2:0|2:0,2:0:0:0:
365,135,77214,2,0,L|286:148,1,79.9999999999999,2|8,2:0|2:0,2:0:0:0:
207,163,77698,1,2,2:0:0:0:
65,88,78182,2,0,L|222:60,1,159.99999999999983,2|2,2:0|2:0,2:0:0:0:
380,33,79150,6,0,B|411:57|411:57|416:97,1,79.9999999999999,4|8,2:0|2:0,2:0:0:0:
422,177,79634,1,2,2:0:0:0:
332,310,80118,2,0,P|255:288|179:310,1,159.99999999999983,2|2,2:0|2:0,2:0:0:0:
90,177,81085,2,0,B|74:141|74:141|90:103,1,79.9999999999999,2|8,2:0|2:0,2:0:0:0:
132,33,81569,1,2,2:0:0:0:
256,134,82053,5,8,3:2:0:0:
323,279,82537,1,0,3:2:0:0:
398,304,82779,1,8,3:2:0:0:
473,329,83021,6,0,B|494:296|494:296|485:256,1,79.9999999999999,4|8,2:0|2:0,2:0:0:0:
463,179,83504,1,2,2:0:0:0:
372,48,83988,1,0,3:2:0:0:
237,136,84472,2,0,B|143:191|143:191|90:191,1,159.99999999999983,8|8,3:2|2:0,2:0:0:0:
53,120,85198,6,0,P|66:89|98:56,1,79.9999999999999,6|8,2:0|2:0,2:0:0:0:
172,24,85682,1,2,2:0:0:0:
328,59,86166,1,0,3:2:0:0:
417,191,86650,2,0,P|397:260|320:318,1,159.99999999999983,8|8,3:2|2:0,2:0:0:0:
251,325,87375,6,0,L|236:243,1,79.9999999999999,6|8,2:0|2:0,2:0:0:0:
222,167,87859,1,2,2:0:0:0:
196,9,88343,1,0,3:2:0:0:
38,37,88827,2,0,L|65:194,1,159.99999999999983,8|8,3:2|2:0,2:0:0:0:
84,272,89553,6,0,B|132:294|132:294|160:291,1,79.9999999999999,6|8,2:0|2:0,2:0:0:0:
237,276,90037,1,2,2:0:0:0:
297,128,90521,1,0,3:2:0:0:
173,24,91004,2,0,B|102:63|102:63|74:142,1,159.99999999999983,8|8,3:2|2:0,2:0:0:0:
49,213,91729,5,6,3:2:0:0:
97,365,92212,1,2,3:2:0:0:
175,351,92454,1,8,3:2:0:0:
223,199,92938,1,8,2:0:0:0:
301,213,93180,1,0,3:0:0:0:
349,365,93664,1,8,3:2:0:0:
427,351,93906,1,0,3:2:0:0:
500,208,94390,1,8,3:2:0:0:
486,130,94632,6,0,L|328:102,1,159.99999999999983,4|8,1:2|2:0,2:0:0:0:
170,77,95599,1,0,1:0:0:0:
73,204,96083,1,8,2:0:0:0:
135,352,96567,6,0,B|189:335|189:335|306:355,1,159.99999999999983,0|0,1:0|1:0,2:0:0:0:
449,332,97535,2,0,B|421:255|421:255|344:241,1,159.99999999999983,8|0,2:0|1:0,2:0:0:0:
265,228,98261,1,8,2:0:0:0:
185,214,98502,6,0,P|151:172|157:69,1,159.99999999999983,4|10,1:2|2:0,2:0:0:0:
306,15,99470,1,0,1:0:0:0:
434,110,99954,1,8,2:0:0:0:
416,269,100438,6,0,L|251:297,1,159.99999999999983,0|0,1:0|1:0,2:0:0:0:
100,325,101406,2,0,L|128:160,1,159.99999999999983,8|0,2:0|1:0,2:0:0:0:
144,88,102132,1,8,2:0:0:0:
160,8,102373,6,0,B|263:26|263:26|307:60,1,159.99999999999983,4|8,1:2|2:0,2:0:0:0:
424,168,103341,1,0,1:0:0:0:
344,306,103825,1,8,2:0:0:0:
265,168,104309,6,0,P|207:152|106:157,1,159.99999999999983,0|0,1:0|1:0,2:0:0:0:
25,294,105277,2,0,P|83:310|184:305,1,159.99999999999983,8|0,2:0|1:0,2:0:0:0:
256,275,106002,1,8,2:0:0:0:
330,305,106244,6,0,P|409:312|487:294,1,159.99999999999983,4|8,1:2|2:0,2:0:0:0:
503,134,107212,1,0,1:0:0:0:
369,45,107696,1,8,2:0:0:0:
235,134,108180,5,0,3:2:0:0:
324,268,108664,1,0,2:0:0:0:
190,357,109148,1,8,3:2:0:0:
101,223,109632,1,2,3:2:0:0:
56,156,109873,1,2,3:2:0:0:
11,89,110115,5,6,3:2:0:0:
168,61,110599,1,8,3:2:0:0:
323,100,111083,1,2,3:2:0:0:
480,72,111567,1,8,3:2:0:0:
508,229,112051,1,2,3:2:0:0:
351,257,112535,1,8,3:2:0:0:
196,218,113019,1,8,3:2:0:0:
119,199,113261,1,8,3:2:0:0:
41,179,113502,1,8,3:2:0:0:
25,338,113986,5,6,3:2:0:0:
182,310,114470,1,8,3:2:0:0:
315,221,114954,1,2,3:2:0:0:
472,193,115438,1,8,3:2:0:0:
444,36,115922,1,2,3:2:0:0:
287,64,116406,1,8,3:2:0:0:
154,153,116890,1,8,3:2:0:0:
416,335,117857,5,6,3:2:0:0:
335,196,118341,1,8,3:2:0:0:
256,336,118825,1,2,3:2:0:0:
175,197,119309,1,8,3:2:0:0:
96,337,119793,1,2,3:2:0:0:
256,336,120277,1,8,3:2:0:0:
416,335,120761,1,8,3:2:0:0:
335,196,121244,1,8,3:2:0:0:
295,126,121486,1,8,3:2:0:0:
256,57,121728,6,0,B|193:37|193:37|96:63,1,159.99999999999983,4|8,1:2|2:0,2:0:0:0:
27,202,122696,2,0,B|90:222|90:222|187:196,1,159.99999999999983,0|0,1:0|2:0,2:0:0:0:
336,157,123664,6,0,L|308:314,1,159.99999999999983,0|8,1:0|3:2,2:0:0:0:
153,356,124632,2,0,L|180:198,1,159.99999999999983,8|2,3:2|3:2,2:0:0:0:
194,119,125357,1,8,2:0:0:0:
208,40,125599,6,0,P|368:40|368:305,1,479.9999999999994,4|8,2:0|2:0,2:0:0:0:
243,207,127535,1,0,1:0:0:0:
203,361,128019,1,8,2:0:0:0:
49,321,128502,5,2,2:0:0:0:
89,167,128986,1,8,2:0:0:0:
129,13,129470,2,0,B|226:30|226:30|273:76,1,159.99999999999983,4|8,2:0|2:0,2:0:0:0:
369,199,130438,5,0,1:0:0:0:
429,50,130922,1,10,2:0:0:0:
270,73,131406,2,0,L|105:44,1,159.99999999999983,10|0,2:0|1:0,2:0:0:0:
20,176,132373,2,0,L|177:203,1,159.99999999999983,2|10,1:2|2:0,2:0:0:0:
336,225,133341,6,0,B|493:197|493:197|450:351|450:351|286:380,1,479.9999999999994,4|8,2:0|2:0,2:0:0:0:
144,321,135277,1,0,1:0:0:0:
213,176,135761,1,8,2:0:0:0:
68,107,136244,5,0,2:0:0:0:
200,16,136728,1,8,2:0:0:0:
213,176,137212,2,0,B|232:289|232:289|271:332,1,159.99999999999983,4|8,2:0|2:0,2:0:0:0:
423,321,138180,5,0,1:0:0:0:
489,175,138664,1,10,2:0:0:0:
395,44,139148,2,0,P|317:54|264:113,1,159.99999999999983,8|0,2:0|1:0,2:0:0:0:
228,267,140115,2,0,P|306:257|359:198,1,159.99999999999983,2|2,2:0|2:0,2:0:0:0:
473,87,141083,6,2,B|497:209|497:209|448:258|448:258|473:381,2,319.99999999999966,6|8|2,2:0|2:0|2:0,2:0:0:0:
326,22,143502,1,0,2:0:0:0:
256,166,143986,1,8,2:0:0:0:
97,178,144470,5,8,2:0:0:0:
62,249,144712,1,0,1:0:0:0:
27,320,144954,2,0,B|77:353|77:353|188:333,1,159.99999999999983,6|2,2:0|2:0,2:0:0:0:
300,235,145922,5,10,2:0:0:0:
159,158,146406,1,2,2:0:0:0:
296,74,146890,1,0,1:0:0:0:
437,151,147373,1,10,2:0:0:0:
300,235,147857,6,0,B|217:216|229:280|147:261,2,159.99999999999983,0|2|6,1:2|1:2|2:0,2:0:0:0:
406,354,149309,1,0,2:0:0:0:
248,382,149793,2,0,B|133:361|133:361|84:374,1,159.99999999999983,8|2,2:0|2:0,2:0:0:0:
6,235,150761,5,4,2:0:0:0:
162,207,151244,1,2,2:0:0:0:
309,269,151728,1,8,2:0:0:0:
465,241,152212,1,8,2:0:0:0:
437,85,152696,6,0,B|326:65|326:65|270:88,1,159.99999999999983,0|2,1:2|2:0,2:0:0:0:
215,229,153664,2,0,B|104:248|104:248|48:225,1,159.99999999999983,10|6,2:0|2:0,2:0:0:0:
19,160,154390,1,2,2:0:0:0:
46,84,154632,6,0,L|204:56,1,159.99999999999983,6|0,1:2|1:2,2:0:0:0:
360,25,155599,1,2,2:0:0:0:
332,182,156083,1,8,2:0:0:0:
318,260,156325,1,8,2:0:0:0:
304,339,156567,6,0,P|382:365|453:330,1,159.99999999999983,6|8,2:0|2:0,2:0:0:0:
477,176,157535,2,0,P|399:150|328:185,1,159.99999999999983,0|8,1:0|2:0,2:0:0:0:
197,267,158502,6,0,B|87:287|87:287|30:263,1,159.99999999999983,0|8,1:0|2:0,2:0:0:0:
18,109,159470,1,0,1:0:0:0:
165,46,159954,1,8,2:0:0:0:
243,60,160196,1,0,1:0:0:0:
322,74,160438,5,0,1:0:0:0:
439,184,160922,1,8,2:0:0:0:
403,341,161406,1,0,1:0:0:0:
286,231,161890,1,8,2:0:0:0:
176,348,162373,6,0,P|122:289|104:198,1,159.99999999999983,8|0,2:0|1:0,2:0:0:0:
116,133,163099,1,8,2:0:0:0:
164,69,163341,2,0,P|241:51|317:73,1,159.99999999999983,0|8,1:0|2:0,2:0:0:0:
435,181,164309,6,0,L|273:209,1,159.99999999999983,4|8,2:0|2:0,2:0:0:0:
221,358,165277,2,0,L|59:329,1,159.99999999999983,0|8,1:0|2:0,2:0:0:0:
13,178,166244,2,0,P|90:180|164:136,1,159.99999999999983,0|8,1:0|2:0,2:0:0:0:
253,9,167212,1,0,1:0:0:0:
339,143,167696,1,8,2:0:0:0:
382,210,167938,1,0,1:0:0:0:
425,277,168180,6,0,B|469:247|469:247|490:128,1,159.99999999999983,0|8,1:0|2:0,2:0:0:0:
366,38,169148,1,0,1:0:0:0:
256,154,169632,1,8,2:0:0:0:
256,192,170115,12,8,171809,2:0:0:0:
256,46,187535,5,8,3:2:0:0:
98,72,188018,6,0,B|71:123|71:123|77:152,1,79.9999999999999,6|8,2:0|2:0,2:0:0:0:
99,222,188501,1,2,2:0:0:0:
181,361,188985,1,0,3:2:0:0:
305,259,189469,2,0,P|317:181|297:104,1,159.99999999999983,8|8,3:2|2:0,2:0:0:0:
263,30,190195,6,0,B|288:16|288:16|344:11,1,79.9999999999999,6|8,2:0|2:0,2:0:0:0:
419,4,190679,1,2,2:0:0:0:
494,145,191163,1,0,3:2:0:0:
418,286,191647,2,0,P|351:255|312:165,1,159.99999999999983,8|8,3:2|2:0,2:0:0:0:
313,100,192372,6,0,B|273:96|273:96|238:116,1,79.9999999999999,6|8,2:0|2:0,2:0:0:0:
174,163,192856,1,2,2:0:0:0:
108,315,193340,1,0,3:2:0:0:
259,367,193824,2,0,L|417:339,1,159.99999999999983,8|8,3:2|2:0,2:0:0:0:
495,322,194550,6,0,B|508:295|508:295|495:244,1,79.9999999999999,6|8,2:0|2:0,2:0:0:0:
460,175,195034,1,2,2:0:0:0:
316,102,195518,1,0,3:2:0:0:
242,243,196001,2,0,L|71:213,1,159.99999999999983,8|8,3:2|2:0,2:0:0:0:
6,196,196727,5,6,3:2:0:0:
120,84,197210,1,2,3:2:0:0:
178,28,197452,1,8,3:2:0:0:
217,182,197936,1,8,2:0:0:0:
237,260,198178,1,2,3:2:0:0:
351,148,198662,1,2,3:2:0:0:
409,92,198904,1,8,3:2:0:0:
448,246,199388,1,2,3:2:0:0:
468,324,199630,5,0,3:2:0:0:
