osu file format v14

[General]
AudioFilename: audio.mp3
AudioLeadIn: 1000
PreviewTime: 68863
Countdown: 0
SampleSet: Soft
StackLeniency: 0.4
Mode: 0
LetterboxInBreaks: 0
WidescreenStoryboard: 1

[Editor]
DistanceSpacing: 1.3
BeatDivisor: 3
GridSize: 4
TimelineZoom: 2.699999

[Metadata]
Title:Aza
TitleUnicode:痣
Artist:Nekoyashiki
ArtistUnicode:猫屋敷
Creator:Beren
Version:Normal
Source:
Tags:kalibe air puvn ruchuers Mashou maigo hanyuu Masho No Kamatoto Epsode2 羽生まゐご 魔性のカマトト あんず編 瀬川あをじ Anzu-hen Japanese Folk
BeatmapID:2862231
BeatmapSetID:1384189

[Difficulty]
HPDrainRate:3
CircleSize:3
OverallDifficulty:4.5
ApproachRate:5.5
SliderMultiplier:1
SliderTickRate:1

[Events]
//Background and Video events
0,0,"IMG_1117(20210108-123436).JPG",0,0
Video,0,"video.mp4"
//Break Periods
2,80157,90326
//Storyboard Layer 0 (Background)
//Storyboard Layer 1 (Fail)
//Storyboard Layer 2 (Pass)
//Storyboard Layer 3 (Foreground)
//Storyboard Layer 4 (Overlay)
//Storyboard Sound Samples

[TimingPoints]
-1019,352.941176470588,4,2,1,40,1,0
392,-100,4,2,3,10,0,0
981,-100,4,2,2,5,0,0
1098,-100,4,2,2,40,0,0
11686,-100,4,2,2,50,0,0
12039,-100,4,2,2,60,0,0
23686,-100,4,2,1,80,0,0
34157,-100,4,2,1,70,0,0
35098,-100,4,2,1,5,0,0
35216,-100,4,2,1,70,0,0
35451,-100,4,2,1,5,0,0
35569,-100,4,2,1,70,0,0
35804,-100,4,2,1,5,0,0
35922,-100,4,2,1,70,0,0
36157,-100,4,2,1,5,0,0
36275,-100,4,2,1,70,0,0
36510,-100,4,2,1,5,0,0
36628,-100,4,2,1,70,0,0
36863,-100,4,2,1,5,0,0
36981,-100,4,2,1,70,0,0
37216,-100,4,2,1,5,0,0
37334,-100,4,2,1,70,0,0
37922,-100,4,2,1,5,0,0
38039,-100,4,2,1,70,0,0
38275,-100,4,2,1,5,0,0
38392,-100,4,2,1,70,0,0
38628,-100,4,2,1,5,0,0
38745,-100,4,2,1,70,0,0
38981,-100,4,2,1,5,0,0
39098,-100,4,2,1,70,0,0
39334,-100,4,2,1,5,0,0
39451,-100,4,2,1,70,0,0
39686,-100,4,2,1,5,0,0
39804,-100,4,2,1,70,0,0
40039,-100,4,2,1,5,0,0
40157,-100,4,2,1,70,0,0
40745,-100,4,2,1,5,0,0
40863,-100,4,2,1,70,0,0
41098,-100,4,2,1,5,0,0
41216,-100,4,2,1,70,0,0
41451,-100,4,2,1,5,0,0
41569,-100,4,2,1,70,0,0
41804,-100,4,2,1,5,0,0
41922,-100,4,2,1,70,0,0
42157,-100,4,2,1,5,0,0
42275,-100,4,2,1,70,0,0
42510,-100,4,2,1,5,0,0
42628,-100,4,2,1,70,0,0
42863,-100,4,2,1,5,0,0
42981,-100,4,2,1,70,0,0
43569,-100,4,2,1,5,0,0
43686,-100,4,2,1,70,0,0
43922,-100,4,2,1,5,0,0
44039,-100,4,2,1,70,0,0
44275,-100,4,2,1,5,0,0
44392,-100,4,2,1,70,0,0
44628,-100,4,2,1,5,0,0
44745,-100,4,2,1,70,0,0
44981,-100,4,2,1,5,0,0
45098,-100,4,2,1,70,0,0
45334,-100,4,2,1,5,0,0
45451,-100,4,2,1,70,0,0
45686,-100,4,2,1,5,0,0
45804,-100,4,2,1,70,0,0
46275,-100,4,2,2,40,0,0
54745,-100,4,2,1,40,0,0
57569,-100,4,2,2,60,0,0
68157,-100,4,2,1,60,0,0
68863,-100,4,2,1,80,0,0
91451,-100,4,2,2,40,0,0
101922,-100,4,2,1,40,0,0
102745,-100,4,2,1,60,0,0
112628,-100,4,2,1,30,0,0
119686,-100,4,2,1,80,0,0
130157,-100,4,2,1,70,0,0
131098,-100,4,2,1,5,0,0
131216,-100,4,2,1,70,0,0
131451,-100,4,2,1,5,0,0
131569,-100,4,2,1,70,0,0
131804,-100,4,2,1,5,0,0
131922,-100,4,2,1,70,0,0
132157,-100,4,2,1,5,0,0
132275,-100,4,2,1,70,0,0
132510,-100,4,2,1,5,0,0
132628,-100,4,2,1,70,0,0
133922,-100,4,2,1,5,0,0
134039,-100,4,2,1,70,0,0
134275,-100,4,2,1,5,0,0
134392,-100,4,2,1,70,0,0
134628,-100,4,2,1,5,0,0
134745,-100,4,2,1,70,0,0
134981,-100,4,2,1,5,0,0
135098,-100,4,2,1,70,0,0
135334,-100,4,2,1,5,0,0
135451,-100,4,2,1,70,0,0
136745,-100,4,2,1,5,0,0
136863,-100,4,2,1,70,0,0
137098,-100,4,2,1,5,0,0
137216,-100,4,2,1,70,0,0
137451,-100,4,2,1,5,0,0
137569,-100,4,2,1,70,0,0
137804,-100,4,2,1,5,0,0
137922,-100,4,2,1,70,0,0
138157,-100,4,2,1,5,0,0
138275,-100,4,2,1,70,0,0
139569,-100,4,2,1,5,0,0
139686,-100,4,2,1,70,0,0
139922,-100,4,2,1,5,0,0
140039,-100,4,2,1,70,0,0
140275,-100,4,2,1,5,0,0
140392,-100,4,2,1,70,0,0
140628,-100,4,2,1,5,0,0
140745,-100,4,2,1,70,0,0
140981,-100,4,2,1,5,0,0
141098,-100,4,2,1,70,0,0
142275,-100,4,2,1,50,0,0
142628,-100,4,2,1,5,0,0

[Colours]
Combo1 : 90,129,69
Combo2 : 221,207,85
Combo3 : 80,169,163
Combo4 : 165,165,67

[HitObjects]
64,108,1098,6,0,L|194:118,1,100,8|0,0:3|1:0,0:0:0:0:
193,242,1804,2,0,P|233:314|326:311,1,166.666666666667,8|2,0:3|0:0,0:0:0:0:
353,311,2510,2,0,P|393:277|455:282,1,100,8|0,0:3|1:0,0:0:0:0:
444,145,3216,2,0,P|375:169|294:126,1,166.666666666667,8|2,0:3|0:0,0:0:0:0:
294,84,3922,6,0,P|242:73|173:105,1,100,8|0,0:3|1:0,0:0:0:0:
94,165,4628,1,8,0:3:0:0:
58,290,4981,1,0,1:0:0:0:
168,358,5334,1,8,0:3:0:0:
231,245,5686,1,0,1:0:0:0:
308,140,6039,2,0,P|353:144|397:124,1,66.6666666666667,8|2,0:3|0:0,0:0:0:0:
412,119,6392,2,0,L|443:237,1,100,12|8,0:0|0:3,0:0:0:0:
380,332,7098,5,0,1:0:0:0:
252,336,7451,1,8,0:3:0:0:
163,242,7804,2,0,L|173:162,1,66.6666666666667,0|2,1:0|0:0,0:0:0:0:
155,135,8157,2,0,P|101:111|52:133,1,100,8|0,0:3|1:0,0:0:0:0:
50,252,8863,2,0,L|34:366,2,100,8|0|8,0:3|1:0|0:3,0:0:0:0:
430,304,10275,6,0,P|362:269|270:304,1,166.666666666667,8|2,0:3|0:0,0:0:0:0:
256,257,10981,2,0,P|245:195|262:145,1,100,8|0,0:3|1:0,0:0:0:0:
330,54,11686,2,0,P|378:50|414:58,1,66.6666666666667,8|2,0:0|0:0,0:0:0:0:
438,61,12039,2,0,P|450:113|440:152,1,66.6666666666667,8|2,0:0|0:0,0:0:0:0:
437,167,12392,1,8,0:0:0:0:
206,280,13098,6,0,P|269:340|319:277,1,166.666666666667,8|2,0:3|0:0,0:0:0:0:
332,257,13804,2,0,L|453:260,1,100,8|0,0:3|1:0,0:0:0:0:
413,130,14510,2,0,P|359:66|285:102,1,166.666666666667,8|2,0:3|0:0,0:0:0:0:
251,75,15216,6,0,P|260:145|242:181,1,100,8|0,0:3|1:0,0:0:0:0:
123,136,15922,1,8,0:3:0:0:
41,237,16275,1,0,1:0:0:0:
93,355,16628,1,8,0:3:0:0:
223,356,16981,1,0,1:0:0:0:
324,274,17334,2,0,L|399:278,1,66.6666666666667,8|2,0:3|0:0,0:0:0:0:
433,278,17686,2,0,P|444:257|431:172,1,100,12|8,0:0|0:3,0:0:0:0:
418,57,18392,6,0,P|354:49|317:74,1,100,0|8,1:0|0:3,0:0:0:0:
217,139,19098,2,0,L|131:121,1,66.6666666666667,0|2,1:0|0:0,0:0:0:0:
120,94,19451,2,0,P|91:123|79:187,1,100,8|0,0:3|1:0,0:0:0:0:
74,309,20157,2,0,L|150:308,1,66.6666666666667,8|2,0:3|0:0,0:0:0:0:
184,308,20510,2,0,L|194:221,1,66.6666666666667,0|2,1:0|0:0,0:0:0:0:
204,199,20863,6,0,P|287:176|374:198,1,166.666666666667,8|2,0:3|0:0,0:0:0:0:
405,206,21569,1,8,0:3:0:0:
455,86,21922,2,0,P|431:49|426:-17,2,100,0|12|4,1:0|0:3|0:3,0:0:0:0:
496,209,22981,1,8,0:0:0:0:
257,311,23686,6,0,P|185:319|156:310,1,100,12|2,0:0|0:0,0:0:0:0:
86,203,24392,1,8,0:0:0:0:
116,76,24745,2,0,L|197:92,1,66.6666666666667,2|2,0:0|0:0,0:0:0:0:
218,65,25098,2,0,L|336:36,2,100,8|8|8,0:0|0:0|0:0,0:0:0:0:
308,158,26157,2,0,L|346:236,1,66.6666666666667,2|2,0:0|0:0,0:0:0:0:
376,237,26510,6,0,P|392:295|371:339,1,100,12|2,0:0|0:0,0:0:0:0:
277,359,27216,1,8,0:0:0:0:
148,341,27569,2,0,P|145:298|151:264,1,66.6666666666667,8|2,0:0|0:0,0:0:0:0:
117,243,27922,2,0,L|98:135,1,100,8|2,0:0|0:0,0:0:0:0:
200,62,28628,2,0,L|309:49,1,100,8|8,0:0|0:0,0:0:0:0:
429,59,29334,6,0,P|466:98|460:161,1,100,12|2,0:0|0:0,0:0:0:0:
426,265,30039,1,8,0:0:0:0:
295,263,30392,2,0,L|207:273,1,66.6666666666667,2|2,0:0|0:1,0:0:0:0:
192,295,30745,2,0,P|150:338|154:389,2,100,8|8|8,0:0|0:0|0:0,0:0:0:0:
187,164,31804,2,0,P|192:106|174:82,1,66.6666666666667,2|2,0:0|0:0,0:0:0:0:
174,59,32157,6,0,L|57:49,1,100,12|2,0:0|0:0,0:0:0:0:
15,166,32863,1,8,0:0:0:0:
24,295,33216,1,8,0:0:0:0:
144,342,33569,1,8,0:0:0:0:
404,344,34275,2,0,P|388:308|389:269,1,66.6666666666667,2|2,0:1|0:0,0:0:0:0:
406,242,34628,2,0,L|426:154,1,66.6666666666667,2|2,0:1|0:1,0:0:0:0:
428,134,34981,6,0,L|311:128,1,100,12|2,0:3|0:0,0:0:0:0:
227,46,35686,1,8,0:3:0:0:
102,81,36039,1,2,0:0:0:0:
54,202,36392,2,0,L|136:199,1,66.6666666666667,8|2,0:3|0:1,0:0:0:0:
140,238,36745,2,0,P|136:289|157:346,1,100,2|8,0:0|0:3,0:0:0:0:
237,351,37334,2,0,L|346:350,1,100,2|2,0:1|0:1,0:0:0:0:
380,345,37804,6,0,P|394:291|372:232,1,100,12|2,0:3|0:0,0:0:0:0:
411,121,38510,1,8,0:3:0:0:
316,31,38863,1,2,0:0:0:0:
280,156,39216,2,0,L|276:244,1,66.6666666666667,8|2,0:3|0:1,0:0:0:0:
251,258,39569,2,0,P|231:324|252:375,1,100,2|8,0:0|0:3,0:0:0:0:
151,350,40157,2,0,P|83:332|76:284,1,100,2|2,0:1|0:1,0:0:0:0:
53,271,40628,6,0,B|52:198|52:198|78:166,1,100,12|2,0:3|0:0,0:0:0:0:
164,87,41334,1,8,0:3:0:0:
262,170,41686,1,2,0:0:0:0:
382,217,42039,2,0,P|432:220|441:206,1,66.6666666666667,8|2,0:3|0:1,0:0:0:0:
467,179,42392,2,0,L|466:91,1,66.6666666666667,2|2,0:0|0:1,0:0:0:0:
468,68,42745,1,8,0:3:0:0:
394,20,42981,2,0,B|340:15|340:15|285:39,1,100,2|2,0:1|0:1,0:0:0:0:
255,42,43451,6,0,L|249:147,1,100,12|2,0:3|0:0,0:0:0:0:
221,269,44157,1,8,0:3:0:0:
97,299,44510,1,2,0:0:0:0:
49,177,44863,2,0,L|46:98,1,66.6666666666667,8|2,0:3|0:1,0:0:0:0:
41,67,45216,2,0,L|120:70,1,66.6666666666667,2|2,0:0|0:1,0:0:0:0:
150,75,45569,1,8,0:3:0:0:
236,73,45804,2,0,P|254:116|242:195,1,100,2|2,0:1|0:1,0:0:0:0:
242,211,46275,5,8,0:0:0:0:
476,323,46981,2,0,L|443:224,1,100,8|8,0:0|0:0,0:0:0:0:
430,98,47686,1,0,1:0:0:0:
172,62,48392,2,0,P|152:135|159:175,1,100,8|8,0:0|0:0,0:0:0:0:
144,288,49098,5,0,1:0:0:0:
402,319,49804,2,0,P|361:312|348:261,1,100,8|8,0:0|0:0,0:0:0:0:
335,131,50510,2,0,L|214:139,1,100,0|2,1:0|0:0,0:0:0:0:
113,90,51216,1,8,0:0:0:0:
57,207,51569,1,8,0:0:0:0:
135,310,51922,5,0,1:0:0:0:
264,321,52275,2,0,L|279:217,1,100,2|8,0:0|0:0,0:0:0:0:
402,181,52981,2,0,L|394:64,1,100,8|0,0:0|1:0,0:0:0:0:
266,61,53686,2,0,P|207:51|193:71,1,66.6666666666667,2|0,0:0|0:0,0:0:0:0:
174,79,54039,2,0,L|154:201,1,100,8|8,0:0|0:0,0:0:0:0:
27,177,54745,5,8,0:0:0:0:
110,356,55275,1,4,0:3:0:0:
258,230,55804,1,8,0:0:0:0:
260,34,56334,1,4,0:3:0:0:
445,92,56863,2,0,P|486:100|462:137,1,100,2|2,0:1|0:0,0:0:0:0:
356,213,57569,6,0,L|379:338,1,100,0|0,3:0|3:1,0:0:0:0:
246,336,58275,1,8,0:0:0:0:
208,211,58628,1,0,1:0:0:0:
253,89,58981,2,0,L|186:78,1,66.6666666666667,0|0,3:0|0:0,0:0:0:0:
145,90,59334,2,0,L|24:104,1,100,0|8,3:0|0:0,0:0:0:0:
36,231,60039,1,0,1:0:0:0:
136,317,60392,6,0,B|158:266|158:266|201:246,1,100,0|0,3:0|3:0,0:0:0:0:
327,265,61098,1,8,0:0:0:0:
422,352,61451,2,0,L|509:326,1,66.6666666666667,0|2,1:0|0:0,0:0:0:0:
482,289,61804,2,0,L|480:170,1,100,0|0,3:0|3:0,0:0:0:0:
439,65,62510,2,0,P|405:74|380:109,1,66.6666666666667,8|0,0:0|0:0,0:0:0:0:
380,140,62863,2,0,L|288:135,1,66.6666666666667,0|2,1:0|0:0,0:0:0:0:
270,140,63216,6,0,P|242:100|247:26,1,100,0|0,3:0|3:0,0:0:0:0:
108,62,63922,1,8,0:0:0:0:
151,184,64275,2,0,L|68:200,1,66.6666666666667,0|2,1:0|0:0,0:0:0:0:
56,229,64628,2,0,P|42:291|66:333,1,100,0|0,3:0|3:0,0:0:0:0:
184,347,65334,2,0,L|193:280,1,66.6666666666667,8|0,0:0|0:0,0:0:0:0:
230,260,65686,2,0,L|302:255,1,66.6666666666667,0|2,1:0|0:0,0:0:0:0:
330,283,66039,6,0,P|387:300|423:272,1,100,0|0,3:0|3:0,0:0:0:0:
441,147,66745,2,0,P|404:132|339:157,1,100,8|0,0:0|1:0,0:0:0:0:
218,157,67451,2,0,B|188:103|212:43|212:43|173:30|138:88,1,200,0|4,3:0|0:3,0:0:0:0:
30,140,68510,1,8,0:0:0:0:
57,266,68863,6,0,L|164:298,1,100,12|2,0:0|0:0,0:0:0:0:
262,364,69569,1,8,0:0:0:0:
278,235,69922,2,0,L|362:226,1,66.6666666666667,2|2,0:0|0:0,0:0:0:0:
388,234,70275,2,0,B|442:239|442:239|501:215,2,100,8|8|8,0:0|0:0|0:0,0:0:0:0:
339,113,71334,2,0,P|286:103|253:112,1,66.6666666666667,2|2,0:0|0:0,0:0:0:0:
233,117,71686,6,0,P|227:67|241:19,1,100,12|2,0:0|0:0,0:0:0:0:
111,33,72392,1,8,0:0:0:0:
91,161,72745,2,0,L|19:176,1,66.6666666666667,8|2,0:0|0:0,0:0:0:0:
20,217,73098,2,0,P|-4:264|13:313,1,100,8|2,0:0|0:0,0:0:0:0:
130,352,73804,2,0,B|179:366|179:366|251:365,1,100,8|8,0:0|0:0,0:0:0:0:
357,349,74510,6,0,L|338:233,1,100,12|2,0:0|0:0,0:0:0:0:
403,136,75216,1,8,0:0:0:0:
306,48,75569,2,0,L|222:62,1,66.6666666666667,2|2,0:0|0:1,0:0:0:0:
206,85,75922,2,0,P|145:84|99:60,2,100,8|8|8,0:0|0:0|0:0,0:0:0:0:
145,200,76981,2,0,L|123:286,1,66.6666666666667,2|2,0:0|0:0,0:0:0:0:
108,303,77334,6,0,L|218:315,1,100,12|2,0:0|0:0,0:0:0:0:
332,348,78039,2,0,P|324:286|328:261,1,66.6666666666667,8|2,0:0|0:1,0:0:0:0:
347,245,78392,2,0,L|432:255,1,66.6666666666667,8|2,0:0|0:0,0:0:0:0:
456,254,78745,1,8,0:0:0:0:
137,66,91451,6,0,P|90:55|61:85,1,66.6666666666667,4|0,0:3|0:0,0:0:0:0:
41,89,91804,1,0,1:0:0:0:
66,216,92157,2,0,P|115:221|142:215,1,66.6666666666667,8|0,0:0|0:0,0:0:0:0:
168,194,92510,1,0,1:0:0:0:
294,223,92863,6,0,L|297:300,1,66.6666666666667,4|0,0:3|0:0,0:0:0:0:
299,332,93216,1,0,1:0:0:0:
427,348,93569,2,0,L|418:260,1,66.6666666666667,8|0,0:0|0:0,0:0:0:0:
419,238,93922,1,0,1:0:0:0:
345,134,94275,6,0,B|397:128|397:128|416:78,1,100,4|0,0:3|1:0,0:0:0:0:
307,7,94981,2,0,B|263:27|263:27|251:88,1,100,8|0,0:0|1:0,0:0:0:0:
152,160,95686,5,4,0:3:0:0:
152,160,96039,1,0,1:0:0:0:
53,244,96392,1,8,0:0:0:0:
53,244,96745,1,4,0:3:0:0:
149,330,97098,6,0,L|237:351,1,66.6666666666667,4|0,0:3|0:0,0:0:0:0:
254,360,97451,1,0,1:0:0:0:
306,230,97804,2,0,L|223:200,1,66.6666666666667,8|0,0:0|0:0,0:0:0:0:
209,180,98157,1,0,1:0:0:0:
315,104,98510,6,0,P|318:54|329:35,1,66.6666666666667,4|0,0:3|0:0,0:0:0:0:
352,5,98863,1,0,1:0:0:0:
471,55,99216,2,0,P|475:90|465:131,1,66.6666666666667,8|0,0:0|0:0,0:0:0:0:
441,153,99569,1,0,1:0:0:0:
461,277,99922,6,0,B|431:322|431:322|378:334,1,100,4|0,0:3|1:0,0:0:0:0:
293,240,100628,2,0,B|319:184|319:184|378:167,1,100,8|4,0:0|0:3,0:0:0:0:
479,132,101334,1,4,0:3:0:0:
98,77,102745,6,0,L|87:152,1,66.6666666666667,2|0,0:1|0:0,0:0:0:0:
83,186,103098,1,2,0:0:0:0:
77,315,103451,2,0,L|162:323,1,66.6666666666667,2|0,1:0|0:0,0:0:0:0:
180,299,103804,1,2,0:0:0:0:
254,192,104157,6,0,P|254:146|267:115,1,66.6666666666667,2|0,0:1|0:0,0:0:0:0:
267,83,104510,1,2,0:2:0:0:
396,68,104863,2,0,P|451:89|476:86,1,66.6666666666667,2|0,0:1|1:0,0:0:0:0:
500,81,105216,1,2,0:0:0:0:
476,208,105569,6,0,B|490:267|490:267|478:316,1,100,2|2,0:1|0:0,0:0:0:0:
350,309,106275,2,0,B|271:314|271:314|240:283,1,100,2|2,1:0|0:0,0:0:0:0:
130,306,106981,5,2,0:1:0:0:
130,306,107334,1,2,0:0:0:0:
71,196,107686,1,2,0:1:0:0:
71,196,108039,1,2,0:0:0:0:
123,77,108392,6,0,L|217:48,1,66.6666666666667,2|0,0:1|0:0,0:0:0:0:
229,63,108745,1,2,0:0:0:0:
212,191,109098,2,0,L|224:282,1,66.6666666666667,2|0,1:0|0:0,0:0:0:0:
202,296,109451,1,2,0:0:0:0:
329,321,109804,6,0,P|390:328|415:307,1,66.6666666666667,2|0,0:1|0:0,0:0:0:0:
434,318,110157,1,2,0:0:0:0:
435,187,110510,2,0,P|431:125|421:111,1,66.6666666666667,2|0,0:1|1:0,0:0:0:0:
414,82,110863,1,2,0:0:0:0:
290,121,111216,6,0,B|244:123|244:123|191:88,1,100,2|2,0:1|0:0,0:0:0:0:
94,171,111922,2,0,B|86:237|86:237|120:271,1,100,2|2,1:0|0:0,0:0:0:0:
226,318,112628,1,8,0:0:0:0:
412,92,114039,6,0,L|324:91,1,66.6666666666667,8|0,0:0|0:0,0:0:0:0:
339,306,115451,6,0,L|264:304,1,66.6666666666667,8|0,0:0|0:0,0:0:0:0:
265,153,116863,6,0,L|195:147,1,66.6666666666667,8|0,0:0|0:0,0:0:0:0:
148,313,117569,2,0,L|66:311,1,66.6666666666667,8|0,0:0|0:0,0:0:0:0:
17,150,118275,5,2,0:3:0:0:
383,93,119686,6,0,P|423:139|423:190,1,100,12|2,0:0|0:0,0:0:0:0:
430,306,120392,1,8,0:0:0:0:
309,258,120745,2,0,L|226:286,1,66.6666666666667,2|2,0:0|0:0,0:0:0:0:
204,295,121098,2,0,L|100:329,2,100,8|8|8,0:0|0:0|0:0,0:0:0:0:
122,192,122157,2,0,L|110:117,1,66.6666666666667,2|2,0:0|0:0,0:0:0:0:
105,83,122510,6,0,P|168:83|207:60,1,100,12|2,0:0|0:0,0:0:0:0:
329,56,123216,1,8,0:0:0:0:
304,183,123569,2,0,L|298:251,1,66.6666666666667,8|2,0:0|0:0,0:0:0:0:
294,292,123922,2,0,L|410:310,1,100,8|2,0:0|0:0,0:0:0:0:
465,199,124628,2,0,P|483:144|459:93,1,100,8|8,0:0|0:0,0:0:0:0:
345,66,125334,6,0,L|246:85,1,100,12|2,0:0|0:0,0:0:0:0:
137,156,126039,1,8,0:0:0:0:
238,236,126392,2,0,L|243:330,1,66.6666666666667,2|2,0:0|0:1,0:0:0:0:
226,343,126745,2,0,L|110:366,2,100,8|8|8,0:0|0:0|0:0,0:0:0:0:
64,129,128157,5,12,0:0:0:0:
177,66,128510,1,2,0:0:0:0:
196,194,128863,1,8,0:0:0:0:
324,213,129216,1,8,0:0:0:0:
396,321,129569,1,8,0:0:0:0:
464,70,130275,2,0,P|404:60|353:78,1,100,2|2,0:1|0:1,0:0:0:0:
238,46,130981,6,0,L|262:167,1,100,12|2,0:3|0:0,0:0:0:0:
374,200,131686,1,8,0:3:0:0:
453,303,132039,1,2,0:0:0:0:
328,342,132392,2,0,L|249:355,1,66.6666666666667,8|2,0:3|0:1,0:0:0:0:
218,350,132745,2,0,P|208:302|211:282,1,66.6666666666667,2|2,0:0|0:1,0:0:0:0:
214,241,133098,1,8,0:3:0:0:
140,195,133334,2,0,P|113:156|127:92,1,100,2|2,0:1|0:1,0:0:0:0:
103,64,133804,6,0,L|218:65,1,100,12|2,0:3|0:0,0:0:0:0:
333,67,134510,1,8,0:3:0:0:
441,138,134863,1,2,0:0:0:0:
448,267,135216,2,0,P|461:304|452:333,1,66.6666666666667,8|2,0:3|0:1,0:0:0:0:
411,337,135569,2,0,L|327:331,1,66.6666666666667,2|2,0:0|0:1,0:0:0:0:
304,316,135922,1,8,0:3:0:0:
266,237,136157,2,0,P|271:147|249:116,1,100,2|2,0:1|0:1,0:0:0:0:
261,97,136628,6,0,L|152:87,1,100,12|2,0:3|0:0,0:0:0:0:
31,99,137334,1,8,0:3:0:0:
21,228,137686,1,2,0:0:0:0:
110,322,138039,2,0,P|164:340|195:324,1,66.6666666666667,8|2,0:3|0:1,0:0:0:0:
212,323,138392,2,0,L|214:247,1,66.6666666666667,2|2,0:0|0:1,0:0:0:0:
212,212,138745,1,8,0:3:0:0:
296,189,138981,2,0,P|354:164|410:180,1,100,2|2,0:1|0:1,0:0:0:0:
427,189,139451,6,0,L|442:302,1,100,12|2,0:3|0:0,0:0:0:0:
311,312,140157,1,8,0:3:0:0:
180,310,140510,1,2,0:0:0:0:
89,216,140863,2,0,P|69:168|69:137,1,66.6666666666667,8|2,0:3|0:1,0:0:0:0:
68,110,141216,2,0,L|149:92,1,66.6666666666667,2|2,0:0|0:1,0:0:0:0:
172,78,141569,1,8,0:3:0:0:
251,111,141804,2,0,P|266:188|279:217,1,100,2|0,0:1|0:0,0:0:0:0:
301,241,142275,6,0,P|369:249|400:236,1,100,8|0,0:0|0:0,0:0:0:0:
