osu file format v14

[General]
AudioFilename: LittlE_HearTs_.mp3
AudioLeadIn: 0
PreviewTime: 95510
Countdown: 0
SampleSet: Soft
StackLeniency: 0.7
Mode: 0
LetterboxInBreaks: 0
WidescreenStoryboard: 1

[Editor]
Bookmarks: 10910,20510,39710,50510,66260,75710,85310,86960,94910,114710
DistanceSpacing: 1.1
BeatDivisor: 4
GridSize: 4
TimelineZoom: 2.3

[Metadata]
Title:*LittlE HearTs*
TitleUnicode:★LittlE HearTs★
Artist:Nekomimi Mahoutsukai
ArtistUnicode:ねこみみ魔法使い
Creator:phoon
Version:Normal
Source:BMS
Tags:
BeatmapID:2122636
BeatmapSetID:290710

[Difficulty]
HPDrainRate:3
CircleSize:3
OverallDifficulty:4
ApproachRate:6
SliderMultiplier:1.2
SliderTickRate:1

[Events]
//Background and Video events
0,0,"bg.jpg",0,0
//Break Periods
//Storyboard Layer 0 (Background)
//Storyboard Layer 1 (Fail)
//Storyboard Layer 2 (Pass)
//Storyboard Layer 3 (Foreground)
//Storyboard Layer 4 (Overlay)
//Storyboard Sound Samples

[TimingPoints]
1310,300,4,2,1,60,1,0
5810,-79.9999999999999,4,2,1,60,0,0
39710,-100,4,2,1,60,0,0
55310,-80,4,2,1,60,0,0
95510,-80,4,2,1,60,0,1
105035,-80,4,2,1,60,0,0
105110,-80,4,2,1,60,0,1
114635,-80,4,2,1,60,0,0
114710,-80,4,2,1,60,0,1
124010,-66.6666666666667,4,2,1,60,0,0
124310,-66.6666666666667,4,2,1,60,0,1

[HitObjects]
256,320,1310,6,0,L|316:316,2,60,2|0|0,0:0|0:0|0:0,0:0:0:0:
192,300,1760,2,0,P|160:252|192:200,1,120,2|0,0:0|0:0,0:0:0:0:
252,184,2210,1,0,0:0:0:0:
380,152,2510,6,0,P|412:104|384:52,1,120,2|0,0:0|0:0,0:0:0:0:
320,68,2960,2,0,P|260:64|200:64,1,120,2|0,0:0|0:0,0:0:0:0:
140,96,3410,1,0,0:0:0:0:
40,184,3710,6,0,L|43:124,2,60,2|0|0,0:0|0:0|0:0,0:0:0:0:
88,232,4160,2,0,P|100:292|148:324,1,120,2|0,0:0|0:0,0:0:0:0:
212,308,4610,1,0,0:0:0:0:
340,280,4910,6,0,P|372:284|400:284,2,60,2|0|0,0:0|0:0|0:0,0:0:0:0:
304,224,5360,2,0,P|300:164|300:104,1,120,2|0,0:0|0:0,0:0:0:0:
256,56,5810,6,0,P|220:52|180:52,1,75,4|0,1:0|0:0,0:0:0:0:
116,104,6110,6,0,P|78:103|40:100,2,75,4|0|8,0:0|0:0|0:0,0:0:0:0:
180,160,6560,2,0,P|232:204|192:260,1,150
128,316,7010,1,8,0:0:0:0:
292,324,7310,6,0,P|368:312|444:308,1,150,0|8,0:0|0:0,0:0:0:0:
468,228,7760,2,0,P|400:184|396:116,1,150
368,40,8210,1,8,0:0:0:0:
204,68,8510,6,0,L|200:148,2,75,0|0|8,0:0|0:0|0:0,0:0:0:0:
124,40,8960,2,0,P|84:100|120:164,1,150
176,224,9410,1,8,0:0:0:0:
316,316,9710,6,0,P|316:280|320:236,1,75
368,172,10010,2,0,P|408:172|440:192,2,75,8|0|0,0:0|0:0|0:0,0:0:0:0:
208,128,10610,6,0,P|208:92|211:53,1,75,4|0,1:0|0:0,0:0:0:0:
296,48,10910,6,0,P|336:44|368:56,1,75,6|0,0:0|0:0,0:0:0:0:
440,100,11210,2,0,P|444:176|444:252,2,150,8|0|8,0:0|0:0|0:0,0:0:0:0:
276,68,12110,6,0,P|204:72|124:84,1,150,0|8,0:0|0:0,0:0:0:0:
52,120,12560,2,0,P|20:172|76:228,1,150
152,260,13010,1,8,0:0:0:0:
316,264,13310,6,0,L|392:268,1,75
428,192,13610,2,0,P|412:120|352:76,2,150,8|0|8,0:0|0:0|0:0,0:0:0:0:
360,344,14510,6,0,L|190:333,1,150,0|8,0:0|0:0,0:0:0:0:
144,284,14960,2,0,P|100:220|140:172,1,150
216,140,15410,1,8,0:0:0:0:
276,200,15560,1,0,0:0:0:0:
356,172,15710,1,2,0:0:0:0:
460,44,16010,6,0,P|452:120|444:193,2,150,8|0|8,0:0|0:0|0:0,0:0:0:0:
296,68,16910,6,0,P|224:60|152:92,1,150,0|8,0:0|0:0,0:0:0:0:
72,112,17360,2,0,P|68:188|68:264,1,150
116,332,17810,1,8,0:0:0:0:
276,300,18110,6,0,P|272:260|268:224,1,75
336,176,18410,2,0,P|372:112|324:60,2,150,8|0|8,0:0|0:0|0:0,0:0:0:0:
172,208,19310,6,0,P|176:168|180:132,1,75
128,68,19610,1,8,0:0:0:0:
52,100,19760,1,0,0:0:0:0:
52,100,20210,6,0,L|44:64,3,37.5,4|0|0|0,1:0|0:0|0:0|0:0,0:0:0:0:
52,100,20510,6,0,P|52:136|60:176,1,75,6|0,0:0|0:0,0:0:0:0:
140,200,20810,2,0,P|148:236|148:276,2,75,8|2|0,0:0|0:0|0:0,0:0:0:0:
200,140,21260,1,0,0:0:0:0:
341,106,21560,5,0,0:0:0:0:
422,132,21710,2,0,P|428:168|430:208,1,75,2|0,0:0|0:0,0:0:0:0:
368,268,22010,1,8,0:0:0:0:
304,324,22160,2,0,P|232:344|168:308,2,150,2|0|0,0:0|0:0|0:0,0:0:0:0:
368,268,22910,6,0,P|408:268|442:264,1,75,2|0,0:0|0:0,0:0:0:0:
508,212,23210,1,8,0:0:0:0:
436,172,23360,1,2,0:0:0:0:
312,64,23660,6,0,P|244:84|244:160,1,150
224,236,24110,2,0,P|188:248|152:248,2,75,2|0|8,0:0|0:0|0:0,0:0:0:0:
304,212,24560,1,2,0:0:0:0:
452,140,24860,6,0,P|456:100|456:60,2,75,0|8|0,0:0|0:0|0:0,0:0:0:0:
416,216,25310,6,0,P|412:256|412:296,1,75,2|0,0:0|0:0,0:0:0:0:
344,340,25610,1,8,0:0:0:0:
272,296,25760,1,2,0:0:0:0:
192,320,25910,2,0,P|152:320|116:316,1,75
12,188,26360,5,0,0:0:0:0:
92,164,26510,2,0,P|132:164|168:168,2,75,2|0|8,0:0|0:0|0:0,0:0:0:0:
32,108,26960,2,0,P|96:68|172:64,2,150,2|0|0,0:0|0:0|0:0,0:0:0:0:
12,188,27710,2,0,P|16:228|16:268,1,75,2|0,0:0|0:0,0:0:0:0:
92,300,28010,1,8,0:0:0:0:
168,264,28160,1,2,0:0:0:0:
264,128,28460,6,0,P|260:88|260:48,2,75,0|8|0,0:0|0:0|0:0,0:0:0:0:
336,172,28910,1,2,0:0:0:0:
300,248,29060,1,0,0:0:0:0:
376,284,29210,2,0,P|416:292|452:284,1,75,8|2,0:0|0:0,0:0:0:0:
336,172,29660,6,0,P|296:164|260:172,1,75,0|8,0:0|0:0,0:0:0:0:
192,216,29960,1,0,0:0:0:0:
112,192,30110,6,0,P|104:152|108:112,1,75,6|0,0:0|0:0,0:0:0:0:
176,68,30410,2,0,P|204:40|240:36,2,75,8|2|0,0:0|0:0|0:0,0:0:0:0:
188,148,30860,1,0,0:0:0:0:
348,184,31160,5,0,0:0:0:0:
300,252,31310,2,0,P|264:264|228:268,1,75,2|0,0:0|0:0,0:0:0:0:
172,328,31610,1,8,0:0:0:0:
92,300,31760,2,0,P|64:236|112:176,2,150,2|0|0,0:0|0:0|0:0,0:0:0:0:
172,328,32510,6,0,P|212:324|248:324,1,75,2|0,0:0|0:0,0:0:0:0:
328,300,32810,1,8,0:0:0:0:
408,284,32960,1,2,0:0:0:0:
316,148,33260,6,0,P|268:96|204:132,1,150
128,160,33710,2,0,P|88:168|52:160,2,75,2|0|8,0:0|0:0|0:0,0:0:0:0:
196,212,34160,1,2,0:0:0:0:
344,140,34460,6,0,P|352:104|356:60,2,75,0|8|0,0:0|0:0|0:0,0:0:0:0:
296,208,34910,6,0,P|260:217|223:209,1,75,2|0,0:0|0:0,0:0:0:0:
140,200,35210,1,8,0:0:0:0:
104,276,35360,1,2,0:0:0:0:
168,328,35510,2,0,P|204:319|241:327,1,75
396,268,35960,5,0,0:0:0:0:
444,200,36110,2,0,P|448:164|460:124,2,75,2|0|8,0:0|0:0|0:0,0:0:0:0:
360,192,36560,2,0,P|344:120|384:48,2,150,2|0|0,0:0|0:0|0:0,0:0:0:0:
396,268,37310,6,0,P|360:272|320:280,1,75,2|0,0:0|0:0,0:0:0:0:
252,328,37610,1,8,0:0:0:0:
176,292,37760,1,2,0:0:0:0:
164,128,38060,6,0,P|127:120|89:116,2,75,0|8|0,0:0|0:0|0:0,0:0:0:0:
212,196,38510,1,2,0:0:0:0:
300,188,38660,1,0,0:0:0:0:
348,256,38810,2,0,P|384:263|422:267,1,75,8|2,0:0|0:0,0:0:0:0:
422,267,39710,6,0,P|432:208|436:144,1,120,4|0,0:0|0:0,0:0:0:0:
312,96,40310,2,0,L|298:219,1,120
176,160,40910,2,0,P|180:104|190:37,2,120
60,228,41810,1,0,0:0:0:0:
160,316,42110,6,0,P|220:324|284:328,1,120
224,208,42710,2,0,L|343:219,1,120
292,96,43310,2,0,P|352:100|416:108,2,120
196,188,44210,1,0,0:0:0:0:
84,255,44510,6,0,P|79:196|79:136,1,120,4|0,0:0|0:0,0:0:0:0:
196,188,45110,2,0,P|191:247|191:307,1,120
316,255,45710,2,0,P|311:196|311:136,1,120
428,188,46310,2,0,P|423:247|423:307,1,120
296,332,46910,6,0,P|292:272|280:212,1,120
396,152,47510,6,0,P|336:156|276:168,1,120
216,52,48110,6,0,P|220:112|232:172,1,120
116,232,48710,6,0,P|176:228|236:216,1,120
256,192,49310,12,0,50210,0:0:0:0:
316,252,50510,6,0,P|256:255|196:252,1,120,4|0,0:0|0:0,0:0:0:0:
168,192,50959,1,0,0:0:0:0:
196,132,51109,2,0,P|255:128|315:131,1,120
448,132,51710,6,0,P|467:187|447:243,1,120,4|0,0:0|0:0,0:0:0:0:
383,259,52159,1,0,0:0:0:0:
315,244,52310,2,0,P|295:188|315:132,1,120
196,136,52910,6,0,P|215:191|195:247,1,120,4|0,0:0|0:0,0:0:0:0:
131,264,53359,1,0,0:0:0:0:
63,248,53509,2,0,P|43:192|63:136,1,120,4|0,0:0|0:0,0:0:0:0:
127,120,53960,1,0,0:0:0:0:
191,100,54110,6,4,P|251:96|315:92,2,120
64,140,55010,1,4,0:0:0:0:
64,140,55310,6,0,P|56:220|52:292,1,150,6|8,0:0|0:0,0:0:0:0:
124,328,55760,2,0,P|192:352|252:296,1,150,2|0,0:0|0:0,0:0:0:0:
303,244,56210,2,0,P|266:240|229:239,1,75,8|0,0:0|0:0,0:0:0:0:
188,168,56510,6,0,P|168:104|216:40,1,150,2|8,0:0|0:0,0:0:0:0:
254,113,56960,2,0,P|274:177|226:241,1,150,2|0,0:0|0:0,0:0:0:0:
144,244,57410,2,0,P|106:244|69:248,1,75,8|0,0:0|0:0,0:0:0:0:
188,168,57710,6,0,P|264:168|336:152,1,150,2|8,0:0|0:0,0:0:0:0:
420,140,58160,2,0,P|468:196|424:248,1,150,2|0,0:0|0:0,0:0:0:0:
352,284,58610,2,0,P|351:321|347:358,1,75,8|0,0:0|0:0,0:0:0:0:
264,348,58910,6,0,P|216:292|260:240,1,150,2|8,0:0|0:0,0:0:0:0:
328,196,59360,2,0,P|376:140|332:88,1,150,2|0,0:0|0:0,0:0:0:0:
256,60,59810,2,0,L|252:20,2,37.5,8|0|0,0:0|0:0|0:0,0:0:0:0:
228,140,60110,6,0,P|152:140|72:144,1,150,6|8,0:0|0:0,0:0:0:0:
40,220,60560,2,0,P|104:260|160:224,1,150,2|0,0:0|0:0,0:0:0:0:
244,232,61010,2,0,P|280:228|320:232,1,75,8|0,0:0|0:0,0:0:0:0:
344,152,61310,6,0,P|416:160|468:104,1,150,2|8,0:0|0:0,0:0:0:0:
388,76,61760,2,0,P|316:68|264:124,1,150,2|0,0:0|0:0,0:0:0:0:
276,200,62210,2,0,P|240:200|200:196,1,75,8|0,0:0|0:0,0:0:0:0:
344,152,62510,6,0,P|392:208|364:276,1,150,2|8,0:0|0:0,0:0:0:0:
284,260,62960,2,0,P|244:320|172:316,1,150,2|0,0:0|0:0,0:0:0:0:
112,260,63410,2,0,P|108:224|108:184,1,75,8|0,0:0|0:0,0:0:0:0:
72,108,63710,6,0,P|148:100|224:96,1,150,2|8,0:0|0:0,0:0:0:0:
288,144,64160,2,0,P|362:139|437:132,1,150,2|0,0:0|0:0,0:0:0:0:
488,64,64610,2,0,L|492:24,2,37.5,8|0|0,0:0|0:0|0:0,0:0:0:0:
437,132,64910,6,0,P|432:208|432:284,1,150,6|8,0:0|0:0,0:0:0:0:
360,324,65360,2,0,P|300:356|232:316,1,150,2|0,0:0|0:0,0:0:0:0:
160,284,65810,2,0,P|120:284|84:280,1,75,8|0,0:0|0:0,0:0:0:0:
72,196,66110,6,0,P|132:176|212:212,1,150,2|8,0:0|0:0,0:0:0:0:
276,160,66560,2,0,P|335:196|386:148,1,150,2|0,0:0|0:0,0:0:0:0:
463,112,67010,2,0,P|471:75|472:37,1,75,8|0,0:0|0:0,0:0:0:0:
386,148,67310,6,0,P|380:224|376:300,1,150,2|8,0:0|0:0,0:0:0:0:
296,328,67760,2,0,P|232:356|164:320,1,150,2|0,0:0|0:0,0:0:0:0:
140,240,68210,2,0,P|100:240|64:236,1,75,8|0,0:0|0:0,0:0:0:0:
40,156,68510,6,0,P|108:132|176:164,1,150,2|8,0:0|0:0,0:0:0:0:
228,228,68960,2,0,P|232:156|236:72,1,150,2|0,0:0|0:0,0:0:0:0:
316,52,69410,2,0,L|312:14,2,37.5,8|0|0,0:0|0:0|0:0,0:0:0:0:
392,88,69710,6,0,P|448:136|416:196,1,150,6|8,0:0|0:0,0:0:0:0:
340,224,70160,2,0,P|332:300|332:380,1,150,2|0,0:0|0:0,0:0:0:0:
248,368,70610,2,0,P|208:364|168:364,1,75,8|0,0:0|0:0,0:0:0:0:
104,316,70910,6,0,P|76:252|124:196,1,150,2|8,0:0|0:0,0:0:0:0:
200,168,71360,2,0,P|200:92|140:64,1,150,2|0,0:0|0:0,0:0:0:0:
83,124,71810,2,0,P|48:128|9:120,1,75,8|0,0:0|0:0,0:0:0:0:
122,196,72110,6,0,P|196:192|272:200,1,150,2|8,0:0|0:0,0:0:0:0:
320,268,72560,2,0,P|376:228|364:152,1,150,2|0,0:0|0:0,0:0:0:0:
348,72,73010,2,0,P|308:68|272:68,1,75,8|0,0:0|0:0,0:0:0:0:
212,124,73310,6,0,P|172:188|216:240,1,150,2|8,0:0|0:0,0:0:0:0:
296,224,73760,2,0,P|336:288|292:340,1,150,2|0,0:0|0:0,0:0:0:0:
212,324,74210,2,0,L|168:328,2,37.5,8|0|0,0:0|0:0|0:0,0:0:0:0:
256,192,74510,12,0,75410,0:0:0:0:
296,224,75710,6,0,L|372:220,2,75,0|0|8,0:0|0:0|0:0,0:0:0:0:
216,252,76160,1,0,0:0:0:0:
168,92,76460,6,0,L|93:95,1,75,0|8,0:0|0:0,0:0:0:0:
56,168,76760,1,0,0:0:0:0:
132,204,76910,2,0,P|136:244|128:284,2,75,0|0|8,0:0|0:0|0:0,0:0:0:0:
208,168,77360,1,0,0:0:0:0:
372,144,77660,6,0,P|376:104|376:64,1,75,0|8,0:0|0:0,0:0:0:0:
292,56,77960,1,0,0:0:0:0:
284,140,78110,2,0,P|284:176|288:220,1,75
368,232,78410,2,0,P|400:304|464:336,2,150,8|0|8,0:0|0:0|0:0,0:0:0:0:
444,196,79160,1,0,0:0:0:0:
412,120,79310,6,0,P|376:116|336:116,1,75
256,96,79610,2,0,P|216:96|180:92,1,75,8|0,0:0|0:0,0:0:0:0:
104,60,79910,2,0,P|68:56|28:56,2,75,0|0|8,0:0|0:0|0:0,0:0:0:0:
112,144,80360,1,0,0:0:0:0:
188,180,80510,6,0,P|192:216|192:256,1,75
220,332,80810,2,0,P|256:340|296:332,1,75,8|0,0:0|0:0,0:0:0:0:
320,256,81110,1,0,0:0:0:0:
372,320,81260,1,0,0:0:0:0:
452,176,81560,5,0,0:0:0:0:
424,96,81710,2,0,P|388:92|344:92,2,75,0|0|8,0:0|0:0|0:0,0:0:0:0:
452,176,82160,2,0,P|436:216|428:256,1,75
352,280,82460,1,0,0:0:0:0:
320,204,82610,2,0,P|284:200|244:204,1,75,8|0,0:0|0:0,0:0:0:0:
164,220,82910,6,0,P|156:184|156:144,1,75
228,100,83210,6,0,P|264:92|304:92,1,75,8|0,0:0|0:0,0:0:0:0:
348,164,83510,6,0,P|356:200|356:240,1,75
284,284,83810,6,0,P|248:292|208:292,1,75,8|0,0:0|0:0,0:0:0:0:
184,212,84110,5,0,0:0:0:0:
128,276,84260,1,0,0:0:0:0:
100,196,84410,1,8,0:0:0:0:
48,260,84560,2,0,P|32:192|36:104,2,150
128,276,85310,5,6,0:0:0:0:
184,212,85460,1,0,0:0:0:0:
268,220,85610,2,0,P|328:180|400:196,2,150,8|0|8,0:0|0:0|0:0,0:0:0:0:
104,248,86510,2,0,P|96:172|92:96,1,150,0|8,0:0|0:0,0:0:0:0:
172,72,86960,2,0,P|240:108|304:76,1,150
380,48,87410,1,8,0:0:0:0:
340,208,87710,6,0,P|304:208|264:212,1,75
188,248,88010,2,0,P|144:312|180:364,2,150,8|0|8,0:0|0:0|0:0,0:0:0:0:
292,116,88910,2,0,P|368:124|444:128,1,150,0|8,0:0|0:0,0:0:0:0:
456,212,89360,2,0,P|396:252|320:248,1,150
236,256,89810,2,0,P|232:220|232:180,2,75,8|0|2,0:0|0:0|0:0,0:0:0:0:
392,196,90410,6,0,P|404:120|408:40,2,150,12|0|8,0:0|0:0|0:0,0:0:0:0:
296,332,91310,2,0,P|240:288|164:304,1,150,0|8,0:0|0:0,0:0:0:0:
96,256,91760,2,0,P|84:180|80:100,1,150
148,56,92210,1,8,0:0:0:0:
308,100,92510,6,0,P|348:96|384:96,1,75
432,164,92810,2,0,P|460:228|432:300,2,150,8|0|8,0:0|0:0|0:0,0:0:0:0:
352,140,93560,1,0,0:0:0:0:
296,200,93710,6,0,P|256:204|220:200,2,75,0|0|8,0:0|0:0|0:0,0:0:0:0:
352,140,94160,1,0,0:0:0:0:
352,140,94610,6,0,L|341:214,1,75,4|0,1:0|0:0,0:0:0:0:
308,288,94910,2,0,L|264:292,7,37.5
236,312,95510,6,0,L|160:308,1,75,6|0,0:0|0:0,0:0:0:0:
80,284,95810,1,8,0:0:0:0:
140,228,95960,2,0,P|152:192|148:156,1,75,2|0,0:0|0:0,0:0:0:0:
72,120,96260,1,0,0:0:0:0:
236,88,96560,5,0,0:0:0:0:
316,76,96710,2,0,L|396:64,2,75,2|0|8,0:0|0:0|0:0,0:0:0:0:
328,156,97160,2,0,P|396:188|472:184,2,150,2|0|0,0:0|0:0|0:0,0:0:0:0:
244,160,97910,6,0,P|208:152|168:148,1,75,2|0,0:0|0:0,0:0:0:0:
92,180,98210,1,8,0:0:0:0:
104,100,98360,2,0,P|184:96|208:40,2,150,2|0|0,0:0|0:0|0:0,0:0:0:0:
92,180,99110,6,0,P|100:216|108:256,1,75,2|0,0:0|0:0,0:0:0:0:
152,324,99410,1,8,0:0:0:0:
212,264,99560,1,2,0:0:0:0:
324,140,99860,5,0,0:0:0:0:
384,80,100010,1,8,0:0:0:0:
429,151,100160,1,0,0:0:0:0:
372,208,100310,6,0,P|364:248|360:284,1,75,6|0,0:0|0:0,0:0:0:0:
296,336,100610,1,8,0:0:0:0:
260,260,100760,2,0,P|224:264|184:268,1,75,2|0,0:0|0:0,0:0:0:0:
148,344,101060,1,0,0:0:0:0:
104,184,101360,5,0,0:0:0:0:
140,108,101510,2,0,P|176:104|216:100,1,75,2|0,0:0|0:0,0:0:0:0:
256,28,101810,1,8,0:0:0:0:
308,92,101960,2,0,P|376:100|448:52,2,150,2|0|0,0:0|0:0|0:0,0:0:0:0:
268,164,102710,6,0,L|264:240,1,75,2|0,0:0|0:0,0:0:0:0:
232,316,103010,1,8,0:0:0:0:
180,252,103160,1,2,0:0:0:0:
36,168,103460,5,0,0:0:0:0:
88,104,103610,1,8,0:0:0:0:
124,180,103760,1,0,0:0:0:0:
180,116,103910,2,0,P|204:84|216:48,2,75,2|0|8,0:0|0:0|0:0,0:0:0:0:
212,192,104360,1,2,0:0:0:0:
372,240,104660,6,0,L|448:236,2,75,0|8|0,0:0|0:0|0:0,0:0:0:0:
312,300,105110,6,0,P|276:300|240:316,1,75,6|0,0:0|0:0,0:0:0:0:
160,292,105410,1,8,0:0:0:0:
84,324,105560,1,2,0:0:0:0:
36,256,105710,2,0,L|44:180,1,75
196,120,106160,5,0,0:0:0:0:
276,92,106310,2,0,P|280:52|288:8,2,75,2|0|8,0:0|0:0|0:0,0:0:0:0:
340,144,106760,2,0,P|392:100|460:136,2,150,2|0|0,0:0|0:0|0:0,0:0:0:0:
260,176,107510,6,0,P|256:216|248:260,1,75,2|0,0:0|0:0,0:0:0:0:
264,332,107810,1,8,0:0:0:0:
196,288,107960,2,0,P|140:248|68:276,2,150,2|0|0,0:0|0:0|0:0,0:0:0:0:
264,332,108710,6,0,L|340:324,1,75,2|0,0:0|0:0,0:0:0:0:
380,252,109010,1,8,0:0:0:0:
424,324,109160,1,2,0:0:0:0:
480,168,109460,5,0,0:0:0:0:
432,100,109610,1,8,0:0:0:0:
368,156,109760,1,0,0:0:0:0:
332,80,109910,6,0,P|296:76|252:76,1,75,6|0,0:0|0:0,0:0:0:0:
212,144,110210,1,8,0:0:0:0:
144,96,110360,2,0,P|128:128|132:172,1,75,2|0,0:0|0:0,0:0:0:0:
72,228,110660,1,0,0:0:0:0:
188,348,110960,5,0,0:0:0:0:
252,292,111110,2,0,P|268:260|264:216,1,75,2|0,0:0|0:0,0:0:0:0:
328,164,111410,1,8,0:0:0:0:
284,92,111560,2,0,P|320:40|400:60,2,150,2|0|0,0:0|0:0|0:0,0:0:0:0:
228,152,112310,6,0,L|152:156,1,75,2|0,0:0|0:0,0:0:0:0:
76,188,112610,1,8,0:0:0:0:
32,116,112760,1,2,0:0:0:0:
196,84,113060,5,0,0:0:0:0:
273,51,113210,1,8,0:0:0:0:
317,123,113360,1,0,0:0:0:0:
400,108,113510,2,0,P|412:68|420:32,2,75,2|0|8,0:0|0:0|0:0,0:0:0:0:
444,180,113960,1,2,0:0:0:0:
450,186,114410,6,0,P|438:226|430:262,1,75,4|0,1:0|0:0,0:0:0:0:
376,324,114710,6,0,P|340:328|300:324,1,75,6|0,0:0|0:0,0:0:0:0:
232,276,115010,1,8,0:0:0:0:
160,320,115160,1,2,0:0:0:0:
80,176,115460,5,0,0:0:0:0:
120,104,115610,1,8,0:0:0:0:
192,144,115760,1,0,0:0:0:0:
256,92,115910,2,0,P|264:56|268:16,2,75,2|0|8,0:0|0:0|0:0,0:0:0:0:
304,160,116360,1,2,0:0:0:0:
144,208,116660,6,0,P|129:172|120:136,2,75,0|8|0,0:0|0:0|0:0,0:0:0:0:
204,268,117110,2,0,P|244:268|284:264,1,75,2|0,0:0|0:0,0:0:0:0:
320,192,117410,1,8,0:0:0:0:
356,116,117560,6,0,P|393:112|430:112,1,75,2|0,0:0|0:0,0:0:0:0:
468,188,117860,1,0,0:0:0:0:
396,232,118010,2,0,P|396:272|400:308,2,75,8|0|2,0:0|0:0|0:0,0:0:0:0:
320,192,118460,1,0,0:0:0:0:
272,260,118610,6,0,P|232:264|196:260,1,75,8|2,0:0|0:0,0:0:0:0:
120,292,118910,1,0,0:0:0:0:
64,232,119060,1,0,0:0:0:0:
104,160,119210,2,0,P|108:124|112:84,1,75,8|0,0:0|0:0,0:0:0:0:
192,60,119510,6,0,P|228:52|263:64,1,75,2|0,0:0|0:0,0:0:0:0:
332,112,119810,2,0,P|372:112|408:108,2,75,8|2|0,0:0|0:0|0:0,0:0:0:0:
288,184,120260,2,0,L|292:224,4,37.5,0|0|8|0|0,0:0|0:0|0:0|0:0|0:0,0:0:0:0:
220,136,120710,6,0,P|180:136|144:140,1,75,2|0,0:0|0:0,0:0:0:0:
80,192,121010,1,8,0:0:0:0:
148,240,121160,1,2,0:0:0:0:
88,300,121310,1,0,0:0:0:0:
160,340,121460,2,0,P|240:344|316:336,1,150
388,304,121910,6,0,P|436:252|400:188,1,150,2|8,0:0|0:0,0:0:0:0:
328,156,122360,2,0,P|280:100|316:40,2,150,2|0|0,0:0|0:0|0:0,0:0:0:0:
403,189,123110,6,0,P|440:184|480:180,2,75,2|0|8,0:0|0:0|0:0,0:0:0:0:
328,228,123560,2,0,P|268:192|220:244,1,150,2|0,0:0|0:0,0:0:0:0:
132,292,124010,6,0,L|120:200,1,90.0000034332277,4|0,1:0|0:0,0:0:0:0:
76,112,124310,5,4,0:0:0:0:
