osu file format v14

[General]
AudioFilename: LittlE_HearTs_.mp3
AudioLeadIn: 0
PreviewTime: 95510
Countdown: 0
SampleSet: Soft
StackLeniency: 0.7
Mode: 0
LetterboxInBreaks: 0
WidescreenStoryboard: 0

[Editor]
Bookmarks: 10910,20510,39710,50510,66260,75710,85310,94910,114710
DistanceSpacing: 1.5
BeatDivisor: 4
GridSize: 4
TimelineZoom: 1.9

[Metadata]
Title:*LittlE HearTs*
TitleUnicode:★LittlE HearTs★
Artist:Nekomimi Mahoutsukai
ArtistUnicode:ねこみみ魔法使い
Creator:phoon
Version:Another
Source:BMS
Tags:
BeatmapID:654850
BeatmapSetID:290710

[Difficulty]
HPDrainRate:8
CircleSize:3.4
OverallDifficulty:9
ApproachRate:9.2
SliderMultiplier:1.8
SliderTickRate:1

[Events]
//Background and Video events
0,0,"bg.jpg",0,0
//Break Periods
//Storyboard Layer 0 (Background)
//Storyboard Layer 1 (Fail)
//Storyboard Layer 2 (Pass)
//Storyboard Layer 3 (Foreground)
//Storyboard Layer 4 (Overlay)
//Storyboard Sound Samples

[TimingPoints]
1310,300,4,2,1,60,1,0
5810,-80,4,2,1,60,0,0
6110,-100,4,2,1,60,0,0
10610,-80,4,2,1,60,0,0
10910,-100,4,2,1,60,0,0
22160,-80,4,2,1,60,0,0
22385,-80,4,2,1,30,0,0
22460,-80,4,2,1,60,0,0
22685,-80,4,2,1,30,0,0
22760,-100,4,2,1,60,0,0
24860,-200,4,2,1,60,0,0
24935,-100,4,2,1,5,0,0
25010,-200,4,2,1,60,0,0
25085,-100,4,2,1,5,0,0
25160,-200,4,2,1,60,0,0
25235,-100,4,2,1,5,0,0
25310,-100,4,2,1,60,0,0
26960,-80,4,2,1,60,0,0
27185,-100,4,2,1,30,0,0
27260,-80,4,2,1,60,0,0
27485,-100,4,2,1,30,0,0
27560,-100,4,2,1,60,0,0
31760,-80,4,2,1,60,0,0
32510,-100,4,2,1,60,0,0
34460,-200,4,2,1,60,0,0
34535,-100,4,2,1,5,0,0
34610,-200,4,2,1,60,0,0
34685,-100,4,2,1,5,0,0
34760,-200,4,2,1,60,0,0
34835,-100,4,2,1,5,0,0
34910,-100,4,2,1,60,0,0
36560,-80,4,2,1,60,0,0
37310,-100,4,2,1,60,0,0
39410,-200,4,2,1,60,0,0
39635,-133.333333333333,4,2,1,5,0,0
39710,-133.333333333333,4,2,1,60,0,0
39710,-133.333333333333,4,2,1,60,0,0
49310,-200,4,2,1,20,0,0
49610,-200,4,2,1,30,0,0
49910,-200,4,2,1,40,0,0
50210,-200,4,2,1,50,0,0
50510,-133.333333333333,4,2,1,60,0,0
55310,-100,4,2,1,60,0,0
74510,-100,4,2,1,5,0,0
75635,-100,4,2,1,60,0,0
82160,-79.9999999999999,4,2,1,60,0,0
82535,-100,4,2,1,60,0,0
85310,-100,4,2,1,60,0,0
94610,-66.6666666666667,4,2,1,60,0,0
94910,-80,4,2,1,60,0,0
95210,-66.6666666666667,4,2,1,60,0,0
95510,-80,4,2,1,60,0,1
97160,-66.6666666666667,4,2,1,60,0,1
97385,-66.6666666666667,4,2,1,30,0,1
97460,-66.6666666666667,4,2,1,60,0,1
97685,-66.6666666666667,4,2,1,30,0,1
97760,-80,4,2,1,60,0,1
99935,-80,4,2,1,30,0,1
100010,-80,4,2,1,60,0,1
100085,-80,4,2,1,30,0,1
100160,-80,4,2,1,60,0,1
100235,-80,4,2,1,30,0,1
100310,-80,4,2,1,60,0,1
101960,-66.6666666666667,4,2,1,60,0,1
102185,-66.6666666666667,4,2,1,30,0,1
102260,-66.6666666666667,4,2,1,60,0,1
102485,-66.6666666666667,4,2,1,30,0,1
102560,-80,4,2,1,60,0,1
105035,-80,4,2,1,60,0,0
105110,-80,4,2,1,60,0,1
106760,-66.6666666666667,4,2,1,60,0,1
107510,-80,4,2,1,60,0,1
109535,-80,4,2,1,30,0,1
109610,-80,4,2,1,60,0,1
109685,-80,4,2,1,30,0,1
109760,-80,4,2,1,60,0,1
109835,-80,4,2,1,30,0,1
109910,-80,4,2,1,60,0,1
111560,-66.6666666666667,4,2,1,60,0,1
112310,-80,4,2,1,60,0,1
114410,-66.6666666666667,4,2,1,60,0,1
114635,-80,4,2,1,60,0,0
114710,-80,4,2,1,60,0,1
121460,-66.6666666666667,4,2,1,60,0,1
124010,-66.6666666666667,4,2,1,60,0,0
124310,-66.6666666666667,4,2,1,60,0,1

[HitObjects]
284,128,1310,6,0,L|196:112,1,90,2|0,0:0|0:0,0:0:0:0:
376,96,1610,1,0,0:0:0:0:
364,224,1760,2,0,P|408:224|448:196,2,90,2|0|0,0:0|0:0|0:0,0:0:0:0:
240,120,2210,1,0,0:0:0:0:
400,72,2360,1,0,0:0:0:0:
192,228,2510,6,0,L|103:246,1,90,2|0,0:0|0:0,0:0:0:0:
56,324,2810,1,0,0:0:0:0:
192,228,2960,2,0,B|208:208|232:200|232:200|256:200|288:216|312:216|312:216|336:204|352:188,1,180,2|0,0:0|0:0,0:0:0:0:
464,54,3410,2,0,B|444:48|420:48|420:48|400:56|384:76,1,90
162,88,3710,6,0,P|204:100|252:96,1,90,2|0,0:0|0:0,0:0:0:0:
448,144,4010,1,0,0:0:0:0:
352,228,4160,2,0,P|310:216|262:220,1,90,2|0,0:0|0:0,0:0:0:0:
160,300,4460,2,0,B|145:317|125:329|125:329|101:329|81:325,2,90
440,192,4910,6,0,L|456:104,1,90,2|0,0:0|0:0,0:0:0:0:
416,320,5210,1,0,0:0:0:0:
324,220,5360,2,0,P|236:204|164:252,1,180,2|0,0:0|0:0,0:0:0:0:
164,251,5810,6,0,B|168:224|160:200|160:200|152:192|152:192|144:168|148:140,1,112.5,4|0,1:0|0:0,0:0:0:0:
96,311,6110,5,4,0:0:0:0:
244,291,6260,1,0,0:0:0:0:
164,251,6410,1,8,0:0:0:0:
360,344,6560,1,2,0:0:0:0:
164,251,6710,2,0,L|152:159,2,90,0|0|8,0:0|0:0|0:0,0:0:0:0:
44,168,7160,1,0,0:0:0:0:
235,128,7310,6,0,P|233:84|208:48,1,90,2|0,0:0|0:0,0:0:0:0:
44,168,7610,1,8,0:0:0:0:
248,160,7760,6,0,P|267:119|260:76,1,90,2|0,0:0|0:0,0:0:0:0:
44,168,8060,1,0,0:0:0:0:
252,195,8210,6,0,P|286:166|300:124,1,90,8|0,0:0|0:0,0:0:0:0:
44,168,8510,5,2,0:0:0:0:
184,264,8660,1,0,0:0:0:0:
136,367,8810,1,8,0:0:0:0:
272,324,8960,1,2,0:0:0:0:
124,252,9110,2,0,P|80:256|47:292,2,90,0|0|8,0:0|0:0|0:0,0:0:0:0:
280,216,9560,1,0,0:0:0:0:
109,134,9710,6,0,P|147:157|191:152,1,90,2|0,0:0|0:0,0:0:0:0:
64,48,10010,1,8,0:0:0:0:
280,216,10160,2,0,P|360:168|444:180,1,180,2|0,0:0|0:0,0:0:0:0:
442,179,10610,6,0,B|440:204|448:228|448:228|456:236|456:236|464:264|462:291,1,112.5,4|0,1:0|0:0,0:0:0:0:
352,148,10910,6,0,P|358:103|371:60,1,90,6|0,0:0|0:0,0:0:0:0:
280,216,11210,1,8,0:0:0:0:
442,179,11360,1,0,0:0:0:0:
410,218,11435,1,0,0:0:0:0:
376,256,11510,2,0,B|384:308|348:344,2,90,0|0|8,0:0|0:0|0:0,0:0:0:0:
348,52,11960,1,0,0:0:0:0:
376,256,12110,5,0,0:0:0:0:
440,92,12260,1,0,0:0:0:0:
264,120,12410,1,8,0:0:0:0:
376,256,12560,1,0,0:0:0:0:
348,52,12710,1,0,0:0:0:0:
340,288,12860,1,0,0:0:0:0:
192,192,13010,1,8,0:0:0:0:
308,328,13160,1,0,0:0:0:0:
132,292,13310,6,0,P|88:308|44:300,1,90
308,328,13610,1,8,0:0:0:0:
80,224,13760,1,0,0:0:0:0:
116,148,13835,1,0,0:0:0:0:
192,112,13910,2,0,P|204:68|212:20,1,90
327,240,14210,2,0,P|315:283|307:327,1,90,8|0,0:0|0:0,0:0:0:0:
300,128,14510,5,0,0:0:0:0:
212,232,14660,1,0,0:0:0:0:
116,148,14810,1,8,0:0:0:0:
296,296,14960,2,0,L|316:340,2,45
212,232,15260,1,0,0:0:0:0:
140,308,15410,2,0,B|108:336|108:336|60:340,1,90,8|0,0:0|0:0,0:0:0:0:
212,232,15710,2,0,B|244:204|244:204|292:200,1,90,4|0,0:0|0:0,0:0:0:0:
404,60,16010,1,8,0:0:0:0:
404,60,16160,5,0,0:0:0:0:
406,91,16235,1,0,0:0:0:0:
409,122,16310,1,0,0:0:0:0:
412,154,16385,1,0,0:0:0:0:
415,185,16460,1,0,0:0:0:0:
344,348,16610,1,8,0:0:0:0:
417,216,16760,1,0,0:0:0:0:
272,172,16910,6,0,P|226:175|180:184,1,90
416,216,17210,1,8,0:0:0:0:
344,348,17360,1,0,0:0:0:0:
328,332,17435,1,0,0:0:0:0:
312,316,17510,2,0,L|320:268,1,45
194,272,17660,2,0,P|186:228|182:182,1,90,0|8,0:0|0:0,0:0:0:0:
116,96,17960,1,0,0:0:0:0:
348,312,18110,6,0,L|444:300,1,90,0|0,2:0|0:0,0:0:0:0:
456,204,18410,1,8,0:0:0:0:
212,72,18560,6,0,L|308:84,1,90,0|0,2:0|0:0,0:0:0:0:
324,188,18860,1,0,0:0:0:0:
72,328,19010,6,0,L|168:316,1,90,8|0,2:0|0:0,0:0:0:0:
188,204,19310,1,0,0:0:0:0:
352,88,19460,1,0,0:0:0:0:
192,188,19610,5,8,0:0:0:0:
348,72,19760,1,0,0:0:0:0:
352,88,20210,5,4,1:0:0:0:
353,96,20285,1,0,0:0:0:0:
355,105,20360,1,0,0:0:0:0:
357,114,20435,1,0,0:0:0:0:
436,156,20510,6,0,L|451:246,1,90,6|0,0:0|0:0,0:0:0:0:
384,328,20810,1,8,0:0:0:0:
167,252,20960,2,0,P|212:243|256:252,1,90,2|0,0:0|0:0,0:0:0:0:
88,328,21260,1,0,0:0:0:0:
84,152,21410,2,0,L|73:108,1,45,8|0,0:0|0:0,0:0:0:0:
152,52,21560,1,0,0:0:0:0:
160,76,21635,1,0,0:0:0:0:
168,100,21710,6,0,P|211:108|255:100,1,90,2|0,0:0|0:0,0:0:0:0:
384,328,22010,1,8,0:0:0:0:
452,192,22160,2,0,B|416:164|320:172|292:208,1,168.75,2|0,0:0|0:0,0:0:0:0:
216,288,22460,2,0,B|189:321|93:329|57:301,1,168.75
58,301,22760,1,0,0:0:0:0:
128,180,22910,5,2,0:0:0:0:
216,288,23060,1,0,0:0:0:0:
292,124,23210,2,0,L|308:212,1,90,8|2,0:0|0:0,0:0:0:0:
192,80,23510,1,0,0:0:0:0:
392,164,23660,1,0,0:0:0:0:
216,288,23810,2,0,L|128:260,1,90,8|0,0:0|0:0,0:0:0:0:
84,164,24110,5,2,0:0:0:0:
130,261,24260,1,0,0:0:0:0:
240,132,24410,1,8,0:0:0:0:
286,293,24560,1,2,0:0:0:0:
286,293,24860,6,0,L|292:320,1,22.5
240,132,25010,2,0,L|244:110,1,22.5,8|0,0:0|0:0,0:0:0:0:
130,261,25160,2,0,L|136:288,1,22.5
84,164,25310,6,0,L|66:75,1,90,2|0,0:0|0:0,0:0:0:0:
60,284,25610,1,8,0:0:0:0:
334,188,25760,2,0,P|291:199|247:196,1,90,2|0,0:0|0:0,0:0:0:0:
84,164,26060,1,0,0:0:0:0:
224,316,26210,1,8,0:0:0:0:
246,320,26285,1,0,0:0:0:0:
268,324,26360,1,0,0:0:0:0:
84,164,26510,6,0,L|102:75,1,90,2|0,0:0|0:0,0:0:0:0:
204,40,26810,1,8,0:0:0:0:
272,256,26960,2,0,P|205:291|179:221,1,168.75,2|0,0:0|0:0,0:0:0:0:
356,188,27260,2,0,P|423:154|448:224,1,168.75
448,223,27560,1,0,0:0:0:0:
372,300,27710,5,2,0:0:0:0:
260,152,27860,1,0,0:0:0:0:
440,124,28010,2,0,P|465:87|478:44,1,90,8|2,0:0|0:0,0:0:0:0:
272,256,28310,1,0,0:0:0:0:
448,223,28460,2,0,L|488:248,2,45,0|0|8,0:0|0:0|0:0,0:0:0:0:
344,80,28760,1,0,0:0:0:0:
372,300,28910,5,2,0:0:0:0:
344,80,29060,1,0,0:0:0:0:
152,248,29210,1,8,0:0:0:0:
168,124,29360,1,2,0:0:0:0:
168,124,29660,5,0,0:0:0:0:
152,248,29810,1,8,0:0:0:0:
252,196,29960,1,0,0:0:0:0:
168,124,30110,6,0,L|78:135,1,90,6|0,0:0|0:0,0:0:0:0:
268,76,30410,1,8,0:0:0:0:
285,274,30560,2,0,P|257:240|252:196,1,90,2|0,0:0|0:0,0:0:0:0:
280,72,30860,1,0,0:0:0:0:
368,288,31010,2,0,P|364:308|353:330,1,45,8|0,0:0|0:0,0:0:0:0:
336,208,31160,1,0,0:0:0:0:
358,203,31235,1,0,0:0:0:0:
380,200,31310,6,0,P|420:216|452:252,2,90,2|0|8,0:0|0:0|0:0,0:0:0:0:
104,124,31760,2,0,P|212:138|291:63,2,225,2|0|0,0:0|0:0|0:0,0:0:0:0:
60,232,32510,6,0,P|71:275|76:320,1,90,2|0,0:0|0:0,0:0:0:0:
284,240,32810,1,8,0:0:0:0:
184,44,32960,1,2,0:0:0:0:
176,168,33110,1,0,0:0:0:0:
392,312,33260,1,0,0:0:0:0:
416,316,33335,1,0,0:0:0:0:
436,320,33410,6,0,P|447:277|452:232,1,90,8|0,0:0|0:0,0:0:0:0:
404,104,33710,1,2,0:0:0:0:
268,88,33860,1,0,0:0:0:0:
108,312,34010,1,8,0:0:0:0:
244,296,34160,1,2,0:0:0:0:
244,296,34460,6,0,L|252:328,1,22.5
272,180,34610,2,0,L|264:212,1,22.5,8|0,0:0|0:0,0:0:0:0:
240,60,34760,2,0,L|248:92,1,22.5
272,180,34910,6,0,L|361:191,1,90,2|0,0:0|0:0,0:0:0:0:
180,140,35210,1,8,0:0:0:0:
448,240,35360,1,2,0:0:0:0:
180,140,35510,2,0,P|152:100|144:56,1,90
244,296,35810,1,8,0:0:0:0:
247,318,35885,1,0,0:0:0:0:
252,344,35960,1,0,0:0:0:0:
300,156,36110,6,0,L|396:140,2,90,2|0|8,0:0|0:0|0:0,0:0:0:0:
136,260,36560,2,0,B|108:216|116:160|116:160|92:96|20:144|68:184,2,225,2|0|0,0:0|0:0|0:0,0:0:0:0:
323,252,37310,2,0,L|412:268,1,90,2|0,0:0|0:0,0:0:0:0:
420,292,37535,1,0,0:0:0:0:
428,316,37610,6,0,P|448:276|444:227,1,90,8|2,0:0|0:0,0:3:0:0:
232,340,37910,1,0,0:0:0:0:
356,132,38060,1,0,0:0:0:0:
380,140,38135,1,0,0:0:0:0:
404,148,38210,2,0,P|449:138|500:124,1,90,8|0,0:0|0:0,0:0:0:0:
108,236,38510,2,0,P|64:247|20:256,2,90,2|0|8,0:0|0:0|0:0,0:0:0:0:
132,140,38960,1,2,0:0:0:0:
132,140,39410,6,0,L|56:120,1,67.5
148,144,39710,5,4,0:0:0:0:
200,56,39860,1,0,0:0:0:0:
100,232,40010,2,0,P|105:265|114:297,1,67.5000025749208
164,148,40310,5,0,0:0:0:0:
216,56,40460,1,0,0:0:0:0:
113,238,40610,2,0,P|112:270|116:308,1,67.5000025749208
180,152,40910,5,0,0:0:0:0:
232,56,41060,1,0,0:0:0:0:
128,248,41210,2,0,P|119:277|112:324,1,67.5000025749208
307,319,41510,2,0,P|276:308|242:305,1,67.5000025749208
396,216,41810,1,0,0:0:0:0:
448,340,41960,1,0,0:0:0:0:
351,122,42110,5,0,0:0:0:0:
452,132,42260,1,0,0:0:0:0:
396,216,42410,2,0,P|397:251|420:285,1,67.5000025749208
352,96,42710,5,0,0:0:0:0:
474,145,42860,1,0,0:0:0:0:
373,227,43010,2,0,P|380:259|402:284,1,67.5000025749208
352,72,43310,5,0,0:0:0:0:
496,156,43460,1,0,0:0:0:0:
347,239,43610,2,0,P|363:269|391:288,1,67.5000025749208
264,180,43910,1,0,0:0:0:0:
347,239,44060,1,0,0:0:0:0:
256,280,44210,2,0,P|234:305|203:317,1,67.5000025749208
112,212,44510,5,4,0:0:0:0:
202,317,44660,1,0,0:0:0:0:
112,212,44810,2,0,P|104:184|104:144,1,67.5000025749208
216,164,45110,5,0,0:0:0:0:
202,317,45260,1,0,0:0:0:0:
216,164,45410,2,0,L|227:96,1,67.5000025749208
324,151,45710,5,0,0:0:0:0:
202,317,45860,1,0,0:0:0:0:
324,151,46010,2,0,P|343:124|353:92,1,67.5000025749208
336,256,46310,2,0,P|351:285|356:318,1,67.5000025749208
216,164,46610,1,0,0:0:0:0:
436,136,46760,1,0,0:0:0:0:
184,312,46910,5,0,0:0:0:0:
84,296,47060,1,0,0:0:0:0:
336,288,47210,5,0,0:0:0:0:
436,272,47360,1,0,0:0:0:0:
184,280,47510,5,0,0:0:0:0:
84,296,47660,1,0,0:0:0:0:
336,256,47810,5,0,0:0:0:0:
436,272,47960,1,0,0:0:0:0:
120,208,48110,6,0,P|113:174|108:140,1,67.5000025749208
400,184,48410,2,0,P|395:217|388:252,1,67.5000025749208
132,224,48710,6,0,P|98:231|64:236,1,67.5000025749208
384,164,49010,2,0,P|416:168|452:176,1,67.5000025749208
252,120,49310,6,0,L|248:104,31,11.25,4|0|0|0|0|0|0|0|0|0|0|0|0|0|0|0|0|0|0|0|0|0|0|0|0|0|0|0|0|0|0|0,0:0|0:0|0:0|0:0|0:0|0:0|0:0|0:0|0:0|0:0|0:0|0:0|0:0|0:0|0:0|0:0|0:0|0:0|0:0|0:0|0:0|0:0|0:0|0:0|0:0|0:0|0:0|0:0|0:0|0:0|0:0|0:0,0:0:0:0:
256,136,50510,6,0,L|252:208,1,67.5000025749208,4|0,0:0|0:0,0:0:0:0:
448,264,50810,2,0,L|444:196,1,67.5000025749208
448,264,51110,1,0,0:0:0:0:
336,324,51260,1,0,0:0:0:0:
248,240,51410,1,0,0:0:0:0:
136,296,51560,1,0,0:0:0:0:
64,120,51710,6,0,L|67:187,1,67.5000025749208,4|0,0:0|0:0,0:0:0:0:
264,132,52010,2,0,L|267:64,1,67.5000025749208
264,132,52310,1,0,0:0:0:0:
372,192,52460,1,0,0:0:0:0:
264,252,52610,1,0,0:0:0:0:
152,304,52760,1,0,0:0:0:0:
152,304,52910,5,4,0:0:0:0:
112,193,53060,1,0,0:0:0:0:
223,155,53210,1,0,0:0:0:0:
112,193,53360,1,0,0:0:0:0:
74,83,53510,1,4,0:0:0:0:
112,193,53660,1,0,0:0:0:0:
3,230,53810,1,0,0:0:0:0:
112,193,53960,1,0,0:0:0:0:
223,155,54110,6,0,L|291:151,1,67.5000025749208,4|0,0:0|0:0,0:0:0:0:
384,84,54410,2,0,P|418:87|448:101,1,67.5000025749208,4|0,0:0|0:0,0:0:0:0:
180,296,54710,2,0,P|146:292|116:278,1,67.5000025749208,4|0,0:0|0:0,0:0:0:0:
52,212,54935,1,0,0:0:0:0:
52,212,55010,2,0,B|44:160|60:160|52:108,1,101.250003862381,4|0,0:0|0:0,0:0:0:0:
132,64,55310,5,6,0:0:0:0:
154,62,55385,1,0,0:0:0:0:
176,60,55460,1,0,0:0:0:0:
199,58,55535,1,0,0:0:0:0:
221,57,55610,1,8,0:0:0:0:
348,280,55760,2,0,L|392:275,1,45,2|0,0:0|0:0,0:0:0:0:
424,187,55910,2,0,L|380:180,1,45
292,204,56060,1,0,0:0:0:0:
292,204,56210,5,8,0:0:0:0:
262,216,56285,1,0,0:0:0:0:
230,222,56360,1,0,0:0:0:0:
198,217,56435,1,0,0:0:0:0:
168,205,56510,5,2,0:0:0:0:
125,196,56585,1,0,0:0:0:0:
83,214,56660,1,0,0:0:0:0:
57,251,56735,1,0,0:0:0:0:
55,295,56810,1,8,0:0:0:0:
240,100,56960,5,2,0:0:0:0:
264,96,57035,1,0,0:0:0:0:
288,92,57110,1,0,0:0:0:0:
312,88,57185,1,0,0:0:0:0:
336,84,57260,1,0,0:0:0:0:
460,279,57410,2,0,L|452:235,1,45,8|0,0:0|0:0,0:0:0:0:
362,314,57560,2,0,L|354:270,1,45
264,348,57710,5,2,0:0:0:0:
258,317,57785,1,0,0:0:0:0:
252,286,57860,1,0,0:0:0:0:
247,255,57935,1,0,0:0:0:0:
241,224,58010,1,8,0:0:0:0:
64,172,58160,1,2,0:0:0:0:
60,184,58235,1,0,0:0:0:0:
56,196,58310,2,0,L|64:240,2,45
256,96,58610,2,0,L|248:52,2,45,8|0|0,0:0|0:0|0:0,0:0:0:0:
260,108,58835,1,0,0:0:0:0:
264,120,58910,5,2,0:0:0:0:
308,123,58985,1,0,0:0:0:0:
353,127,59060,1,0,0:0:0:0:
398,131,59135,1,0,0:0:0:0:
443,135,59210,1,8,0:0:0:0:
248,292,59360,1,2,0:0:0:0:
204,295,59435,1,0,0:0:0:0:
159,299,59510,1,0,0:0:0:0:
114,303,59585,1,0,0:0:0:0:
69,307,59660,1,0,0:0:0:0:
340,248,59810,5,8,2:0:0:0:
360,244,59885,1,0,2:0:0:0:
379,232,59960,1,0,2:0:0:0:
389,212,60035,1,0,2:0:0:0:
388,188,60110,5,6,0:0:0:0:
360,153,60185,1,0,0:0:0:0:
359,109,60260,1,0,0:0:0:0:
386,74,60335,1,0,0:0:0:0:
428,64,60410,1,8,0:0:0:0:
128,188,60560,2,0,L|84:184,1,45,2|0,0:0|0:0,0:0:0:0:
204,295,60710,2,0,L|160:299,1,45
256,204,60860,1,0,0:0:0:0:
256,204,61010,5,8,0:0:0:0:
247,203,61085,1,0,0:0:0:0:
238,202,61160,1,0,0:0:0:0:
229,201,61235,1,0,0:0:0:0:
220,200,61310,5,2,0:0:0:0:
256,204,61385,1,0,0:0:0:0:
291,197,61460,1,0,0:0:0:0:
319,175,61535,1,0,0:0:0:0:
335,143,61610,1,8,0:0:0:0:
372,312,61760,2,0,L|416:316,1,45,2|0,0:0|0:0,0:0:0:0:
240,340,61910,2,0,L|284:336,1,45
120,268,62060,1,0,0:0:0:0:
116,272,62210,5,8,0:0:0:0:
112,277,62285,1,0,0:0:0:0:
108,281,62360,2,0,L|64:289,1,45
176,180,62510,1,2,0:0:0:0:
176,180,62585,1,0,0:0:0:0:
176,180,62660,2,0,L|220:172,1,45
84,120,62810,1,8,0:0:0:0:
84,120,62960,5,2,0:0:0:0:
75,121,63035,1,0,0:0:0:0:
66,123,63110,1,0,0:0:0:0:
57,124,63185,1,0,0:0:0:0:
48,126,63260,1,0,0:0:0:0:
264,240,63410,1,8,0:0:0:0:
306,230,63485,1,0,0:0:0:0:
349,227,63560,1,0,0:0:0:0:
392,232,63635,1,0,0:0:0:0:
432,248,63710,5,2,0:0:0:0:
443,227,63785,1,0,0:0:0:0:
447,206,63860,1,0,0:0:0:0:
446,184,63935,1,0,0:0:0:0:
437,163,64010,1,8,0:0:0:0:
224,220,64160,1,2,0:0:0:0:
213,241,64235,1,0,0:0:0:0:
209,262,64310,1,0,0:0:0:0:
210,284,64385,1,0,0:0:0:0:
218,305,64460,1,0,0:0:0:0:
420,148,64610,6,0,L|468:140,1,45,8|0,0:0|0:0,0:0:0:0:
375,331,64760,2,0,L|359:373,1,45
240,204,64910,2,0,L|211:169,2,45,6|0|0,0:0|0:0|0:0,0:0:0:0:
345,227,65135,1,0,0:0:0:0:
345,227,65210,1,8,0:0:0:0:
345,227,65360,6,0,L|335:182,1,45,2|0,0:0|0:0,0:0:0:0:
187,245,65510,2,0,L|196:289,1,45
491,164,65660,1,0,0:0:0:0:
491,164,65810,5,8,0:0:0:0:
467,113,65885,1,0,0:0:0:0:
419,87,65960,1,0,0:0:0:0:
364,96,66035,1,0,0:0:0:0:
325,135,66110,1,2,0:0:0:0:
256,108,66185,5,0,0:0:0:0:
178,150,66260,1,0,0:0:0:0:
91,137,66335,1,0,0:0:0:0:
29,73,66410,1,8,0:0:0:0:
29,73,66560,6,0,L|77:81,1,45,2|0,0:0|0:0,0:0:0:0:
256,108,66710,2,0,L|300:115,1,45
484,140,66860,1,0,0:0:0:0:
120,192,67010,5,8,0:0:0:0:
69,179,67085,1,0,0:0:0:0:
33,216,67160,1,0,0:0:0:0:
46,266,67235,1,0,0:0:0:0:
132,280,67310,5,2,0:0:0:0:
192,348,67385,1,0,0:0:0:0:
256,284,67460,1,0,0:0:0:0:
316,216,67535,1,0,0:0:0:0:
372,288,67610,1,8,0:0:0:0:
372,288,67760,5,2,0:0:0:0:
379,296,67835,1,0,0:0:0:0:
386,305,67910,1,0,0:0:0:0:
393,314,67985,1,0,0:0:0:0:
400,323,68060,1,0,0:0:0:0:
400,323,68210,6,0,L|444:320,1,45,8|0,0:0|0:0,0:0:0:0:
316,216,68360,2,0,L|360:219,1,45
148,352,68510,5,2,0:0:0:0:
192,348,68585,1,0,0:0:0:0:
236,344,68660,1,0,0:0:0:0:
164,288,68735,1,0,0:0:0:0:
96,232,68810,1,8,0:0:0:0:
96,232,68960,6,0,L|88:184,4,45,2|0|0|0|0,0:0|0:0|0:0|0:0|0:0,0:0:0:0:
444,319,69410,6,0,L|452:271,3,45,8|0|0|0,0:0|0:0|0:0|0:0,0:0:0:0:
344,252,69710,6,0,P|336:232|332:200,1,45,6|0,0:0|0:0,0:0:0:0:
288,80,69860,2,0,L|243:76,1,45
368,128,70010,1,8,0:0:0:0:
368,128,70160,5,2,0:0:0:0:
381,129,70235,1,0,0:0:0:0:
395,130,70310,1,0,0:0:0:0:
408,131,70385,1,0,0:0:0:0:
421,132,70460,1,0,0:0:0:0:
248,164,70610,5,8,2:0:0:0:
192,212,70685,1,0,2:0:0:0:
136,164,70760,1,0,2:0:0:0:
80,212,70835,1,0,2:0:0:0:
24,164,70910,6,0,P|16:142|18:120,1,45,2|0,0:0|0:0,0:0:0:0:
144,300,71060,2,0,P|125:285|116:261,1,45
276,332,71210,1,8,0:0:0:0:
276,332,71360,5,2,0:0:0:0:
307,329,71435,1,0,0:0:0:0:
338,326,71510,1,0,0:0:0:0:
369,322,71585,1,0,0:0:0:0:
401,320,71660,1,0,0:0:0:0:
192,56,71810,5,8,0:0:0:0:
140,68,71885,1,0,0:0:0:0:
101,105,71960,1,0,0:0:0:0:
95,158,72035,1,0,0:0:0:0:
123,203,72110,6,0,P|100:208|78:207,1,45,2|0,0:0|0:0,0:0:0:0:
168,232,72260,1,0,0:0:0:0:
195,278,72335,1,0,0:0:0:0:
189,331,72410,1,8,0:0:0:0:
184,144,72560,6,0,P|207:139|229:140,1,45,2|0,0:0|0:0,0:0:0:0:
100,296,72710,1,0,0:0:0:0:
48,288,72785,1,0,0:0:0:0:
4,256,72860,1,0,0:0:0:0:
424,256,73010,5,8,2:0:0:0:
452,188,73085,1,0,2:0:0:0:
424,120,73160,1,0,2:0:0:0:
364,76,73235,1,0,2:0:0:0:
292,64,73310,6,0,P|284:44|281:22,1,45,2|0,0:0|0:0,0:0:0:0:
288,220,73460,1,0,0:0:0:0:
208,248,73535,1,0,0:0:0:0:
128,248,73610,1,8,0:0:0:0:
128,248,73760,6,0,P|106:248|84:252,1,45,2|0,0:0|0:0,0:0:0:0:
84,56,73910,2,0,P|61:55|40:52,1,45
224,116,74060,1,0,0:0:0:0:
224,116,74210,5,8,0:0:0:0:
256,192,74285,1,0,0:0:0:0:
288,268,74360,2,0,L|304:312,1,45
256,192,74510,12,0,75560,0:0:0:0:
310,185,75710,6,0,L|327:97,1,90
196,246,76010,1,8,0:0:0:0:
184,112,76160,1,0,0:0:0:0:
168,259,76310,2,0,P|123:265|79:268,1,90
276,342,76610,1,8,0:0:0:0:
310,185,76760,1,0,0:0:0:0:
276,342,76910,2,0,P|320:336|365:332,1,90
392,352,77135,5,0,0:0:0:0:
392,352,77210,2,0,P|412:313|402:265,1,90,8|0,0:0|0:0,0:0:0:0:
310,185,77510,2,0,P|264:181|220:180,1,90
452,168,77810,1,8,0:0:0:0:
368,80,77960,1,0,0:0:0:0:
394,273,78110,6,0,P|437:279|477:259,1,90
220,104,78410,2,0,P|129:87|72:156,2,180,8|0|8,0:0|0:0|0:0,0:0:0:0:
394,273,79160,1,0,0:0:0:0:
154,319,79310,6,0,P|108:324|65:326,1,90
252,268,79610,1,8,0:0:0:0:
124,208,79760,1,0,0:0:0:0:
116,204,79835,1,0,0:0:0:0:
108,200,79910,2,0,L|120:108,1,90
405,183,80210,2,0,L|393:272,1,90,8|0,0:0|0:0,0:0:0:0:
256,324,80510,5,0,0:0:0:0:
168,164,80660,1,0,0:0:0:0:
256,324,80810,1,8,0:0:0:0:
392,272,80960,1,0,0:0:0:0:
256,324,81110,2,0,P|252:280|252:232,1,90
404,181,81410,2,0,P|396:226|392:271,1,90,8|0,0:0|0:0,0:0:0:0:
452,84,81710,5,0,0:0:0:0:
292,120,81860,1,0,0:0:0:0:
404,181,82010,1,8,0:0:0:0:
200,252,82160,6,0,B|200:284|192:312|164:332|132:340|104:336|80:316|76:284|76:284|108:288,1,225
128,260,82535,5,0,0:0:0:0:
134,226,82610,1,8,0:0:0:0:
100,172,82685,1,0,0:0:0:0:
63,120,82760,1,0,0:0:0:0:
105,72,82835,1,0,0:0:0:0:
168,80,82910,6,0,P|212:76|257:69,1,90
440,316,83210,2,0,P|396:308|350:305,1,90,8|0,0:0|0:0,0:0:0:0:
256,284,83435,5,0,0:0:0:0:
164,252,83510,2,0,P|116:248|74:241,1,90
348,104,83810,2,0,P|392:100|437:93,1,90,8|0,0:0|0:0,0:0:0:0:
256,99,84110,5,0,0:0:0:0:
256,284,84260,1,0,0:0:0:0:
244,87,84410,1,8,0:0:0:0:
268,296,84560,2,0,B|336:312|360:244|444:264,2,180
232,112,85310,6,0,L|142:104,1,90,4|0,0:0|0:0,0:0:0:0:
324,60,85610,1,8,0:0:0:0:
128,168,85760,1,0,0:0:0:0:
172,192,85835,1,0,0:0:0:0:
216,216,85910,2,0,L|305:208,2,90,0|0|8,0:0|0:0|0:0,0:0:0:0:
60,240,86360,1,0,0:0:0:0:
144,296,86510,5,0,0:0:0:0:
128,168,86660,1,0,0:0:0:0:
53,340,86810,1,8,0:0:0:0:
239,318,86960,1,0,0:0:0:0:
128,168,87110,5,0,0:0:0:0:
53,340,87260,1,0,0:0:0:0:
134,270,87410,1,8,0:0:0:0:
24,236,87560,1,0,0:0:0:0:
128,168,87710,6,0,P|192:160|220:160,1,90
396,300,88010,1,8,0:0:0:0:
348,152,88160,1,0,0:0:0:0:
316,236,88235,1,0,0:0:0:0:
284,320,88310,2,0,P|224:328|192:328,1,90
348,152,88610,2,0,P|408:156|440:160,1,90,8|0,0:0|0:0,0:0:0:0:
149,99,88910,6,0,P|92:96|60:92,1,90
276,212,89210,1,8,0:0:0:0:
308,48,89360,2,0,L|352:32,2,45
149,99,89660,1,0,0:0:0:0:
371,253,89810,2,0,B|404:283|404:283|449:290,1,90,8|0,0:0|0:0,0:0:0:0:
276,212,90110,2,0,B|243:182|243:182|197:175,1,90,4|0,0:0|0:0,0:0:0:0:
84,60,90410,1,8,0:0:0:0:
84,60,90560,5,0,0:0:0:0:
64,68,90635,1,0,0:0:0:0:
48,85,90710,1,0,0:0:0:0:
42,107,90785,1,0,0:0:0:0:
45,129,90860,1,0,0:0:0:0:
124,316,91010,1,8,0:0:0:0:
54,149,91160,1,0,0:0:0:0:
124,316,91310,6,0,P|170:321|213:323,1,90
400,212,91610,1,8,0:0:0:0:
308,140,91760,2,0,P|264:142|219:147,1,90
428,100,92060,1,0,0:0:0:0:
420,299,92210,2,0,P|409:255|400:212,1,90,8|0,0:0|0:0,0:0:0:0:
428,100,92510,5,0,0:0:0:0:
232,96,92660,1,0,0:0:0:0:
223,292,92810,1,8,0:0:0:0:
420,299,92960,1,0,0:0:0:0:
304,72,93110,5,0,0:0:0:0:
76,100,93260,1,0,0:0:0:0:
100,328,93410,1,8,0:0:0:0:
328,300,93560,1,0,0:0:0:0:
268,252,93635,1,0,0:0:0:0:
204,208,93710,2,0,L|192:116,1,90
328,300,94010,1,8,0:0:0:0:
84,176,94160,1,0,0:0:0:0:
84,176,94610,6,0,B|136:200|184:176|184:176|232:152|288:176,1,202.500007724762,4|0,1:0|0:0,0:0:0:0:
440,220,94910,6,0,L|448:276,1,56.25
352,267,95060,2,0,L|360:323,1,56.25
279,172,95210,6,0,L|291:88,1,67.5000025749208
178,125,95360,2,0,L|188:59,1,67.5000025749208
147,228,95510,6,0,P|101:255|44:244,1,112.5,4|0,0:0|0:0,0:0:0:0:
16,164,95735,1,0,0:0:0:0:
2,81,95810,1,8,0:0:0:0:
280,328,95960,1,2,0:0:0:0:
360,300,96035,1,0,0:0:0:0:
396,224,96110,2,0,P|442:195|494:210,2,112.5,0|0|8,0:0|0:0|0:0,0:0:0:0:
280,328,96560,1,0,0:0:0:0:
176,156,96710,6,0,P|184:104|200:44,1,112.5,2|0,0:0|0:0,0:0:0:0:
64,224,97010,1,8,0:0:0:0:
292,116,97160,2,0,B|316:60|436:52|468:104,1,202.500007724762,2|0,0:0|0:0,0:0:0:0:
63,223,97460,2,0,B|95:275|215:267|239:211,1,202.500007724762
292,116,97760,1,0,0:0:0:0:
467,103,97910,6,0,P|486:154|458:200,1,112.5,2|0,0:0|0:0,0:0:0:0:
176,268,98135,1,0,0:0:0:0:
152,272,98210,2,0,L|148:160,1,112.5,8|2,0:0|0:0,0:0:0:0:
272,208,98510,2,0,P|299:254|280:305,2,112.5,0|0|8,0:0|0:0|0:0,0:0:0:0:
12,220,98960,1,0,0:0:0:0:
272,208,99110,6,0,L|384:204,1,112.5,2|0,0:0|0:0,0:0:0:0:
60,128,99410,1,8,0:0:0:0:
108,320,99560,1,2,0:0:0:0:
108,320,99860,6,0,L|164:316,1,56.25
328,212,100010,2,0,L|272:208,1,56.25,8|0,0:0|0:0,0:0:0:0:
448,56,100160,2,0,L|436:110,1,56.25
328,212,100310,6,0,P|318:271|278:306,1,112.5,6|0,0:0|0:0,0:0:0:0:
108,320,100535,1,0,0:0:0:0:
52,324,100610,1,8,0:0:0:0:
76,56,100760,1,2,0:0:0:0:
208,104,100910,2,0,P|224:160|216:212,1,112.5
108,320,101210,2,0,L|52:324,2,56.25,8|0|0,0:0|0:0|0:0,0:0:0:0:
344,304,101510,5,2,0:0:0:0:
444,137,101660,1,0,0:0:0:0:
472,272,101810,1,8,0:0:0:0:
316,172,101960,2,0,P|252:117|232:199,1,202.500007724762,2|0,0:0|0:0,0:0:0:0:
60,260,102260,2,0,P|124:315|144:233,1,202.500007724762
0,144,102560,1,0,0:0:0:0:
317,173,102710,5,2,0:0:0:0:
460,216,102860,1,0,0:0:0:0:
460,216,102935,1,0,0:0:0:0:
460,216,103010,2,0,B|452:272|460:272|468:272|460:331,1,112.5,8|2,0:0|0:0,0:0:0:0:
368,72,103310,1,0,0:0:0:0:
256,312,103460,1,0,0:0:0:0:
172,324,103535,1,0,0:0:0:0:
88,336,103610,2,0,B|80:280|88:280|96:280|88:221,1,112.5,8|0,0:0|0:0,0:0:0:0:
380,48,103910,5,2,0:0:0:0:
128,56,104060,1,0,0:0:0:0:
380,48,104210,1,8,0:0:0:0:
124,64,104360,1,2,0:0:0:0:
120,72,104660,5,0,0:0:0:0:
260,172,104810,1,8,0:0:0:0:
384,52,104960,1,0,0:0:0:0:
439,215,105110,6,0,P|456:268|433:318,1,112.5,6|0,0:0|0:0,0:0:0:0:
160,264,105335,1,0,0:0:0:0:
139,255,105410,2,0,P|122:202|145:152,2,112.5,8|2|0,0:0|0:0|0:0,0:0:0:0:
439,215,105860,1,0,0:0:0:0:
120,248,106010,1,8,0:0:0:0:
96,240,106085,1,0,0:0:0:0:
72,232,106160,2,0,L|64:288,1,56.25
36,220,106310,6,0,L|24:108,2,112.5,2|0|8,0:0|0:0|0:0,0:0:0:0:
124,324,106760,2,0,B|288:368|168:172|328:216,2,270.000010299683,2|0|0,0:0|0:0|0:0,0:0:0:0:
24,268,107510,6,0,L|12:156,1,112.5,2|0,0:0|0:0,0:0:0:0:
88,120,107735,1,0,0:0:0:0:
164,84,107810,1,8,0:0:0:0:
236,224,107960,1,2,0:0:0:0:
336,48,108110,1,0,0:0:0:0:
384,296,108260,1,0,0:0:0:0:
408,300,108335,1,0,0:0:0:0:
432,304,108410,6,0,P|452:252|432:200,1,112.5,8|0,0:0|0:0,0:0:0:0:
336,48,108710,1,2,0:0:0:0:
336,240,108860,1,0,0:0:0:0:
256,144,109010,1,8,0:0:0:0:
256,336,109160,1,2,0:0:0:0:
256,336,109460,6,0,L|252:280,1,56.25
340,104,109610,2,0,L|336:48,1,56.25,8|0,0:0|0:0,0:0:0:0:
336,240,109760,2,0,L|392:244,1,56.25
256,144,109910,6,0,B|200:140|200:140|196:112|168:88,1,112.5,6|0,0:0|0:0,0:0:0:0:
88,104,110135,1,0,0:0:0:0:
36,172,110210,1,8,0:0:0:0:
256,336,110360,1,2,0:0:0:0:
312,331,110435,1,0,0:0:0:0:
368,324,110510,2,0,P|398:277|376:228,1,112.5
88,104,110810,2,0,L|42:71,1,56.25,8|0,0:0|0:0,0:0:0:0:
172,92,110960,1,0,0:0:0:0:
196,172,111035,1,0,0:0:0:0:
120,208,111110,6,0,P|100:256|44:272,2,112.5,2|0|8,0:0|0:0|0:0,0:0:0:0:
172,92,111560,2,0,B|228:40|304:64|304:64|380:88|424:48,2,270.000010299683,2|0|0,0:0|0:0|0:0,0:0:0:0:
120,208,112310,6,0,L|8:200,1,112.5,2|0,0:0|0:0,0:0:0:0:
184,268,112535,1,0,0:0:0:0:
248,332,112610,2,0,P|271:284|260:228,1,112.5,8|2,0:0|0:0,0:0:0:0:
252,76,112910,1,0,0:0:0:0:
184,268,113060,1,0,0:0:0:0:
216,300,113135,1,0,0:0:0:0:
248,332,113210,6,0,P|296:348|344:312,1,112.5,8|0,0:0|0:0,0:0:0:0:
448,136,113510,2,0,P|396:152|352:112,1,112.5,2|0,0:0|0:0,0:0:0:0:
160,228,113735,1,0,0:0:0:0:
160,228,113810,2,0,P|106:216|60:246,1,112.5,8|2,0:0|0:0,0:0:0:0:
60,246,114410,6,0,B|73:211|65:183|65:183|57:175|57:175|49:143|61:115,1,135.000005149842,4|0,1:0|0:0,0:0:0:0:
60,116,114710,5,6,0:0:0:0:
420,76,114860,1,0,0:0:0:0:
256,256,115010,2,0,P|296:292|352:292,2,112.5,8|2|0,0:0|0:0|0:0,0:0:0:0:
240,92,115460,1,0,0:0:0:0:
168,180,115610,5,8,0:0:0:0:
111,184,115685,1,0,0:0:0:0:
55,192,115760,1,0,0:0:0:0:
176,324,115910,5,2,0:0:0:0:
55,192,116060,1,0,0:0:0:0:
332,144,116210,2,0,L|312:256,1,112.5,8|2,0:0|0:0,0:0:0:0:
312,254,116660,5,0,0:0:0:0:
476,248,116810,1,8,0:0:0:0:
240,356,116960,1,0,0:0:0:0:
404,350,117110,5,2,0:0:0:0:
320,260,117260,1,0,0:0:0:0:
392,160,117410,1,8,0:0:0:0:
240,356,117560,5,2,0:0:0:0:
156,266,117710,2,0,L|152:153,1,112.5
92,8,118010,5,8,0:0:0:0:
356,118,118160,2,0,L|359:230,1,112.5,0|2,0:0|0:0,0:0:0:0:
440,28,118460,5,0,0:0:0:0:
330,292,118610,2,0,L|217:295,1,112.5,8|2,0:0|0:0,0:0:0:0:
359,230,118910,5,0,0:0:0:0:
156,264,119060,1,0,0:0:0:0:
294,88,119210,2,0,L|182:92,1,112.5,8|0,0:0|0:0,0:0:0:0:
448,116,119510,5,2,0:0:0:0:
359,230,119660,1,0,0:0:0:0:
294,88,119810,1,8,0:0:0:0:
212,272,119960,1,2,0:0:0:0:
140,60,120110,1,0,0:0:0:0:
65,314,120260,5,0,0:0:0:0:
120,304,120335,1,0,0:0:0:0:
160,244,120410,1,8,0:0:0:0:
156,160,120485,1,0,0:0:0:0:
224,84,120560,1,0,0:0:0:0:
344,60,120635,1,0,0:0:0:0:
472,116,120710,5,2,0:0:0:0:
320,240,120860,1,0,0:0:0:0:
456,248,121010,1,8,0:0:0:0:
320,240,121160,1,2,0:0:0:0:
304,372,121310,1,0,0:0:0:0:
167,363,121460,2,0,B|147:363|147:363|143:359|143:359|139:363|139:363|135:355|135:355|127:363|127:363|79:351|47:199|147:195,1,270.000010299683
133,104,121910,6,0,P|228:115|143:194,1,270.000010299683,2|8,0:0|0:0,0:0:0:0:
133,104,122360,6,0,B|193:56|255:104|255:104|313:152|381:104,1,270.000010299683,2|0,0:0|0:0,0:0:0:0:
56,160,122810,1,8,0:0:0:0:
456,48,122960,1,0,0:0:0:0:
407,210,123110,6,0,P|361:165|380:103,1,135.000005149842,2|0,0:0|0:0,0:0:0:0:
500,232,123410,1,8,0:0:0:0:
360,320,123560,2,0,B|288:300|160:340|88:320,1,270.000010299683,2|0,0:0|0:0,0:0:0:0:
91,320,124010,6,0,B|80:298|95:277|95:277|123:234|95:185,1,135.000005149842,4|0,1:0|0:0,0:0:0:0:
64,104,124310,1,4,0:0:0:0:
