osu file format v14

[General]
AudioFilename: audio.mp3
AudioLeadIn: 0
PreviewTime: 2167
Countdown: 0
SampleSet: Soft
StackLeniency: 0.7
Mode: 3
LetterboxInBreaks: 0
SpecialStyle: 0
WidescreenStoryboard: 1

[Editor]
DistanceSpacing: 0.8
BeatDivisor: 12
GridSize: 8
TimelineZoom: 1.9

[Metadata]
Title:The PRESENT Phase Opening
TitleUnicode:The PRESENT Phase Opening
Artist:NekomataMaster
ArtistUnicode:猫叉Master
Creator:semyon422
Version:8K Hyper
Source:beatmania IIDX 22 PENDUAL
Tags:
BeatmapID:1260793
BeatmapSetID:592366

[Difficulty]
HPDrainRate:8
CircleSize:8
OverallDifficulty:8
ApproachRate:5
SliderMultiplier:1.4
SliderTickRate:1

[Events]
//Background and Video events
0,0,"background.jpg",0,0
//Break Periods
//Storyboard Layer 0 (Background)
//Storyboard Layer 1 (Fail)
//Storyboard Layer 2 (Pass)
//Storyboard Layer 3 (Foreground)
//Storyboard Sound Samples

[TimingPoints]
166,363.636363636364,4,2,1,35,1,0
2167,363.636363636364,4,2,1,35,1,0
10894,-100,4,2,1,35,0,1
19621,-100,4,2,1,35,0,0
28348,400,4,2,1,35,1,0
28348,-90.9090909090909,4,2,1,35,0,0

[HitObjects]
224,192,166,128,0,1317:0:0:0:0:
480,192,1075,128,0,2166:0:0:0:0:
352,192,1317,128,0,2166:0:0:0:0:
32,192,2166,1,4,0:0:0:0:
288,192,2166,1,0,0:0:0:0:
160,192,2167,1,0,0:0:0:0:
416,192,2348,1,0,0:0:0:0:
480,192,2530,1,0,0:0:0:0:
160,192,2530,1,0,0:0:0:0:
352,192,2712,1,0,0:0:0:0:
224,192,2894,1,0,0:0:0:0:
96,192,2894,1,0,0:0:0:0:
480,192,2894,128,0,2985:0:0:0:0:
352,192,3076,1,0,0:0:0:0:
96,192,3257,1,8,0:0:0:0:
288,192,3257,1,0,0:0:0:0:
160,192,3257,1,0,0:0:0:0:
416,192,3439,1,0,0:0:0:0:
480,192,3621,1,0,0:0:0:0:
160,192,3621,1,0,0:0:0:0:
352,192,3803,1,0,0:0:0:0:
96,192,3985,1,0,0:0:0:0:
224,192,3985,1,0,0:0:0:0:
352,192,4167,1,0,0:0:0:0:
160,192,4348,1,0,0:0:0:0:
96,192,4348,1,0,0:0:0:0:
288,192,4530,1,0,0:0:0:0:
480,192,4712,1,0,0:0:0:0:
224,192,4712,1,0,0:0:0:0:
96,192,4712,1,0,0:0:0:0:
416,192,4894,1,0,0:0:0:0:
288,192,5076,1,0,0:0:0:0:
160,192,5076,1,0,0:0:0:0:
416,192,5257,1,0,0:0:0:0:
96,192,5439,1,8,0:0:0:0:
224,192,5439,1,0,0:0:0:0:
288,192,5439,1,0,0:0:0:0:
352,192,5621,1,0,0:0:0:0:
480,192,5803,1,0,0:0:0:0:
160,192,5803,1,0,0:0:0:0:
416,192,5985,1,0,0:0:0:0:
288,192,6167,1,0,0:0:0:0:
96,192,6167,1,0,0:0:0:0:
416,192,6348,1,0,0:0:0:0:
160,192,6530,1,0,0:0:0:0:
96,192,6530,1,0,0:0:0:0:
288,192,6712,1,0,0:0:0:0:
480,192,6894,1,0,0:0:0:0:
160,192,6894,1,0,0:0:0:0:
352,192,7076,1,0,0:0:0:0:
224,192,7257,1,0,0:0:0:0:
96,192,7257,1,0,0:0:0:0:
352,192,7439,1,0,0:0:0:0:
96,192,7621,1,8,0:0:0:0:
288,192,7621,1,0,0:0:0:0:
160,192,7621,1,0,0:0:0:0:
416,192,7803,1,0,0:0:0:0:
480,192,7985,1,0,0:0:0:0:
160,192,7985,1,0,0:0:0:0:
352,192,8167,1,0,0:0:0:0:
224,192,8348,1,0,0:0:0:0:
96,192,8348,1,0,0:0:0:0:
352,192,8530,1,0,0:0:0:0:
160,192,8712,1,0,0:0:0:0:
224,192,8712,1,0,0:0:0:0:
288,192,8894,1,0,0:0:0:0:
96,192,9076,1,0,0:0:0:0:
480,192,9076,1,0,0:0:0:0:
416,192,9257,1,0,0:0:0:0:
288,192,9439,1,0,0:0:0:0:
160,192,9439,1,0,0:0:0:0:
416,192,9621,1,0,0:0:0:0:
96,192,9803,1,8,0:0:0:0:
224,192,9803,1,0,0:0:0:0:
352,192,9803,1,0,0:0:0:0:
288,192,9985,1,0,0:0:0:0:
160,192,10167,1,0,0:0:0:0:
416,192,10167,1,0,0:0:0:0:
480,192,10348,1,0,0:0:0:0:
96,192,10530,1,0,0:0:0:0:
352,192,10530,1,0,0:0:0:0:
224,192,10712,1,0,0:0:0:0:
32,192,10894,1,4,0:0:0:0:
288,192,10894,1,0,0:0:0:0:
352,192,10894,128,0,11985:0:0:0:0:
480,192,10894,1,0,0:0:0:0:
160,192,10985,1,0,0:0:0:0:
416,192,11076,1,0,0:0:0:0:
480,192,11257,1,0,0:0:0:0:
224,192,11439,1,0,0:0:0:0:
96,192,11621,1,0,0:0:0:0:
224,192,11803,1,0,0:0:0:0:
416,192,11985,128,0,12894:0:0:0:0:
160,192,11985,1,0,0:0:0:0:
96,192,11985,1,8,0:0:0:0:
288,192,12167,1,0,0:0:0:0:
480,192,12348,1,0,0:0:0:0:
352,192,12530,1,0,0:0:0:0:
224,192,12712,1,0,0:0:0:0:
352,192,12894,1,0,0:0:0:0:
416,192,13076,128,0,13803:0:0:0:0:
160,192,13076,1,0,0:0:0:0:
288,192,13257,1,0,0:0:0:0:
480,192,13439,1,0,0:0:0:0:
352,192,13621,1,0,0:0:0:0:
288,192,13803,128,0,14167:0:0:0:0:
224,192,13803,1,0,0:0:0:0:
352,192,13985,1,0,0:0:0:0:
160,192,14167,128,0,14712:0:0:0:0:
96,192,14167,1,8,0:0:0:0:
224,192,14167,1,0,0:0:0:0:
352,192,14348,1,0,0:0:0:0:
480,192,14530,1,0,0:0:0:0:
96,192,14712,128,0,15076:0:0:0:0:
416,192,14712,1,0,0:0:0:0:
288,192,14894,1,0,0:0:0:0:
416,192,15076,1,0,0:0:0:0:
96,192,15257,128,0,16348:0:0:0:0:
224,192,15257,1,0,0:0:0:0:
352,192,15439,1,0,0:0:0:0:
480,192,15621,1,0,0:0:0:0:
288,192,15803,1,0,0:0:0:0:
160,192,15985,1,0,0:0:0:0:
288,192,16167,1,0,0:0:0:0:
480,192,16348,128,0,17439:0:0:0:0:
160,192,16348,1,8,0:0:0:0:
224,192,16348,1,0,0:0:0:0:
352,192,16530,1,0,0:0:0:0:
416,192,16712,1,0,0:0:0:0:
224,192,16894,1,0,0:0:0:0:
96,192,17076,1,0,0:0:0:0:
224,192,17257,1,0,0:0:0:0:
352,192,17439,128,0,18530:0:0:0:0:
160,192,17439,1,0,0:0:0:0:
288,192,17621,1,0,0:0:0:0:
480,192,17803,1,0,0:0:0:0:
416,192,17985,1,0,0:0:0:0:
160,192,18167,1,0,0:0:0:0:
416,192,18348,1,0,0:0:0:0:
224,192,18530,128,0,19076:0:0:0:0:
96,192,18530,1,8,0:0:0:0:
288,192,18530,1,0,0:0:0:0:
416,192,18712,1,0,0:0:0:0:
480,192,18894,1,0,0:0:0:0:
160,192,19076,128,0,19621:0:0:0:0:
96,192,19076,1,8,0:0:0:0:
352,192,19076,1,0,0:0:0:0:
288,192,19257,1,0,0:0:0:0:
480,192,19439,1,8,0:0:0:0:
352,192,19439,1,0,0:0:0:0:
32,192,19621,1,4,0:0:0:0:
224,192,19621,1,0,0:0:0:0:
288,192,19803,1,0,0:0:0:0:
416,192,19985,1,0,0:0:0:0:
96,192,19985,1,8,0:0:0:0:
352,192,20167,1,0,0:0:0:0:
224,192,20348,1,0,0:0:0:0:
352,192,20530,1,0,0:0:0:0:
288,192,20712,1,0,0:0:0:0:
96,192,20712,1,8,0:0:0:0:
416,192,20894,1,0,0:0:0:0:
480,192,21076,1,0,0:0:0:0:
288,192,21257,1,0,0:0:0:0:
160,192,21439,1,0,0:0:0:0:
96,192,21439,1,8,0:0:0:0:
288,192,21621,1,0,0:0:0:0:
224,192,21803,1,0,0:0:0:0:
352,192,21985,1,0,0:0:0:0:
480,192,22167,1,0,0:0:0:0:
96,192,22167,1,8,0:0:0:0:
416,192,22348,1,0,0:0:0:0:
288,192,22530,1,0,0:0:0:0:
416,192,22712,1,0,0:0:0:0:
96,192,22894,1,8,0:0:0:0:
160,192,22894,1,0,0:0:0:0:
288,192,23076,1,0,0:0:0:0:
416,192,23257,1,0,0:0:0:0:
288,192,23439,1,0,0:0:0:0:
96,192,23621,1,8,0:0:0:0:
160,192,23621,1,0,0:0:0:0:
288,192,23803,1,0,0:0:0:0:
224,192,23985,1,0,0:0:0:0:
352,192,24167,1,0,0:0:0:0:
416,192,24348,1,0,0:0:0:0:
96,192,24348,1,8,0:0:0:0:
352,192,24530,1,0,0:0:0:0:
224,192,24712,1,0,0:0:0:0:
352,192,24894,1,0,0:0:0:0:
96,192,25076,1,8,0:0:0:0:
288,192,25076,1,0,0:0:0:0:
416,192,25257,1,0,0:0:0:0:
480,192,25439,1,0,0:0:0:0:
352,192,25621,1,0,0:0:0:0:
224,192,25803,1,0,0:0:0:0:
96,192,25803,1,8,0:0:0:0:
352,192,25985,1,0,0:0:0:0:
96,192,26167,1,8,0:0:0:0:
288,192,26167,1,0,0:0:0:0:
416,192,26348,1,0,0:0:0:0:
96,192,26530,1,8,0:0:0:0:
480,192,26530,1,0,0:0:0:0:
288,192,26712,1,0,0:0:0:0:
96,192,26894,1,8,0:0:0:0:
160,192,26894,1,0,0:0:0:0:
288,192,27076,1,0,0:0:0:0:
96,192,27257,1,8,0:0:0:0:
224,192,27257,1,0,0:0:0:0:
160,192,27439,1,0,0:0:0:0:
352,192,27439,1,0,0:0:0:0:
96,192,27621,1,8,0:0:0:0:
480,192,27621,1,0,0:0:0:0:
416,192,27803,1,0,0:0:0:0:
224,192,27803,1,0,0:0:0:0:
288,192,27985,1,0,0:0:0:0:
96,192,27985,1,8,0:0:0:0:
160,192,28076,1,8,0:0:0:0:
352,192,28167,1,0,0:0:0:0:
224,192,28167,1,8,0:0:0:0:
416,192,28257,1,8,0:0:0:0:
288,192,28348,1,0,0:0:0:0:
32,192,28348,1,4,0:0:0:0:
480,192,28348,1,8,0:0:0:0:
160,192,28481,1,0,0:0:0:0:
288,192,28581,1,0,0:0:0:0:
352,192,28648,1,0,0:0:0:0:
480,192,28748,1,0,0:0:0:0:
96,192,28748,128,0,33148:0:0:0:0:
