osu file format v14

[General]
AudioFilename: audio.mp3
AudioLeadIn: 0
PreviewTime: 2167
Countdown: 0
SampleSet: None
StackLeniency: 0.7
Mode: 3
LetterboxInBreaks: 0
SpecialStyle: 0
WidescreenStoryboard: 1

[Editor]
DistanceSpacing: 0.8
BeatDivisor: 4
GridSize: 8
TimelineZoom: 0.8999999

[Metadata]
Title:The PRESENT Phase Opening
TitleUnicode:The PRESENT Phase Opening
Artist:NekomataMaster
ArtistUnicode:猫叉Master
Creator:semyon422
Version:4K Another
Source:beatmania IIDX 22 PENDUAL
Tags:
BeatmapID:1593811
BeatmapSetID:592366

[Difficulty]
HPDrainRate:8
CircleSize:4
OverallDifficulty:8
ApproachRate:5
SliderMultiplier:1.4
SliderTickRate:1

[Events]
//Background and Video events
0,0,"background.jpg",0,0
//Break Periods
//Storyboard Layer 0 (Background)
//Storyboard Layer 1 (Fail)
//Storyboard Layer 2 (Pass)
//Storyboard Layer 3 (Foreground)
//Storyboard Sound Samples

[TimingPoints]
166,363.636363636364,4,2,1,35,1,0
2167,363.636363636364,3,2,1,35,1,0
10894,-100,3,2,1,35,0,1
19621,-100,3,2,1,35,0,0
28348,400,4,2,1,35,1,0
28348,-90.9090909090909,4,2,1,35,0,0

[HitObjects]
64,192,166,128,0,1317:0:0:0:0:
448,192,1075,128,0,2167:0:0:0:0:
192,192,1317,128,0,2044:0:0:0:0:
192,192,2166,128,0,2530:0:0:0:0:
320,192,2166,1,4,0:0:0:0:
64,192,2167,1,0,0:0:0:0:
64,192,2348,128,0,2712:0:0:0:0:
320,192,2530,128,0,2894:0:0:0:0:
448,192,2530,1,0,0:0:0:0:
192,192,2712,128,0,3076:0:0:0:0:
448,192,2894,128,0,3076:0:0:0:0:
64,192,2894,128,0,2985:0:0:0:0:
320,192,3076,128,0,3257:0:0:0:0:
64,192,3257,128,0,3621:0:0:0:0:
448,192,3257,1,8,0:0:0:0:
192,192,3257,1,0,0:0:0:0:
192,192,3439,128,0,3803:0:0:0:0:
448,192,3621,128,0,3985:0:0:0:0:
320,192,3621,1,0,0:0:0:0:
64,192,3803,128,0,4167:0:0:0:0:
320,192,3985,128,0,4348:0:0:0:0:
192,192,3985,1,0,0:0:0:0:
448,192,4167,128,0,4530:0:0:0:0:
192,192,4348,128,0,4712:0:0:0:0:
64,192,4348,1,0,0:0:0:0:
64,192,4530,128,0,4894:0:0:0:0:
320,192,4712,128,0,5076:0:0:0:0:
448,192,4712,1,0,0:0:0:0:
448,192,4894,128,0,5257:0:0:0:0:
192,192,5076,128,0,5257:0:0:0:0:
64,192,5076,1,0,0:0:0:0:
64,192,5257,128,0,5621:0:0:0:0:
320,192,5439,128,0,5803:0:0:0:0:
448,192,5439,1,8,0:0:0:0:
192,192,5439,1,0,0:0:0:0:
192,192,5621,128,0,5985:0:0:0:0:
448,192,5803,128,0,6167:0:0:0:0:
64,192,5803,1,0,0:0:0:0:
320,192,5985,128,0,6348:0:0:0:0:
64,192,6167,128,0,6530:0:0:0:0:
192,192,6167,1,0,0:0:0:0:
448,192,6348,128,0,6712:0:0:0:0:
192,192,6530,128,0,6894:0:0:0:0:
320,192,6530,1,0,0:0:0:0:
64,192,6712,128,0,7076:0:0:0:0:
320,192,6894,128,0,7257:0:0:0:0:
448,192,6894,1,0,0:0:0:0:
448,192,7076,128,0,7439:0:0:0:0:
192,192,7257,128,0,7439:0:0:0:0:
64,192,7257,1,0,0:0:0:0:
64,192,7439,128,0,7803:0:0:0:0:
320,192,7621,128,0,7985:0:0:0:0:
448,192,7621,1,8,0:0:0:0:
192,192,7621,1,0,0:0:0:0:
192,192,7803,128,0,8167:0:0:0:0:
448,192,7985,128,0,8348:0:0:0:0:
64,192,7985,1,0,0:0:0:0:
64,192,8167,128,0,8530:0:0:0:0:
192,192,8348,128,0,8712:0:0:0:0:
320,192,8348,1,0,0:0:0:0:
448,192,8530,128,0,8894:0:0:0:0:
64,192,8712,128,0,9076:0:0:0:0:
320,192,8712,1,0,0:0:0:0:
320,192,8894,128,0,9257:0:0:0:0:
448,192,9076,128,0,9439:0:0:0:0:
192,192,9076,1,0,0:0:0:0:
192,192,9257,128,0,9621:0:0:0:0:
64,192,9439,128,0,9621:0:0:0:0:
320,192,9439,1,0,0:0:0:0:
320,192,9621,128,0,9985:0:0:0:0:
64,192,9803,128,0,10167:0:0:0:0:
448,192,9803,1,8,0:0:0:0:
192,192,9803,1,0,0:0:0:0:
448,192,9985,128,0,10348:0:0:0:0:
192,192,10167,128,0,10530:0:0:0:0:
320,192,10167,1,0,0:0:0:0:
320,192,10348,128,0,10712:0:0:0:0:
64,192,10530,128,0,10803:0:0:0:0:
448,192,10530,1,0,0:0:0:0:
192,192,10712,128,0,10894:0:0:0:0:
320,192,10894,128,0,11894:0:0:0:0:
448,192,10894,128,0,11076:0:0:0:0:
64,192,10894,1,4,0:0:0:0:
192,192,10985,128,0,11076:0:0:0:0:
64,192,11076,128,0,11439:0:0:0:0:
192,192,11257,128,0,11439:0:0:0:0:
448,192,11257,1,0,0:0:0:0:
448,192,11439,128,0,11803:0:0:0:0:
64,192,11621,128,0,11803:0:0:0:0:
192,192,11621,1,0,0:0:0:0:
192,192,11803,128,0,12167:0:0:0:0:
448,192,11985,128,0,12894:0:0:0:0:
64,192,11985,128,0,12167:0:0:0:0:
320,192,11985,1,8,0:0:0:0:
320,192,12167,128,0,12530:0:0:0:0:
192,192,12348,128,0,12530:0:0:0:0:
64,192,12348,1,0,0:0:0:0:
64,192,12530,128,0,12894:0:0:0:0:
320,192,12712,128,0,12894:0:0:0:0:
192,192,12712,1,0,0:0:0:0:
192,192,12894,128,0,13257:0:0:0:0:
448,192,13076,128,0,13712:0:0:0:0:
64,192,13076,128,0,13257:0:0:0:0:
320,192,13076,1,0,0:0:0:0:
320,192,13257,128,0,13621:0:0:0:0:
192,192,13439,128,0,13621:0:0:0:0:
64,192,13439,1,0,0:0:0:0:
64,192,13621,128,0,13985:0:0:0:0:
320,192,13803,128,0,14076:0:0:0:0:
192,192,13803,128,0,13985:0:0:0:0:
448,192,13803,1,0,0:0:0:0:
448,192,13985,128,0,14348:0:0:0:0:
192,192,14167,128,0,14712:0:0:0:0:
64,192,14167,128,0,14348:0:0:0:0:
320,192,14167,1,8,0:0:0:0:
320,192,14348,128,0,14530:0:0:0:0:
448,192,14530,128,0,14712:0:0:0:0:
64,192,14530,1,0,0:0:0:0:
64,192,14712,128,0,15076:0:0:0:0:
320,192,14712,128,0,15076:0:0:0:0:
448,192,14894,128,0,15076:0:0:0:0:
192,192,14894,1,0,0:0:0:0:
192,192,15076,128,0,15439:0:0:0:0:
64,192,15257,128,0,16257:0:0:0:0:
320,192,15257,128,0,15439:0:0:0:0:
448,192,15257,1,0,0:0:0:0:
448,192,15439,128,0,15803:0:0:0:0:
192,192,15621,128,0,15803:0:0:0:0:
320,192,15621,1,0,0:0:0:0:
320,192,15803,128,0,16167:0:0:0:0:
448,192,15985,128,0,16167:0:0:0:0:
192,192,15985,1,0,0:0:0:0:
192,192,16167,128,0,16530:0:0:0:0:
448,192,16348,128,0,17348:0:0:0:0:
320,192,16348,128,0,16530:0:0:0:0:
64,192,16348,1,8,0:0:0:0:
64,192,16530,128,0,16894:0:0:0:0:
192,192,16712,128,0,16894:0:0:0:0:
320,192,16712,1,0,0:0:0:0:
320,192,16894,128,0,17257:0:0:0:0:
64,192,17076,128,0,17257:0:0:0:0:
192,192,17076,1,0,0:0:0:0:
192,192,17257,128,0,17621:0:0:0:0:
320,192,17439,128,0,18439:0:0:0:0:
64,192,17439,128,0,17621:0:0:0:0:
448,192,17439,1,0,0:0:0:0:
448,192,17621,128,0,17985:0:0:0:0:
192,192,17803,128,0,17985:0:0:0:0:
64,192,17803,1,0,0:0:0:0:
64,192,17985,128,0,18348:0:0:0:0:
192,192,18167,128,0,18348:0:0:0:0:
448,192,18167,1,0,0:0:0:0:
448,192,18348,128,0,18712:0:0:0:0:
192,192,18530,128,0,18985:0:0:0:0:
64,192,18530,128,0,18712:0:0:0:0:
320,192,18530,1,8,0:0:0:0:
320,192,18712,128,0,18894:0:0:0:0:
448,192,18894,128,0,19076:0:0:0:0:
64,192,18894,1,0,0:0:0:0:
64,192,19076,128,0,19530:0:0:0:0:
320,192,19076,128,0,19257:0:0:0:0:
192,192,19076,1,8,0:0:0:0:
192,192,19257,128,0,19439:0:0:0:0:
448,192,19257,1,0,0:0:0:0:
448,192,19439,128,0,19621:0:0:0:0:
320,192,19439,1,8,0:0:0:0:
64,192,19621,1,4,0:0:0:0:
320,192,19621,128,0,19803:0:0:0:0:
192,192,19621,128,0,19712:0:0:0:0:
192,192,19803,128,0,19985:0:0:0:0:
448,192,19803,128,0,19894:0:0:0:0:
448,192,19985,128,0,20348:0:0:0:0:
64,192,19985,128,0,20076:0:0:0:0:
320,192,19985,1,8,0:0:0:0:
64,192,20167,128,0,20348:0:0:0:0:
320,192,20167,128,0,20257:0:0:0:0:
320,192,20348,128,0,20530:0:0:0:0:
192,192,20348,128,0,20439:0:0:0:0:
192,192,20530,128,0,20712:0:0:0:0:
64,192,20530,128,0,20621:0:0:0:0:
64,192,20712,128,0,21076:0:0:0:0:
448,192,20712,128,0,20803:0:0:0:0:
320,192,20712,1,8,0:0:0:0:
448,192,20894,128,0,21076:0:0:0:0:
192,192,20894,128,0,20985:0:0:0:0:
192,192,21076,128,0,21257:0:0:0:0:
320,192,21076,128,0,21167:0:0:0:0:
320,192,21257,128,0,21439:0:0:0:0:
448,192,21257,128,0,21348:0:0:0:0:
448,192,21439,128,0,21803:0:0:0:0:
192,192,21439,128,0,21530:0:0:0:0:
64,192,21439,1,8,0:0:0:0:
192,192,21621,128,0,21803:0:0:0:0:
64,192,21621,128,0,21712:0:0:0:0:
64,192,21803,128,0,21985:0:0:0:0:
320,192,21803,128,0,21894:0:0:0:0:
320,192,21985,128,0,22167:0:0:0:0:
192,192,21985,128,0,22076:0:0:0:0:
192,192,22167,128,0,22530:0:0:0:0:
448,192,22167,128,0,22257:0:0:0:0:
64,192,22167,1,8,0:0:0:0:
448,192,22348,128,0,22530:0:0:0:0:
64,192,22348,128,0,22439:0:0:0:0:
64,192,22530,128,0,22712:0:0:0:0:
320,192,22530,128,0,22621:0:0:0:0:
320,192,22712,128,0,22894:0:0:0:0:
448,192,22712,128,0,22803:0:0:0:0:
192,192,22894,1,8,0:0:0:0:
448,192,22894,128,0,23257:0:0:0:0:
64,192,22894,128,0,22985:0:0:0:0:
64,192,23076,128,0,23257:0:0:0:0:
192,192,23076,128,0,23167:0:0:0:0:
192,192,23257,128,0,23439:0:0:0:0:
320,192,23257,128,0,23348:0:0:0:0:
320,192,23439,128,0,23621:0:0:0:0:
64,192,23439,128,0,23530:0:0:0:0:
64,192,23621,128,0,23985:0:0:0:0:
448,192,23621,128,0,23712:0:0:0:0:
192,192,23621,1,8,0:0:0:0:
448,192,23803,128,0,23985:0:0:0:0:
192,192,23803,128,0,23894:0:0:0:0:
192,192,23985,128,0,24167:0:0:0:0:
320,192,23985,128,0,24076:0:0:0:0:
320,192,24167,128,0,24348:0:0:0:0:
448,192,24167,128,0,24257:0:0:0:0:
192,192,24348,128,0,24439:0:0:0:0:
64,192,24348,1,8,0:0:0:0:
448,192,24348,128,0,24712:0:0:0:0:
192,192,24530,128,0,24712:0:0:0:0:
320,192,24530,128,0,24621:0:0:0:0:
64,192,24712,128,0,24803:0:0:0:0:
320,192,24712,128,0,24894:0:0:0:0:
192,192,24894,128,0,24985:0:0:0:0:
64,192,24894,128,0,25076:0:0:0:0:
192,192,25076,128,0,25439:0:0:0:0:
448,192,25076,128,0,25167:0:0:0:0:
320,192,25076,1,8,0:0:0:0:
448,192,25257,128,0,25439:0:0:0:0:
64,192,25257,128,0,25348:0:0:0:0:
64,192,25439,128,0,25621:0:0:0:0:
320,192,25439,128,0,25530:0:0:0:0:
320,192,25621,128,0,25803:0:0:0:0:
448,192,25621,128,0,25712:0:0:0:0:
448,192,25803,128,0,25985:0:0:0:0:
192,192,25803,128,0,25894:0:0:0:0:
64,192,25803,1,8,0:0:0:0:
192,192,25985,128,0,26167:0:0:0:0:
320,192,25985,128,0,26076:0:0:0:0:
320,192,26167,128,0,26348:0:0:0:0:
448,192,26167,128,0,26257:0:0:0:0:
64,192,26167,1,8,0:0:0:0:
448,192,26348,128,0,26530:0:0:0:0:
64,192,26348,128,0,26439:0:0:0:0:
64,192,26530,128,0,26712:0:0:0:0:
192,192,26530,128,0,26621:0:0:0:0:
320,192,26530,1,8,0:0:0:0:
192,192,26712,128,0,26894:0:0:0:0:
320,192,26712,128,0,26803:0:0:0:0:
320,192,26894,128,0,27076:0:0:0:0:
448,192,26894,128,0,26985:0:0:0:0:
64,192,26894,1,8,0:0:0:0:
448,192,27076,128,0,27257:0:0:0:0:
64,192,27076,128,0,27167:0:0:0:0:
64,192,27257,128,0,27621:0:0:0:0:
320,192,27257,1,8,0:0:0:0:
192,192,27257,128,0,27439:0:0:0:0:
320,192,27439,128,0,27803:0:0:0:0:
448,192,27439,1,8,0:0:0:0:
448,192,27621,128,0,27985:0:0:0:0:
192,192,27621,1,8,0:0:0:0:
192,192,27803,128,0,27985:0:0:0:0:
64,192,27803,1,8,0:0:0:0:
320,192,27985,128,0,28167:0:0:0:0:
64,192,27985,1,8,0:0:0:0:
448,192,28076,1,8,0:0:0:0:
64,192,28167,128,0,28348:0:0:0:0:
192,192,28167,1,8,0:0:0:0:
448,192,28257,1,8,0:0:0:0:
192,192,28348,128,0,28481:0:0:0:0:
320,192,28348,1,12,0:0:0:0:
448,192,28481,128,0,28581:0:0:0:0:
320,192,28581,128,0,28648:0:0:0:0:
64,192,28648,128,0,28748:0:0:0:0:
192,192,28748,128,0,28814:0:0:0:0:
448,192,28748,128,0,33148:0:0:0:0:
