osu file format v14

[General]
AudioFilename: audio.mp3
AudioLeadIn: 0
PreviewTime: 41957
Countdown: 0
SampleSet: Normal
StackLeniency: 0.2
Mode: 0
LetterboxInBreaks: 0
WidescreenStoryboard: 0

[Editor]
Bookmarks: 4793,65444,103062
DistanceSpacing: 0.4
BeatDivisor: 4
GridSize: 16
TimelineZoom: 7.900001

[Metadata]
Title:encounter
TitleUnicode:encounter
Artist:Nekomata Master+
ArtistUnicode:猫叉Master+
Creator:blixys
Version:hello there
Source:jubeat saucer fufill
Tags:nekomata master encounter pishifat circles 猫叉Master+ 190 hello there master
BeatmapID:1944750
BeatmapSetID:931361

[Difficulty]
HPDrainRate:8
CircleSize:4.7
OverallDifficulty:7
ApproachRate:10
SliderMultiplier:2.5
SliderTickRate:1

[Events]
//Background and Video events
0,0,"pishifat.jpg",0,0
//Break Periods
//Storyboard Layer 0 (Background)
//Storyboard Layer 1 (Fail)
//Storyboard Layer 2 (Pass)
//Storyboard Layer 3 (Foreground)
//Storyboard Sound Samples

[TimingPoints]
747,315.789473684211,4,1,1,75,1,0
9378,-33.3333333333333,4,1,1,75,0,0
9589,-100,4,1,1,75,0,0
22220,-40,4,1,1,75,0,1
36852,-250,4,1,1,75,0,0
38641,-40,4,1,1,75,0,0
42431,-100,4,1,1,75,0,0
68641,-40,4,1,1,75,0,0
76457,-28.5714285714286,4,1,1,75,0,0
78431,-40,4,1,1,75,0,0
79378,-142.857142857143,4,1,1,75,0,0
81904,-66.6666666666667,4,1,1,75,0,0
82852,-250,4,1,1,75,0,0
90431,-66.6666666666667,4,1,1,75,0,0
94220,-38.9105058365759,4,1,1,75,0,0
102273,-133.333333333333,4,1,1,75,0,0
102904,-25,4,1,1,75,0,0
103062,-38.9105058365759,4,1,1,75,0,0
103536,-100,4,1,1,75,0,0
114431,-250,4,1,1,75,0,0
115694,-40,4,1,1,75,0,0
118023,-40,4,2,1,0,0,0
120313,-40,4,1,1,100,0,0

[Colours]
Combo1 : 0,0,255
Combo2 : 255,0,0

[HitObjects]
296,208,747,5,0,0:0:0:0:
335,314,852,2,8,P|254:332|172:320,2,166.666666666667
361,193,1378,1,8,0:0:0:0:
238,185,1483,2,8,P|198:196|164:220,1,83.3333333333333,8|0,0:0|0:0,0:0:0:0:
162,107,1694,5,2,0:0:0:0:
214,73,1772,1,2,0:0:0:0:
275,65,1851,1,2,0:0:0:0:
335,82,1930,1,2,0:0:0:0:
382,122,2009,1,2,0:0:0:0:
165,228,2168,6,0,L|285:180,1,125
343,264,2483,2,0,L|459:310,1,125
202,369,2799,2,0,P|261:314|282:216,2,125,8|0|0,0:0|0:0|0:0,0:0:0:0:
156,220,3273,5,0,0:0:0:0:
76,202,3431,1,0,0:0:0:0:
112,152,3509,1,0,0:0:0:0:
171,140,3588,1,8,0:0:0:0:
66,196,3747,1,0,0:0:0:0:
106,140,3825,1,0,0:0:0:0:
174,126,3904,1,0,0:0:0:0:
281,224,4062,2,0,P|336:283|434:304,2,125,8|0|0,0:0|0:0|0:0,0:0:0:0:
125,156,4536,5,0,0:0:0:0:
156,48,4694,1,0,0:0:0:0:
234,128,4852,1,8,0:0:0:0:
171,110,5009,5,0,0:0:0:0:
280,82,5167,1,0,0:0:0:0:
249,190,5325,1,8,0:0:0:0:
295,304,5483,6,0,B|388:313|388:313|368:278,1,125
182,276,5799,5,0,0:0:0:0:
164,196,5957,1,0,0:0:0:0:
114,232,6035,1,0,0:0:0:0:
102,291,6114,1,8,0:0:0:0:
158,186,6273,1,0,0:0:0:0:
102,226,6351,1,0,0:0:0:0:
88,294,6430,1,0,0:0:0:0:
343,300,6589,1,0,0:0:0:0:
447,166,6747,2,0,P|403:121|318:180,1,125
171,296,7062,5,0,0:0:0:0:
126,335,7220,1,0,0:0:0:0:
162,237,7299,1,0,0:0:0:0:
228,317,7378,1,0,0:0:0:0:
97,339,7536,1,0,0:0:0:0:
172,209,7615,1,0,0:0:0:0:
246,339,7694,1,0,0:0:0:0:
171,296,7852,1,0,0:0:0:0:
75,267,8010,2,0,B|80:219|80:219|64:217|64:217|81:211|81:211|93:116,1,125
201,132,8325,5,0,0:0:0:0:
261,117,8403,1,0,0:0:0:0:
323,125,8482,1,0,0:0:0:0:
376,155,8561,1,0,0:0:0:0:
418,202,8640,1,0,0:0:0:0:
181,118,8799,5,0,0:0:0:0:
254,100,8877,1,0,0:0:0:0:
328,110,8956,1,0,0:0:0:0:
399,153,9035,1,0,0:0:0:0:
443,203,9114,1,0,0:0:0:0:
245,288,9273,2,0,L|222:222,1,62.5
205,170,9378,2,10,P|142:256|245:288,1,250.000009536744
140,246,9589,5,0,0:0:0:0:
205,170,9747,1,0,0:0:0:0:
225,229,9825,1,0,0:0:0:0:
245,288,9904,1,0,0:0:0:0:
231,143,10062,1,0,0:0:0:0:
257,220,10140,1,0,0:0:0:0:
283,297,10219,1,0,0:0:0:0:
257,220,10378,2,0,B|180:253|180:253|140:246,1,125
43,123,10852,6,0,P|88:91|149:111,3,62.5
163,151,11168,1,0,0:0:0:0:
375,210,11325,6,0,P|330:178|269:198,3,62.5
255,238,11641,1,0,0:0:0:0:
294,182,11799,2,8,L|198:196,1,62.5
232,191,11904,2,8,L|136:205,1,83.3333333333333
96,256,12115,5,0,0:0:0:0:
64,288,12194,1,0,0:0:0:0:
32,192,12273,1,0,0:0:0:0:
128,224,12352,1,0,0:0:0:0:
160,320,12431,1,0,0:0:0:0:
57,294,12589,5,0,0:0:0:0:
19,179,12668,1,0,0:0:0:0:
134,217,12747,1,0,0:0:0:0:
172,332,12826,1,0,0:0:0:0:
96,256,12904,1,0,0:0:0:0:
96,256,13062,2,0,L|199:151,1,125
358,113,13378,5,0,0:0:0:0:
326,81,13457,1,0,0:0:0:0:
422,49,13536,1,0,0:0:0:0:
390,145,13615,1,0,0:0:0:0:
294,177,13694,1,0,0:0:0:0:
320,74,13852,5,0,0:0:0:0:
435,36,13931,1,0,0:0:0:0:
397,151,14010,1,0,0:0:0:0:
282,189,14089,1,0,0:0:0:0:
358,113,14167,1,0,0:0:0:0:
284,267,14325,2,0,P|215:287|146:263,1,125
69,97,14641,5,0,0:0:0:0:
94,204,14720,2,0,P|143:169|157:148,3,62.5
309,207,15154,5,0,0:0:0:0:
284,314,15233,2,0,P|235:279|221:258,3,62.5
384,192,15589,2,0,P|322:138|247:161,1,125
121,154,15904,5,0,0:0:0:0:
103,234,16062,1,0,0:0:0:0:
53,198,16140,1,0,0:0:0:0:
41,139,16219,1,8,0:0:0:0:
97,244,16378,1,0,0:0:0:0:
41,204,16456,1,0,0:0:0:0:
27,136,16535,1,0,0:0:0:0:
223,310,16694,1,0,0:0:0:0:
223,310,16852,2,0,P|277:283|333:203,1,125
176,108,17168,5,0,0:0:0:0:
200,102,17247,1,0,0:0:0:0:
224,99,17325,2,0,P|275:114|317:147,1,62.5
383,176,17483,1,0,0:0:0:0:
176,240,17641,1,0,0:0:0:0:
200,234,17720,1,0,0:0:0:0:
224,231,17799,2,0,P|275:246|318:267,1,62.5
383,308,17956,1,0,0:0:0:0:
135,344,18115,1,0,0:0:0:0:
135,344,18431,5,0,0:0:0:0:
129,320,18510,1,0,0:0:0:0:
126,296,18589,2,0,P|141:245|174:203,1,62.5
203,137,18746,1,0,0:0:0:0:
408,163,18904,1,0,0:0:0:0:
384,157,18983,1,0,0:0:0:0:
360,154,19062,2,0,P|309:169|267:202,1,62.5
201,231,19219,5,0,0:0:0:0:
281,314,19378,2,0,L|407:293,1,125
153,275,19694,5,0,0:0:0:0:
129,267,19773,1,0,0:0:0:0:
129,242,19852,1,0,0:0:0:0:
153,234,19931,1,0,0:0:0:0:
167,254,20010,1,0,0:0:0:0:
139,288,20168,5,0,0:0:0:0:
112,257,20247,1,0,0:0:0:0:
132,223,20326,1,0,0:0:0:0:
172,231,20405,1,0,0:0:0:0:
175,270,20484,1,0,0:0:0:0:
383,275,20957,6,0,L|368:269,1,15.625
151,302,21115,2,0,L|159:288,2,15.625
269,328,21273,2,0,L|274:343,1,15.625
119,180,21431,2,0,L|104:183,2,15.625
346,105,21589,5,0,0:0:0:0:
286,315,21668,1,0,0:0:0:0:
134,158,21747,1,0,0:0:0:0:
256,192,21825,1,0,0:0:0:0:
72,76,21904,2,0,B|33:88|33:88|163:138,1,125
326,85,22220,5,0,0:0:0:0:
361,100,22298,1,0,0:0:0:0:
391,125,22377,1,0,0:0:0:0:
414,157,22456,1,0,0:0:0:0:
426,194,22535,1,0,0:0:0:0:
181,157,22694,5,0,0:0:0:0:
165,192,22772,1,0,0:0:0:0:
140,222,22851,1,0,0:0:0:0:
108,245,22930,1,0,0:0:0:0:
71,257,23009,1,0,0:0:0:0:
329,128,23168,5,0,0:0:0:0:
314,164,23247,1,0,0:0:0:0:
311,203,23326,1,0,0:0:0:0:
318,242,23405,1,0,0:0:0:0:
336,276,23483,1,0,0:0:0:0:
196,259,23641,5,0,0:0:0:0:
160,274,23720,1,0,0:0:0:0:
121,277,23799,1,0,0:0:0:0:
82,270,23878,1,0,0:0:0:0:
48,252,23956,1,0,0:0:0:0:
290,65,24115,5,0,0:0:0:0:
272,99,24193,1,0,0:0:0:0:
265,138,24272,1,0,0:0:0:0:
268,177,24351,1,0,0:0:0:0:
283,213,24430,1,0,0:0:0:0:
96,128,24747,5,0,0:0:0:0:
78,100,24826,5,0,0:0:0:0:
105,83,24905,5,0,0:0:0:0:
122,110,24984,5,0,0:0:0:0:
100,105,25063,5,0,0:0:0:0:
352,256,25220,5,0,0:0:0:0:
370,228,25299,5,0,0:0:0:0:
343,211,25378,5,0,0:0:0:0:
326,238,25457,5,0,0:0:0:0:
348,233,25536,5,0,0:0:0:0:
128,288,25694,5,0,0:0:0:0:
98,278,25773,1,0,0:0:0:0:
98,247,25852,1,0,0:0:0:0:
128,237,25931,1,0,0:0:0:0:
146,262,26010,1,0,0:0:0:0:
320,192,26168,5,0,0:0:0:0:
291,154,26247,5,0,0:0:0:0:
318,116,26326,5,0,0:0:0:0:
363,129,26405,5,0,0:0:0:0:
364,176,26484,5,0,0:0:0:0:
235,161,26641,6,0,B|240:131|240:131|288:140,1,78.125
290,196,26720,2,0,B|264:181|264:181|288:140,1,78.125
341,157,26799,2,0,B|318:176|318:176|288:140,1,78.125
322,95,26878,2,0,B|333:123|333:123|288:140,1,78.125
257,92,26957,2,0,B|288:92|288:92|288:140,1,78.125
91,309,27273,6,0,B|96:279|96:279|144:288,1,78.125
146,344,27352,2,0,B|120:329|120:329|144:288,1,78.125
197,305,27431,2,0,B|174:324|174:324|144:288,1,78.125
178,243,27510,2,0,B|189:271|189:271|144:288,1,78.125
113,240,27589,2,0,B|144:240|144:240|144:288,1,78.125
138,27,27747,6,0,B|168:32|168:32|160:80,1,78.125
102,81,27826,2,0,B|117:55|117:55|159:79,1,78.125
141,133,27905,2,0,B|122:110|122:110|159:79,1,78.125
204,114,27984,2,0,B|176:124|176:124|159:79,1,78.125
207,49,28063,2,0,B|207:79|207:79|159:79,1,78.125
420,74,28221,6,0,B|415:104|415:104|368:96,1,78.125
365,39,28300,2,0,B|392:54|392:54|368:96,1,78.125
314,78,28379,2,0,B|337:59|337:59|368:96,1,78.125
333,140,28458,2,0,B|322:112|322:112|368:96,1,78.125
398,144,28537,2,0,B|368:144|368:144|368:96,1,78.125
159,236,28694,6,0,B|129:241|129:241|137:289,1,78.125
195,290,28773,2,0,B|180:264|180:264|138:288,1,78.125
156,342,28852,2,0,B|175:319|175:319|138:288,1,78.125
93,323,28931,2,0,B|121:333|121:333|138:288,1,78.125
90,258,29010,2,0,B|90:288|90:288|138:288,1,78.125
453,127,29168,6,0,B|448:157|448:157|401:149,1,78.125
398,92,29247,2,0,B|425:107|425:107|401:149,1,78.125
347,131,29326,2,0,B|370:112|370:112|401:149,1,78.125
366,193,29405,2,0,B|355:165|355:165|401:149,1,78.125
431,197,29484,2,0,B|401:197|401:197|401:149,1,78.125
80,64,29799,5,0,0:0:0:0:
84,82,29877,1,0,0:0:0:0:
91,101,29956,1,0,0:0:0:0:
99,119,30035,1,0,0:0:0:0:
109,135,30114,1,0,0:0:0:0:
432,176,30273,5,0,0:0:0:0:
427,194,30351,1,0,0:0:0:0:
416,208,30430,1,0,0:0:0:0:
412,231,30509,1,0,0:0:0:0:
402,247,30588,1,0,0:0:0:0:
80,208,30747,5,0,0:0:0:0:
84,190,30825,1,0,0:0:0:0:
91,171,30904,1,0,0:0:0:0:
99,153,30983,1,0,0:0:0:0:
109,137,31062,1,0,0:0:0:0:
402,359,31221,5,0,0:0:0:0:
412,343,31300,5,0,0:0:0:0:
420,325,31379,5,0,0:0:0:0:
427,306,31458,5,0,0:0:0:0:
432,288,31536,5,0,0:0:0:0:
134,338,31694,2,0,B|150:379|150:379|181:270,1,156.25
194,102,31852,2,0,L|204:55,1,39.0625
306,313,31931,2,0,L|316:266,1,39.0625
320,176,32010,1,0,0:0:0:0:
352,112,32089,1,0,0:0:0:0:
368,224,32168,1,0,0:0:0:0:
400,160,32247,1,0,0:0:0:0:
304,96,32325,6,0,B|311:56|344:32|344:32|376:56|384:104,1,156.25
365,92,32483,2,0,B|396:118|400:158|400:158|363:174|318:157,1,156.25
338,147,32641,2,0,B|299:160|262:144|262:144|267:104|304:73,1,156.25
333,76,32799,2,0,B|371:62|408:78|408:78|403:118|366:149,1,156.25
368,128,32957,2,0,B|361:168|328:192|328:192|295:168|288:120,1,156.25
306,131,33115,2,0,B|274:104|270:64|270:64|307:48|352:65,1,156.25
176,224,33273,6,0,B|169:264|136:288|136:288|104:264|96:216,1,156.25
115,228,33431,2,0,B|83:201|79:161|79:161|116:145|161:162,1,156.25
142,173,33589,2,0,B|180:159|217:175|217:175|212:215|175:246,1,156.25
147,244,33746,2,0,B|108:257|71:241|71:241|76:201|113:170,1,156.25
112,192,33904,2,0,B|119:152|152:128|152:128|184:151|192:200,1,156.25
174,189,34062,2,0,B|205:215|209:255|209:255|172:271|127:254,1,156.25
313,43,34220,5,0,0:0:0:0:
328,198,34298,1,0,0:0:0:0:
343,353,34377,1,0,0:0:0:0:
338,74,34694,5,0,0:0:0:0:
317,213,34772,1,0,0:0:0:0:
297,352,34851,1,0,0:0:0:0:
354,109,35168,5,0,0:0:0:0:
304,224,35246,1,0,0:0:0:0:
254,340,35325,1,0,0:0:0:0:
361,144,35641,5,0,0:0:0:0:
289,232,35719,1,0,0:0:0:0:
217,320,35798,1,0,0:0:0:0:
358,173,36115,5,0,0:0:0:0:
276,234,36193,1,0,0:0:0:0:
194,295,36272,1,0,0:0:0:0:
349,200,36589,5,0,0:0:0:0:
264,233,36667,1,0,0:0:0:0:
178,267,36746,1,0,0:0:0:0:
84,178,36852,2,0,L|139:186,2,33.3333333333333
272,73,37168,2,0,L|264:128,1,33.3333333333333
421,280,37378,2,0,P|399:186|330:315,1,350
182,129,38641,5,0,0:0:0:0:
34,226,38799,1,0,0:0:0:0:
33,225,38878,2,0,P|98:268|175:265,1,156.25
206,143,39036,2,0,P|141:100|64:103,1,156.25
342,166,39273,1,0,0:0:0:0:
342,166,39352,2,0,P|299:230|302:307,1,156.25
425,338,39510,2,0,P|467:273|464:196,1,156.25
391,95,39747,2,0,L|300:39,3,78.125
210,77,39904,5,0,0:0:0:0:
186,193,40115,1,0,0:0:0:0:
298,155,40325,1,0,0:0:0:0:
232,142,40536,5,0,0:0:0:0:
208,258,40747,1,0,0:0:0:0:
320,220,40957,1,0,0:0:0:0:
254,207,41168,1,0,0:0:0:0:
390,318,41378,2,0,B|320:224|320:224|391:317,2,208.333333333333
350,63,41799,5,0,0:0:0:0:
356,93,41878,1,0,0:0:0:0:
362,123,41957,6,0,P|305:70|242:57,1,117.1875
249,65,42036,2,0,P|175:88|132:136,1,117.1875
143,134,42115,2,0,P|125:209|146:271,1,117.1875
208,272,42194,2,0,B|272:288|272:288|288:240|288:240|352:256|352:256,1,156.25
399,152,42352,1,0,0:0:0:0:
446,264,42431,6,0,P|355:352|326:348,1,125
111,178,42668,1,0,0:0:0:0:
96,224,42747,2,0,P|125:277|182:300,1,125
278,119,42983,2,0,P|253:103|193:110,1,62.5
80,320,43141,2,0,P|129:359|190:357,1,125
157,92,43378,2,0,P|143:151|171:206,1,125
512,196,43694,6,0,P|421:108|392:112,1,125
177,282,43931,1,0,0:0:0:0:
177,282,44010,2,0,P|206:229|263:206,1,125
344,341,44246,2,0,P|319:357|259:350,1,62.5
183,225,44404,2,0,P|231:186|292:188,1,125
223,368,44641,2,0,P|209:308|237:253,1,125
416,234,44957,5,0,0:0:0:0:
436,249,45036,1,0,0:0:0:0:
449,271,45115,1,0,0:0:0:0:
452,296,45194,1,0,0:0:0:0:
445,322,45273,5,0,0:0:0:0:
427,341,45352,1,0,0:0:0:0:
404,353,45431,1,0,0:0:0:0:
378,353,45510,1,0,0:0:0:0:
354,344,45589,5,0,0:0:0:0:
336,325,45668,1,0,0:0:0:0:
326,301,45747,1,0,0:0:0:0:
328,275,45826,1,0,0:0:0:0:
339,252,45904,6,0,P|265:266|164:235,1,125
203,133,46220,2,0,P|277:118|378:149,1,125
319,336,46536,6,0,P|249:307|181:226,1,125
137,123,46773,1,0,0:0:0:0:
137,123,46852,2,0,P|83:139|28:198,2,125
124,283,47325,2,0,P|170:283|216:258,1,62.5
304,336,47483,2,0,P|388:280|405:214,1,125
258,138,47720,1,0,0:0:0:0:
258,137,47799,2,0,P|237:161|181:173,1,62.5
81,269,47957,2,0,B|123:264|147:229|147:229|164:298|207:317|207:317|213:283|249:279,1,250
346,246,48431,6,0,P|403:206|374:128,1,125
280,99,48747,2,0,P|223:139|252:217,1,125
305,289,48983,1,0,0:0:0:0:
305,289,49062,2,0,P|411:262|428:248,1,125
400,48,49378,2,0,L|336:80,1,62.5
112,112,49536,2,0,L|176:144,1,62.5
400,176,49694,2,0,L|336:208,1,62.5
112,240,49852,2,0,L|176:272,1,62.5
259,347,50010,5,0,0:0:0:0:
294,198,50168,1,0,0:0:0:0:
294,198,50247,1,0,0:0:0:0:
294,198,50325,1,0,0:0:0:0:
385,348,50483,2,0,P|435:271|425:206,1,125
278,104,50799,2,0,P|324:63|385:53,2,125
361,220,51273,6,0,P|370:280|346:337,1,125
156,184,51510,1,0,0:0:0:0:
90,277,51589,1,0,0:0:0:0:
90,277,51668,1,0,0:0:0:0:
90,277,51747,2,0,B|156:226|156:226|156:138,1,125
233,49,52062,2,0,P|259:94|263:41,1,125
368,110,52378,2,0,L|368:48,1,62.5
144,48,52536,2,0,L|144:110,1,62.5
48,160,52694,6,0,L|144:160,1,62.5
256,160,52852,2,0,L|112:160,1,125
48,160,53168,1,0,0:0:0:0:
256,160,53325,1,0,0:0:0:0:
352,272,53483,6,0,P|448:256|464:224,1,125
432,160,53799,2,0,P|336:176|320:208,1,125
267,268,54036,1,0,0:0:0:0:
267,268,54115,2,0,P|334:341|416:343,1,125
512,165,54431,2,0,P|445:92|363:90,1,125
223,154,54668,1,0,0:0:0:0:
223,154,54747,2,0,P|150:221|148:303,1,125
288,336,55062,6,0,L|352:320,2,62.5
448,240,55299,2,0,L|384:224,2,62.5
288,144,55536,2,0,L|352:128,2,62.5
448,48,55773,2,0,L|384:32,2,62.5
298,58,56010,2,0,P|234:127|137:112,1,187.5
121,148,56325,2,0,L|259:299,1,187.5
238,314,56641,2,0,P|183:309|128:343,1,62.5
117,305,56799,2,0,P|122:250|88:195,1,62.5
134,193,56957,2,0,P|214:246|257:223,2,125
415,42,57431,6,0,L|347:106,1,62.5
227,119,57589,2,0,P|199:132|178:156,1,62.5
333,203,57747,2,0,P|335:172|325:143,1,62.5
205,252,57904,2,0,P|231:269|262:276,1,62.5
227,119,58062,2,0,B|205:252|205:252|333:204|333:204|228:119,1,375
165,121,58615,5,0,0:0:0:0:
165,120,58694,2,0,P|138:169|154:259,1,125
210,258,59010,2,0,P|244:238|271:247,1,62.5
304,348,59168,1,0,0:0:0:0:
336,176,59325,2,0,P|316:141|325:114,1,62.5
416,48,59483,2,0,L|400:144,1,62.5
416,128,59641,2,0,L|400:224,1,62.5
416,208,59799,2,0,L|400:304,1,62.5
416,288,59957,2,0,L|400:384,1,62.5
300,252,60115,6,0,P|242:232|206:150,1,125
175,61,60352,1,0,0:0:0:0:
175,61,60431,1,0,0:0:0:0:
175,61,60510,1,0,0:0:0:0:
115,167,60589,2,0,P|158:266|218:283,1,125
240,320,60904,2,0,P|333:315|346:333,1,125
144,240,61220,2,0,P|149:333|131:346,1,125
468,246,61536,2,0,P|449:271|419:278,1,62.5
256,192,61694,1,0,0:0:0:0:
256,192,61773,1,0,0:0:0:0:
256,192,61852,5,0,0:0:0:0:
186,280,62010,2,0,L|231:328,1,62.5
96,112,62168,2,0,L|128:192,2,62.5
160,144,62404,1,0,0:0:0:0:
224,176,62483,2,0,L|200:234,1,62.5
280,291,62641,2,0,P|323:237|308:181,1,125
357,176,62878,2,0,B|403:203|436:187|436:187|457:283,1,125
446,263,63115,2,0,P|382:286|371:306,1,62.5
224,288,63273,2,0,B|240:304|240:304|224:320|224:320|240:336|240:336,1,62.5
160,160,63431,2,0,B|144:176|144:176|128:160|128:160|112:176|112:176,1,62.5
451,72,63589,5,0,0:0:0:0:
391,91,63667,5,0,0:0:0:0:
366,128,63746,5,0,0:0:0:0:
318,87,63825,5,0,0:0:0:0:
313,143,63904,5,0,0:0:0:0:
252,146,63983,5,0,0:0:0:0:
231,196,64062,5,0,0:0:0:0:
191,213,64141,5,0,0:0:0:0:
60,205,64220,5,0,0:0:0:0:
119,224,64298,5,0,0:0:0:0:
144,261,64377,5,0,0:0:0:0:
192,220,64456,5,0,0:0:0:0:
197,276,64535,5,0,0:0:0:0:
258,279,64614,5,0,0:0:0:0:
279,329,64693,5,0,0:0:0:0:
319,346,64772,5,0,0:0:0:0:
359,296,64852,5,0,0:0:0:0:
359,296,64931,5,0,0:0:0:0:
319,346,65010,5,0,0:0:0:0:
279,329,65089,5,0,0:0:0:0:
374,229,65168,2,0,P|276:189|254:151,1,125
121,311,65404,2,0,P|219:271|241:233,1,125
203,171,65641,2,0,P|142:182|101:224,1,109.375
92,233,65799,2,0,L|12:237,2,62.5
138,155,66036,5,0,0:0:0:0:
138,155,66115,2,0,P|236:195|258:233,1,125
391,73,66352,2,0,P|293:113|271:151,1,125
308,212,66588,2,0,P|369:201|411:160,1,109.375
422,173,66747,2,0,L|319:315,1,125
71,55,67062,2,2,P|87:115|131:82,1,125
234,177,67378,2,2,P|218:237|174:204,1,125
29,218,67694,6,0,P|85:146|154:159,1,125
225,288,67931,1,0,0:0:0:0:
225,288,68010,2,0,P|205:230|150:204,1,125
287,248,68325,2,0,L|316:165,1,62.5
342,210,68444,2,0,L|371:127,1,62.5
57,123,68641,6,0,L|104:25,1,78.125
74,95,68720,2,0,L|137:6,1,78.125,0|0,0:0|0:0,0:0:0:0:
96,70,68799,2,0,L|173:-6,1,78.125
121,49,68878,2,0,L|210:-12,1,78.125,0|0,0:0|0:0,0:0:0:0:
150,33,68957,6,0,L|248:-11,1,78.125
182,23,69036,2,0,L|287:-3,1,78.125,0|0,0:0|0:0,0:0:0:0:
214,18,69115,2,0,L|322:9,1,78.125,0|0,0:0|0:0,0:0:0:0:
247,18,69194,2,0,L|355:28,1,78.125,0|0,0:0|0:0,0:0:0:0:
281,25,69273,6,0,L|385:54,1,78.125
311,37,69352,2,0,L|409:84,1,78.125,0|0,0:0|0:0,0:0:0:0:
339,54,69431,2,0,L|427:117,1,78.125,0|0,0:0|0:0,0:0:0:0:
365,75,69510,2,0,L|441:152,1,78.125,0|0,0:0|0:0,0:0:0:0:
385,101,69589,6,0,L|446:190,1,78.125
401,131,69668,2,0,L|445:229,1,78.125,0|0,0:0|0:0,0:0:0:0:
411,161,69747,2,0,L|437:266,1,78.125,0|0,0:0|0:0,0:0:0:0:
417,194,69826,2,0,L|425:302,1,78.125,0|0,0:0|0:0,0:0:0:0:
416,228,69904,6,0,L|405:336,1,78.125
409,260,69983,2,0,L|379:364,1,78.125,0|0,0:0|0:0,0:0:0:0:
397,291,70062,2,0,L|350:388,1,78.125,0|0,0:0|0:0,0:0:0:0:
381,319,70141,2,0,L|317:407,1,78.125,0|0,0:0|0:0,0:0:0:0:
256,368,70220,2,0,B|160:128|160:128|128:176,1,312.5
16,256,70457,2,0,B|48:336|48:336|128:304|128:304,1,156.25
190,202,70615,1,0,0:0:0:0:
288,256,70694,2,0,B|256:176|256:176|176:208|176:208,1,156.25
32,144,70852,2,0,P|96:64|160:64,1,156.25
208,144,71010,2,0,P|144:224|80:224,1,156.25
266,39,71168,6,0,P|346:103|346:167,1,156.25
256,288,71325,2,0,L|368:288,1,78.125
480,112,71404,2,0,L|368:112,1,78.125
177,176,71483,2,0,L|256:176,1,78.125
448,320,71562,2,0,L|448:208,1,78.125
336,112,71641,2,0,L|336:190,1,78.125
64,272,71799,2,0,P|96:208|64:112,2,156.25
176,128,72036,1,0,0:0:0:0:
176,128,72115,6,0,P|176:208|256:112,1,312.5
225,167,72352,1,0,0:0:0:0:
305,184,72431,2,0,P|305:264|225:168,1,312.5
256,224,72668,1,0,0:0:0:0:
363,169,72747,2,0,P|352:298|142:180,2,468.75
160,242,73536,5,2,0:0:0:0:
176,305,73614,1,2,0:0:0:0:
222,350,73693,1,2,0:0:0:0:
284,366,73772,1,2,0:0:0:0:
346,350,73851,5,2,0:0:0:0:
392,304,73930,1,2,0:0:0:0:
408,242,74009,1,2,0:0:0:0:
391,180,74088,5,2,0:0:0:0:
346,134,74167,1,2,0:0:0:0:
284,118,74246,1,2,0:0:0:0:
222,134,74325,5,2,0:0:0:0:
176,180,74404,1,2,0:0:0:0:
159,242,74483,1,2,0:0:0:0:
222,248,74562,5,2,0:0:0:0:
279,223,74640,1,2,0:0:0:0:
314,170,74719,1,2,0:0:0:0:
314,106,74798,5,2,0:0:0:0:
281,53,74877,1,2,0:0:0:0:
223,26,74956,1,2,0:0:0:0:
161,34,75035,5,2,0:0:0:0:
112,75,75114,1,2,0:0:0:0:
167,108,75194,1,2,0:0:0:0:
218,146,75273,2,2,P|172:-12|172:160,2,468.75
312,123,75904,2,0,P|310:313|223:308,1,312.5
480,128,76220,5,0,0:0:0:0:
48,80,76457,6,2,B|48:160|48:160|160:272|160:272|48:272|48:272|48:368|48:368,1,437.500004172325
480,128,76694,2,2,B|256:128|256:128|256:192|256:192|320:192|320:192|240:304,1,437.500004172325
96,48,76931,2,2,B|96:320|96:320|384:320,1,437.500004172325
416,80,77168,2,2,B|352:80|352:80|352:160|352:160|432:160|432:160|432:224|432:224|320:224|320:224|320:288|320:288,1,437.500004172325
16,64,77404,2,2,B|208:64|208:64|208:336,1,437.500004172325
496,128,77641,2,2,B|304:128|304:128|304:400,1,437.500004172325
320,48,77878,2,2,B|400:48|400:48|320:80|320:80|400:80|400:80|400:400,2,546.875005215406
125,205,78431,6,0,P|225:209|125:209,1,312.5
46,203,78747,2,0,P|163:77|306:213,1,312.5
310,209,78983,2,0,P|193:335|50:199,1,312.5
53,106,79220,2,0,P|206:27|275:91,1,156.25
288,96,79378,6,0,L|352:128,2,58.3333315531413
464,160,79694,2,0,L|400:192,2,58.3333315531413
288,224,80010,1,0,0:0:0:0:
314,237,80115,1,0,0:0:0:0:
340,250,80220,1,0,0:0:0:0:
464,288,80326,1,0,0:0:0:0:
437,301,80431,1,0,0:0:0:0:
411,314,80536,1,0,0:0:0:0:
288,96,80641,6,0,L|352:128,2,58.3333315531413
464,160,80957,2,0,L|400:192,2,58.3333315531413
247,210,81273,2,0,P|268:235|258:252,2,43.749998664856
199,284,81510,2,0,P|178:309|188:326,2,43.749998664856
75,269,81747,1,0,0:0:0:0:
75,269,81825,1,0,0:0:0:0:
75,269,81904,6,0,P|106:195|166:147,1,93.7500035762788
294,129,82062,2,0,P|220:160|172:220,1,93.7500035762788
69,89,82220,6,0,P|143:120|191:180,1,93.7500035762788
209,308,82378,2,0,P|178:234|118:186,1,93.7500035762788
69,89,82536,1,0,0:0:0:0:
75,269,82615,1,0,0:0:0:0:
255,263,82694,1,0,0:0:0:0:
249,83,82773,1,0,0:0:0:0:
166,183,82852,6,0,P|368:117|339:327,1,500
141,249,84865,1,0,0:0:0:0:
141,249,84904,2,0,P|183:286|201:286,1,75
224,184,85378,2,0,P|295:120|466:205,1,300
222,220,86641,2,0,L|324:275,1,100
416,297,87273,2,8,L|390:310,2,25
222,220,87589,2,8,L|247:233,2,25
141,175,87904,5,0,0:0:0:0:
61,157,88062,1,0,0:0:0:0:
97,107,88141,1,0,0:0:0:0:
156,95,88220,1,8,0:0:0:0:
51,151,88378,1,0,0:0:0:0:
91,95,88457,1,0,0:0:0:0:
159,81,88536,1,0,0:0:0:0:
141,175,88694,5,8,0:0:0:0:
268,216,89168,5,0,0:0:0:0:
286,136,89325,1,0,0:0:0:0:
336,172,89404,1,0,0:0:0:0:
348,231,89483,1,8,0:0:0:0:
292,126,89641,1,0,0:0:0:0:
348,166,89720,1,0,0:0:0:0:
362,234,89799,1,0,0:0:0:0:
348,231,89957,1,8,0:0:0:0:
336,172,90036,1,0,0:0:0:0:
286,136,90115,1,0,0:0:0:0:
78,73,90431,5,0,0:0:0:0:
121,159,90589,1,0,0:0:0:0:
121,159,90668,1,0,0:0:0:0:
121,159,90747,2,0,P|197:138|317:215,1,187.500007152558
339,266,90983,1,0,0:0:0:0:
339,266,91062,2,0,P|263:245|143:322,1,187.500007152558
320,175,91299,1,0,0:0:0:0:
320,175,91378,2,0,P|396:154|516:231,1,187.500007152558
108,64,91694,5,0,0:0:0:0:
83,138,91773,1,0,0:0:0:0:
160,123,91852,1,0,0:0:0:0:
237,108,92010,5,0,0:0:0:0:
160,123,92089,1,0,0:0:0:0:
211,182,92168,1,0,0:0:0:0:
237,108,92325,5,0,0:0:0:0:
185,48,92404,1,0,0:0:0:0:
159,122,92483,1,0,0:0:0:0:
81,136,92641,5,0,0:0:0:0:
133,196,92720,1,0,0:0:0:0:
159,122,92799,1,0,0:0:0:0:
108,64,92957,5,0,0:0:0:0:
185,48,93036,1,0,0:0:0:0:
237,108,93116,1,0,0:0:0:0:
211,182,93194,1,0,0:0:0:0:
133,196,93273,1,0,0:0:0:0:
81,136,93352,1,0,0:0:0:0:
159,122,93431,1,0,0:0:0:0:
211,182,93589,2,0,B|334:152|334:152|407:317,2,281.250010728836
156,80,94220,6,0,B|227:121|227:121|156:162,1,162.5
86,121,94378,2,0,B|86:39|86:39|157:80,1,162.5
157,161,94536,2,0,B|85:201|85:201|85:120,1,162.5
227,283,94694,6,0,B|155:323|155:323|155:242,1,162.5
226,201,94852,2,0,B|297:242|297:242|226:283,1,162.5
156,243,95010,2,0,B|156:161|156:161|227:202,1,162.5
226,201,95168,6,0,B|155:160|155:160|226:119,1,162.5
296,159,95326,2,0,B|295:240|295:240|224:200,1,162.5
225,119,95484,2,0,B|296:78|296:78|296:159,1,162.5
226,200,95641,6,0,B|226:118|226:118|297:159,1,162.5
297,239,95799,2,0,B|226:278|226:278|225:197,1,162.5
296,158,95957,2,0,B|367:198|367:198|296:239,1,162.5
152,157,96115,1,0,0:0:0:0:
153,237,96194,1,0,0:0:0:0:
222,196,96273,1,0,0:0:0:0:
152,157,96353,1,0,0:0:0:0:
153,237,96432,1,0,0:0:0:0:
222,196,96511,1,0,0:0:0:0:
152,157,96589,1,0,0:0:0:0:
153,237,96668,1,0,0:0:0:0:
293,317,96747,6,0,B|221:357|221:357|221:276,1,162.5
292,235,96905,2,0,B|363:276|363:276|292:317,1,162.5
222,277,97063,2,0,B|222:195|222:195|293:236,1,162.5
152,157,97220,6,0,B|224:197|224:197|224:116,1,162.5
153,75,97378,2,0,B|82:116|82:116|153:157,1,162.5
223,117,97536,2,0,B|223:35|223:35|152:76,1,162.5
223,117,97694,6,0,B|152:159|152:159|222:199,1,162.5
293,158,97852,2,0,B|292:76|292:76|221:117,1,162.5
222,198,98010,2,0,B|293:239|293:239|293:157,1,162.5
293,158,98168,6,0,B|221:117|221:117|221:199,1,162.5
292,239,98326,2,0,B|363:198|363:198|292:157,1,160.624994362831
222,197,98484,2,0,B|222:279|222:279|293:238,1,162.5
294,158,98641,1,0,0:0:0:0:
222,197,98720,1,0,0:0:0:0:
291,238,98799,1,0,0:0:0:0:
294,158,98878,1,0,0:0:0:0:
224,114,98957,1,0,0:0:0:0:
223,195,99036,1,0,0:0:0:0:
294,158,99115,1,0,0:0:0:0:
222,197,99194,1,0,0:0:0:0:
294,158,99273,6,0,B|223:200|223:200|293:240,1,162.5
364,199,99431,2,0,B|363:117|363:117|292:158,1,162.5
293,239,99589,2,0,B|364:280|364:280|364:198,1,162.5
293,239,99747,6,0,B|221:198|221:198|221:279,1,162.5
292,320,99905,2,0,B|362:278|362:278|291:237,1,162.5
222,278,100063,2,0,B|221:359|221:359|293:318,1,162.5
222,118,100220,6,0,B|222:199|222:199|151:159,1,162.5
150,241,100378,2,0,B|221:199|221:199|150:159,1,162.5
222,118,100536,2,0,B|222:200|222:200|292:159,1,162.5
290,241,100694,6,0,B|361:199|361:199|291:159,1,162.5
291,319,100852,2,0,B|362:277|362:277|292:237,1,162.5
152,75,101010,2,0,B|152:157|152:157|222:116,1,162.5
152,75,101168,1,0,0:0:0:0:
153,155,101247,1,0,0:0:0:0:
222,114,101326,1,0,0:0:0:0:
152,75,101404,1,0,0:0:0:0:
153,155,101485,1,0,0:0:0:0:
222,114,101562,1,0,0:0:0:0:
152,75,101642,1,0,0:0:0:0:
153,155,101721,1,0,0:0:0:0:
183,326,101799,6,0,P|245:41|181:326,1,883.437468995572
128,316,102273,6,0,P|92:207|117:320,1,351.562513411046
169,334,102904,6,0,P|153:260|158:338,1,187.5
116,319,102983,6,0,P|132:245|127:323,1,187.5
171,325,103062,6,0,P|233:40|169:325,1,883.437468995572
171,325,103536,6,0,P|202:174|169:325,1,468.75
170,247,104168,1,0,0:0:0:0:
416,64,104325,5,0,0:0:0:0:
416,112,104404,1,0,0:0:0:0:
368,112,104483,1,0,0:0:0:0:
368,64,104562,1,0,0:0:0:0:
96,64,104798,5,0,0:0:0:0:
96,112,104877,1,0,0:0:0:0:
144,112,104956,1,0,0:0:0:0:
144,64,105035,1,0,0:0:0:0:
352,192,105273,5,0,0:0:0:0:
352,240,105352,1,0,0:0:0:0:
304,240,105431,1,0,0:0:0:0:
304,192,105510,1,0,0:0:0:0:
160,192,105746,5,0,0:0:0:0:
160,240,105825,1,0,0:0:0:0:
208,240,105904,1,0,0:0:0:0:
208,192,105983,1,0,0:0:0:0:
256,320,106062,2,0,L|256:240,1,62.5
256,32,106220,2,0,L|256:112,1,62.5
256,80,106378,2,0,L|256:160,1,62.5
256,128,106536,2,0,L|256:208,1,62.5
256,176,106694,2,0,L|256:256,1,62.5
96,64,106852,5,0,0:0:0:0:
96,112,106931,1,0,0:0:0:0:
144,112,107010,1,0,0:0:0:0:
144,64,107089,1,0,0:0:0:0:
352,192,107325,1,0,0:0:0:0:
352,240,107404,1,0,0:0:0:0:
304,240,107483,1,0,0:0:0:0:
304,192,107562,1,0,0:0:0:0:
416,64,107799,5,0,0:0:0:0:
416,112,107878,1,0,0:0:0:0:
368,112,107957,1,0,0:0:0:0:
368,64,108036,1,0,0:0:0:0:
160,192,108272,1,0,0:0:0:0:
160,240,108351,1,0,0:0:0:0:
208,240,108430,1,0,0:0:0:0:
208,192,108509,1,0,0:0:0:0:
256,320,108589,6,0,L|256:240,1,62.5
256,32,108747,2,0,L|256:112,1,62.5
256,80,108905,2,0,L|256:160,1,62.5
256,128,109063,2,0,L|256:208,1,62.5
256,176,109221,2,0,L|256:256,1,62.5
32,32,109378,5,0,0:0:0:0:
48,48,109457,1,0,0:0:0:0:
64,64,109536,1,0,0:0:0:0:
80,80,109615,1,0,0:0:0:0:
480,32,109852,5,0,0:0:0:0:
464,48,109931,1,0,0:0:0:0:
448,64,110010,1,0,0:0:0:0:
432,80,110089,1,0,0:0:0:0:
80,160,110325,5,0,0:0:0:0:
96,176,110404,1,0,0:0:0:0:
112,192,110483,1,0,0:0:0:0:
128,208,110562,1,0,0:0:0:0:
432,160,110799,5,0,0:0:0:0:
416,176,110878,1,0,0:0:0:0:
400,192,110957,1,0,0:0:0:0:
384,208,111036,1,0,0:0:0:0:
256,320,111115,6,0,L|256:240,1,62.5
256,32,111273,2,0,L|256:112,1,62.5
256,80,111431,2,0,L|256:160,1,62.5
256,128,111589,2,0,L|256:208,1,62.5
256,176,111747,2,0,L|256:256,1,62.5
256,288,111904,2,0,P|160:272|192:144,1,250
221,217,112378,2,0,P|317:233|285:361,1,250
74,243,113010,1,0,0:0:0:0:
86,264,113089,1,0,0:0:0:0:
97,285,113168,2,0,L|218:66,1,250
323,279,113641,2,0,B|325:268|325:268|330:263|330:263|333:259|333:259|339:255|336:254|336:254|340:246|340:246|347:236|347:236|340:252|340:252|342:252|344:246|344:246|343:243|343:243|347:241|346:238|346:238|351:237|348:231|348:231|350:231|349:228|350:226|350:226|348:230|354:227|354:227|351:241|351:241|354:224|354:223|354:223|354:217|354:217|360:199|360:199|346:225|346:225|356:219|356:219|370:204|370:204|358:215|358:215|356:211|356:211|359:210|359:210|360:203|360:203|360:206|362:204|362:204|366:201|366:201|366:200|367:198|367:198|378:171|378:171|372:184|372:184|370:194|370:194|370:192|370:192|370:191|373:189|373:189|368:208|368:208|375:186|375:186|376:185|382:169|382:169|379:180|379:180|380:176|381:178|381:178|382:175|382:175|385:174|385:174|383:172|383:172|385:169|385:169|386:160|386:160|378:176|378:176|386:165|386:165|388:161|388:161|390:156|390:156|392:158|392:158|394:150|394:150|391:153|391:153|390:155|390:155|393:147|393:147|395:147|395:147|393:147|393:147|396:144|396:144|395:148|395:148|393:164|393:164|398:141|398:141,1,500
163,265,114431,6,0,P|158:142|212:263,1,350
182,129,115694,5,0,0:0:0:0:
34,226,115852,1,0,0:0:0:0:
33,225,115931,2,0,P|98:268|175:265,1,156.25
206,143,116089,2,0,P|141:100|64:103,1,156.25
342,166,116326,1,0,0:0:0:0:
342,166,116405,2,0,P|299:230|302:307,1,156.25
425,338,116563,2,0,P|467:273|464:196,1,156.25
391,95,116800,2,0,L|300:39,3,78.125
210,77,116957,5,0,0:0:0:0:
186,193,117168,1,0,0:0:0:0:
298,155,117378,1,0,0:0:0:0:
232,142,117589,5,0,0:0:0:0:
208,258,117800,1,0,0:0:0:0:
320,220,118010,1,0,0:0:0:0:
256,192,118023,12,0,120312,0:0:0:0:
68,60,120325,5,8,0:0:0:0:
