osu file format v14

[General]
AudioFilename: audio.mp3
AudioLeadIn: 0
PreviewTime: 41765
Countdown: 0
SampleSet: Normal
StackLeniency: 0.7
Mode: 1
LetterboxInBreaks: 0
WidescreenStoryboard: 1

[Editor]
Bookmarks: 12269,28540,44811,61083,77354,85489,93625,109896,126167,142439,158710,174981,191252,207523,240066,256337,272100
DistanceSpacing: 1.7
BeatDivisor: 4
GridSize: 32
TimelineZoom: 2.299999

[Metadata]
Title:flos
TitleUnicode:flos
Artist:Nekomata Okayu
ArtistUnicode:猫又おかゆ
Creator:Gamelan4
Version:closed's Kantan
Source:
Tags:closed hivie vtuber virtual youtuber japanese cover ホロライブ R Sound Design jpop j-pop quartia hololive pop バーチャルyoutuber
BeatmapID:2635494
BeatmapSetID:1262793

[Difficulty]
HPDrainRate:9
CircleSize:5
OverallDifficulty:2
ApproachRate:10
SliderMultiplier:1.4
SliderTickRate:3

[Events]
//Background and Video events
0,0,"okayuwu.png",0,0
Video,0,"mogu moguuu okayuuu.mp4"
//Break Periods
2,10748,11823
2,191456,192840
2,193490,194874
2,195524,196908
2,197558,198942
2,263660,264535
//Storyboard Layer 0 (Background)
//Storyboard Layer 1 (Fail)
//Storyboard Layer 2 (Pass)
//Storyboard Layer 3 (Foreground)
//Storyboard Layer 4 (Overlay)
//Storyboard Sound Samples

[TimingPoints]
4138,508.474576271186,4,1,0,60,1,0
44815,-100,4,1,0,70,0,1
61087,-100,4,1,0,60,0,0
77231,-100,4,1,0,50,0,0
93502,-100,4,1,0,60,0,0
141934,-100,4,1,0,50,0,0
158587,-100,4,1,0,60,0,0
191129,-100,4,1,0,50,0,0
207400,-100,4,1,0,60,0,0
239943,-100,4,1,0,70,0,0
240070,-100,4,1,0,70,0,1
256341,-100,4,1,0,70,0,0
270451,-100,4,1,0,50,0,0

[HitObjects]
256,192,4138,5,8,0:0:0:0:
256,192,5154,1,0,0:0:0:0:
256,192,6171,1,8,0:0:0:0:
256,192,7188,1,8,0:0:0:0:
256,192,8205,1,0,0:0:0:0:
256,192,9222,1,0,0:0:0:0:
256,192,10239,1,0,0:0:0:0:
256,192,12273,5,8,0:0:0:0:
256,192,13290,1,0,0:0:0:0:
256,192,14307,1,8,0:0:0:0:
256,192,15324,1,8,0:0:0:0:
256,192,16341,1,0,0:0:0:0:
256,192,17358,1,8,0:0:0:0:
256,192,18375,1,0,0:0:0:0:
256,192,19392,1,8,0:0:0:0:
256,192,20409,1,8,0:0:0:0:
256,192,21426,1,0,0:0:0:0:
256,192,22443,1,8,0:0:0:0:
256,192,23460,1,8,0:0:0:0:
256,192,24476,1,8,0:0:0:0:
256,192,25493,1,0,0:0:0:0:
256,192,26510,1,0,0:0:0:0:
256,192,27527,1,8,0:0:0:0:
256,192,29053,1,8,0:0:0:0:
256,192,30070,1,0,0:0:0:0:
256,192,31087,1,8,0:0:0:0:
256,192,32104,1,8,0:0:0:0:
288,192,33629,1,0,0:0:0:0:
288,192,34646,1,8,0:0:0:0:
288,192,35663,1,0,0:0:0:0:
288,192,36171,1,8,0:0:0:0:
288,192,37188,1,8,0:0:0:0:
288,192,38205,1,0,0:0:0:0:
288,192,39222,1,8,0:0:0:0:
288,192,40239,1,0,0:0:0:0:
288,192,41765,1,8,0:0:0:0:
288,192,42273,1,8,0:0:0:0:
288,192,42782,1,0,0:0:0:0:
256,192,43799,1,8,0:0:0:0:
288,192,44815,1,0,0:0:0:0:
288,192,45832,1,8,0:0:0:0:
288,192,46849,1,8,0:0:0:0:
288,192,47358,1,0,0:0:0:0:
288,192,47866,1,8,0:0:0:0:
288,192,48883,1,0,0:0:0:0:
288,192,49900,1,8,0:0:0:0:
288,192,50917,1,8,0:0:0:0:
288,192,51426,1,0,0:0:0:0:
288,192,51934,1,0,0:0:0:0:
288,192,52951,5,8,0:0:0:0:
288,192,53968,1,8,0:0:0:0:
288,192,54985,1,8,0:0:0:0:
288,192,55493,1,8,0:0:0:0:
288,192,56002,1,0,0:0:0:0:
288,192,57019,1,0,0:0:0:0:
288,192,58036,1,0,0:0:0:0:
288,192,59053,1,8,0:0:0:0:
288,192,60070,1,0,0:0:0:0:
288,192,61087,1,8,0:0:0:0:
288,192,62104,1,0,0:0:0:0:
288,192,63121,1,0,0:0:0:0:
288,192,64137,1,8,0:0:0:0:
288,192,65154,1,8,0:0:0:0:
288,192,66171,1,0,0:0:0:0:
288,192,67188,1,8,0:0:0:0:
288,192,67697,1,0,0:0:0:0:
288,192,68205,1,8,0:0:0:0:
288,192,69222,1,8,0:0:0:0:
288,192,70239,1,0,0:0:0:0:
288,192,71256,1,0,0:0:0:0:
288,192,72273,1,8,0:0:0:0:
288,192,73290,1,8,0:0:0:0:
288,192,74307,1,0,0:0:0:0:
288,192,75324,1,8,0:0:0:0:
288,192,75832,1,0,0:0:0:0:
288,192,76341,1,8,0:0:0:0:
288,192,77358,1,8,0:0:0:0:
288,192,79392,1,0,0:0:0:0:
288,192,81426,1,0,0:0:0:0:
288,192,83460,1,8,0:0:0:0:
288,192,85493,1,0,0:0:0:0:
288,192,86510,1,0,0:0:0:0:
288,192,87527,1,8,0:0:0:0:
288,192,88544,1,0,0:0:0:0:
288,192,89561,1,8,0:0:0:0:
288,192,90578,1,8,0:0:0:0:
288,192,91595,1,0,0:0:0:0:
288,192,93629,1,8,0:0:0:0:
288,192,94646,1,0,0:0:0:0:
288,192,95663,1,8,0:0:0:0:
256,192,96171,1,0,0:0:0:0:
256,192,96680,1,8,0:0:0:0:
288,192,98205,1,8,0:0:0:0:
288,192,98714,1,0,0:0:0:0:
288,192,99731,1,0,0:0:0:0:
288,192,100239,1,8,0:0:0:0:
288,192,100748,1,0,0:0:0:0:
288,192,101765,1,8,0:0:0:0:
288,192,102782,1,8,0:0:0:0:
288,192,103799,1,8,0:0:0:0:
288,192,104307,1,8,0:0:0:0:
288,192,104815,1,0,0:0:0:0:
288,192,106341,1,8,0:0:0:0:
288,192,106849,1,0,0:0:0:0:
288,192,107866,1,8,0:0:0:0:
288,192,108375,1,0,0:0:0:0:
288,192,108883,1,0,0:0:0:0:
288,192,109392,1,0,0:0:0:0:
288,192,109900,1,8,0:0:0:0:
288,192,110917,1,0,0:0:0:0:
288,192,111934,1,8,0:0:0:0:
288,192,112951,1,0,0:0:0:0:
288,192,113968,1,8,0:0:0:0:
288,192,114985,1,0,0:0:0:0:
288,192,116002,1,8,0:0:0:0:
288,192,117019,1,8,0:0:0:0:
256,192,117527,1,8,0:0:0:0:
288,192,118036,1,0,0:0:0:0:
288,192,119053,1,8,0:0:0:0:
288,192,120070,1,8,0:0:0:0:
288,192,121087,1,0,0:0:0:0:
288,192,122104,1,0,0:0:0:0:
288,192,123121,1,8,0:0:0:0:
288,192,124137,1,0,0:0:0:0:
288,192,125154,1,8,0:0:0:0:
288,192,125663,1,8,0:0:0:0:
288,192,126171,1,0,0:0:0:0:
288,192,127697,1,8,0:0:0:0:
288,192,128205,1,0,0:0:0:0:
288,192,129222,1,8,0:0:0:0:
288,192,129731,1,8,0:0:0:0:
288,192,130239,1,0,0:0:0:0:
288,192,131256,1,0,0:0:0:0:
288,192,131765,1,8,0:0:0:0:
288,192,132273,1,0,0:0:0:0:
288,192,133290,1,8,0:0:0:0:
288,192,134307,1,0,0:0:0:0:
288,192,135324,1,8,0:0:0:0:
288,192,136341,1,0,0:0:0:0:
288,192,136849,1,8,0:0:0:0:
288,192,137358,1,8,0:0:0:0:
288,192,137866,1,0,0:0:0:0:
288,192,138375,1,0,0:0:0:0:
255,193,139900,1,0,0:0:0:0:
288,192,140409,1,8,0:0:0:0:
288,192,141426,1,0,0:0:0:0:
288,192,141934,1,8,0:0:0:0:
288,192,142443,1,0,0:0:0:0:
288,192,144476,1,8,0:0:0:0:
288,192,146510,1,0,0:0:0:0:
288,192,148544,1,0,0:0:0:0:
288,192,150578,1,8,0:0:0:0:
288,192,151595,1,0,0:0:0:0:
288,192,152612,1,8,0:0:0:0:
288,192,153629,1,8,0:0:0:0:
288,192,154646,1,0,0:0:0:0:
288,192,155663,1,8,0:0:0:0:
288,192,156680,1,0,0:0:0:0:
288,192,158714,1,8,0:0:0:0:
288,192,159731,1,0,0:0:0:0:
288,192,160748,1,8,0:0:0:0:
288,192,161256,1,0,0:0:0:0:
288,192,161765,1,8,0:0:0:0:
288,192,162782,1,8,0:0:0:0:
288,192,163799,1,0,0:0:0:0:
288,192,164815,1,0,0:0:0:0:
288,192,165324,1,8,0:0:0:0:
288,192,165832,1,8,0:0:0:0:
288,192,167358,1,8,0:0:0:0:
288,192,167866,1,0,0:0:0:0:
288,192,168883,1,8,0:0:0:0:
288,192,169392,1,0,0:0:0:0:
288,192,169900,1,0,0:0:0:0:
288,192,170917,1,0,0:0:0:0:
288,192,171934,1,8,0:0:0:0:
288,192,172951,1,8,0:0:0:0:
288,192,173460,1,0,0:0:0:0:
288,192,173968,1,8,0:0:0:0:
288,192,174476,1,8,0:0:0:0:
288,192,174985,1,8,0:0:0:0:
288,192,176510,1,8,0:0:0:0:
288,192,177019,1,0,0:0:0:0:
288,192,178036,1,0,0:0:0:0:
288,192,179053,1,8,0:0:0:0:
288,192,180578,1,8,0:0:0:0:
288,192,181087,1,0,0:0:0:0:
288,192,182104,1,0,0:0:0:0:
288,192,183121,1,8,0:0:0:0:
288,192,183883,1,8,0:0:0:0:
288,192,184646,1,8,0:0:0:0:
288,192,185154,1,0,0:0:0:0:
288,192,186171,1,0,0:0:0:0:
288,192,187188,1,8,0:0:0:0:
288,192,188205,1,0,0:0:0:0:
288,192,189222,1,8,0:0:0:0:
288,192,190239,1,8,0:0:0:0:
288,192,190748,1,0,0:0:0:0:
288,192,191256,1,8,0:0:0:0:
288,192,193290,5,8,0:0:0:0:
288,192,195324,5,0,0:0:0:0:
288,192,197358,5,0,0:0:0:0:
288,192,199392,5,8,0:0:0:0:
288,192,200409,1,0,0:0:0:0:
288,192,201426,1,8,0:0:0:0:
288,192,202443,1,8,0:0:0:0:
288,192,203460,1,8,0:0:0:0:
288,192,204476,1,8,0:0:0:0:
288,192,205493,1,0,0:0:0:0:
288,192,207527,1,8,0:0:0:0:
288,192,208544,1,0,0:0:0:0:
288,192,209561,1,8,0:0:0:0:
288,192,210070,1,0,0:0:0:0:
288,192,210578,1,8,0:0:0:0:
288,192,212104,1,0,0:0:0:0:
288,192,212612,1,8,0:0:0:0:
288,192,213629,1,8,0:0:0:0:
288,192,214137,1,0,0:0:0:0:
288,192,214646,1,0,0:0:0:0:
288,192,215663,1,8,0:0:0:0:
288,192,216680,1,0,0:0:0:0:
288,192,217697,1,8,0:0:0:0:
288,192,218205,1,8,0:0:0:0:
288,192,218714,1,0,0:0:0:0:
288,192,219222,1,0,0:0:0:0:
288,192,219731,1,0,0:0:0:0:
288,192,220748,1,8,0:0:0:0:
288,192,221765,1,8,0:0:0:0:
288,192,222273,1,0,0:0:0:0:
288,192,222782,1,8,0:0:0:0:
288,192,223290,1,8,0:0:0:0:
288,192,223799,1,0,0:0:0:0:
288,192,224815,1,8,0:0:0:0:
288,192,225832,1,8,0:0:0:0:
288,192,226341,1,0,0:0:0:0:
288,192,226849,1,8,0:0:0:0:
288,192,228375,1,0,0:0:0:0:
288,192,228883,1,8,0:0:0:0:
288,192,229900,1,8,0:0:0:0:
288,192,230409,1,0,0:0:0:0:
288,192,230917,1,8,0:0:0:0:
288,192,231426,1,8,0:0:0:0:
288,192,231934,1,0,0:0:0:0:
288,192,232951,1,8,0:0:0:0:
288,192,233968,1,8,0:0:0:0:
288,192,234476,1,0,0:0:0:0:
288,192,234985,1,8,0:0:0:0:
288,192,235493,1,8,0:0:0:0:
288,192,236002,1,0,0:0:0:0:
288,192,237019,1,8,0:0:0:0:
288,192,238036,1,8,0:0:0:0:
256,192,238799,1,8,0:0:0:0:
256,192,239561,1,0,0:0:0:0:
288,192,240070,1,0,0:0:0:0:
288,192,241087,1,8,0:0:0:0:
288,192,242104,1,8,0:0:0:0:
292,200,242612,1,0,0:0:0:0:
288,192,243121,1,0,0:0:0:0:
288,192,244137,1,0,0:0:0:0:
288,192,245154,1,8,0:0:0:0:
288,192,246171,1,0,0:0:0:0:
288,192,246680,1,0,0:0:0:0:
288,192,247188,1,8,0:0:0:0:
288,192,248205,1,8,0:0:0:0:
288,192,249222,1,8,0:0:0:0:
288,192,250239,1,0,0:0:0:0:
288,192,250748,1,8,0:0:0:0:
288,192,251256,1,8,0:0:0:0:
288,192,252273,1,0,0:0:0:0:
288,192,253290,1,8,0:0:0:0:
288,192,254307,1,0,0:0:0:0:
288,160,254815,1,0,0:0:0:0:
288,192,255324,1,8,0:0:0:0:
288,192,255832,1,0,0:0:0:0:
288,192,256341,1,8,0:0:0:0:
288,192,257358,1,0,0:0:0:0:
288,192,258375,1,8,0:0:0:0:
288,192,259392,1,8,0:0:0:0:
288,192,260409,1,0,0:0:0:0:
288,192,261426,1,8,0:0:0:0:
288,192,262443,1,0,0:0:0:0:
288,192,263460,1,8,0:0:0:0:
288,192,264985,5,8,0:0:0:0:
288,192,266002,1,0,0:0:0:0:
288,192,267019,1,8,0:0:0:0:
288,192,268036,1,8,0:0:0:0:
288,192,269053,1,0,0:0:0:0:
288,192,270070,1,0,0:0:0:0:
288,192,271087,1,8,0:0:0:0:
357,169,272104,1,0,0:0:0:0:
