osu file format v14

[General]
AudioFilename: audio.mp3
AudioLeadIn: 0
PreviewTime: 41765
Countdown: 0
SampleSet: Normal
StackLeniency: 0.7
Mode: 1
LetterboxInBreaks: 0
WidescreenStoryboard: 1

[Editor]
Bookmarks: 12269,28540,44811,61083,77354,85489,93625,109896,126167,142439,158710,174981,191252,207523,240066,256337,272100
DistanceSpacing: 1.5
BeatDivisor: 4
GridSize: 32
TimelineZoom: 2.299999

[Metadata]
Title:flos
TitleUnicode:flos
Artist:Nekomata Okayu
ArtistUnicode:猫又おかゆ
Creator:Gamelan4
Version:Muzukashii
Source:
Tags:closed hivie vtuber virtual youtuber japanese cover ホロライブ R Sound Design jpop j-pop quartia hololive pop バーチャルyoutuber
BeatmapID:2644675
BeatmapSetID:1262793

[Difficulty]
HPDrainRate:7
CircleSize:5
OverallDifficulty:4
ApproachRate:10
SliderMultiplier:1.6
SliderTickRate:3

[Events]
//Background and Video events
0,0,"okayuwu.png",0,0
Video,0,"mogu moguuu okayuuu.mp4"
//Break Periods
2,191456,192840
2,193490,194874
2,195524,196908
2,197558,198942
//Storyboard Layer 0 (Background)
//Storyboard Layer 1 (Fail)
//Storyboard Layer 2 (Pass)
//Storyboard Layer 3 (Foreground)
//Storyboard Layer 4 (Overlay)
//Storyboard Sound Samples

[TimingPoints]
4138,508.474576271186,4,1,0,60,1,0
4138,-111.111111111111,4,1,0,60,0,0
11595,-125,4,1,0,60,0,0
12188,-100,4,1,0,60,0,0
28004,-105.263157894737,4,1,0,60,0,0
28417,-111.111111111111,4,1,0,60,0,0
44243,-108.108108108108,4,1,0,60,0,0
44529,-104.166666666667,4,1,0,60,0,0
44688,-102.040816326531,4,1,0,60,0,0
44815,-100,4,1,0,70,0,1
60038,-102.040816326531,4,1,0,70,0,1
60515,-104.166666666667,4,1,0,70,0,1
60801,-106.382978723404,4,1,0,70,0,1
61087,-108.695652173913,4,1,0,60,0,0
61404,-111.111111111111,4,1,0,60,0,0
77294,-113.636363636364,4,1,0,50,0,0
85462,-114.285714285714,4,1,0,50,0,0
85843,-114.942528735632,4,1,0,50,0,0
86224,-115.606936416185,4,1,0,50,0,0
86479,-116.279069767442,4,1,0,50,0,0
86860,-116.959064327485,4,1,0,50,0,0
87241,-117.647058823529,4,1,0,50,0,0
87496,-118.343195266272,4,1,0,50,0,0
87877,-119.047619047619,4,1,0,50,0,0
88258,-119.760479041916,4,1,0,50,0,0
88512,-120.481927710843,4,1,0,50,0,0
88894,-121.212121212121,4,1,0,50,0,0
89275,-121.951219512195,4,1,0,50,0,0
89529,-122.699386503067,4,1,0,50,0,0
89911,-123.456790123457,4,1,0,50,0,0
90260,-124.223602484472,4,1,0,50,0,0
90546,-125,4,1,0,50,0,0
90914,-125.786163522013,4,1,0,50,0,0
91277,-126.582278481013,4,1,0,50,0,0
91563,-127.388535031847,4,1,0,50,0,0
91913,-128.205128205128,4,1,0,50,0,0
92262,-129.032258064516,4,1,0,50,0,0
92549,-129.87012987013,4,1,0,50,0,0
93057,-95.2380952380952,4,1,0,70,0,0
93565,-100,4,1,0,60,0,0
109773,-100,4,1,0,60,0,0
126044,-111.111111111111,4,1,0,60,0,0
142411,-113.636363636364,4,1,0,50,0,0
150546,-114.285714285714,4,1,0,50,0,0
150928,-114.942528735632,4,1,0,50,0,0
151309,-115.606936416185,4,1,0,50,0,0
151564,-116.959064327485,4,1,0,50,0,0
151945,-117.647058823529,4,1,0,50,0,0
152326,-118.343195266272,4,1,0,50,0,0
152581,-119.047619047619,4,1,0,50,0,0
152962,-119.760479041916,4,1,0,50,0,0
153343,-120.481927710843,4,1,0,50,0,0
153597,-121.212121212121,4,1,0,50,0,0
153979,-121.951219512195,4,1,0,50,0,0
154360,-121.951219512195,4,1,0,50,0,0
154614,-123.456790123457,4,1,0,50,0,0
154996,-124.223602484472,4,1,0,50,0,0
155345,-125,4,1,0,50,0,0
155631,-125.786163522013,4,1,0,50,0,0
155999,-126.582278481013,4,1,0,50,0,0
156362,-127.388535031847,4,1,0,50,0,0
158650,-100,4,1,0,60,0,0
187157,-90.9090909090909,4,1,0,70,0,0
187315,-96.1538461538461,4,1,0,70,0,0
190684,-98.0392156862745,4,1,0,70,0,0
190891,-100,4,1,0,70,0,0
191065,-102.040816326531,4,1,0,70,0,0
191193,-105.263157894737,4,1,0,70,0,0
192703,-113.636363636364,4,1,0,70,0,0
199360,-114.285714285714,4,1,0,50,0,0
199741,-114.942528735632,4,1,0,50,0,0
200122,-115.606936416185,4,1,0,50,0,0
200377,-116.279069767442,4,1,0,50,0,0
200758,-116.959064327485,4,1,0,50,0,0
201139,-117.647058823529,4,1,0,50,0,0
201394,-118.343195266272,4,1,0,50,0,0
201775,-119.047619047619,4,1,0,50,0,0
202156,-119.760479041916,4,1,0,50,0,0
202410,-120.481927710843,4,1,0,50,0,0
202792,-121.212121212121,4,1,0,50,0,0
203173,-121.951219512195,4,1,0,50,0,0
203427,-122.699386503067,4,1,0,50,0,0
203809,-123.456790123457,4,1,0,50,0,0
204158,-124.223602484472,4,1,0,50,0,0
204444,-125,4,1,0,50,0,0
204812,-125.786163522013,4,1,0,50,0,0
205175,-126.582278481013,4,1,0,50,0,0
205461,-127.388535031847,4,1,0,50,0,0
205811,-128.205128205128,4,1,0,50,0,0
206160,-129.032258064516,4,1,0,50,0,0
206447,-129.87012987013,4,1,0,50,0,0
206955,-95.2380952380952,4,1,0,70,0,0
207463,-100,4,1,0,60,0,0
240070,-95.2380952380952,4,1,0,70,0,1
255705,-96.6183574879227,4,1,0,70,0,1
255960,-98.0392156862745,4,1,0,70,0,1
256341,-99.9999999999999,4,1,0,70,0,0
256786,-111.111111111111,4,1,0,70,0,0
271976,-125,4,1,0,60,0,0

[HitObjects]
320,224,4138,5,8,0:0:0:0:
240,218,4646,1,8,0:0:0:0:
304,210,4900,5,8,0:0:0:0:
288,192,5154,1,0,0:0:0:0:
193,270,5663,1,0,0:0:0:0:
421,240,5917,1,8,0:0:0:0:
220,242,6171,1,8,0:0:0:0:
421,240,6680,1,8,0:0:0:0:
378,213,6934,1,0,0:0:0:0:
256,224,7188,1,0,0:0:0:0:
378,213,7697,1,0,0:0:0:0:
490,229,7951,1,8,0:0:0:0:
352,256,8205,1,8,0:0:0:0:
247,202,8714,1,8,0:0:0:0:
353,211,8968,1,8,0:0:0:0:
288,256,9222,1,0,0:0:0:0:
134,201,9731,1,0,0:0:0:0:
267,246,9985,1,8,0:0:0:0:
247,187,10239,1,0,0:0:0:0:
359,259,10748,1,8,0:0:0:0:
309,212,11002,1,0,0:0:0:0:
92,179,11256,1,0,0:0:0:0:
392,153,11701,1,8,0:0:0:0:
451,202,11765,1,8,0:0:0:0:
435,237,12273,1,12,0:0:0:0:
435,237,12782,1,8,0:0:0:0:
264,146,12972,1,8,0:0:0:0:
184,174,13036,1,8,0:0:0:0:
213,184,13226,1,0,0:0:0:0:
422,223,13799,1,0,0:0:0:0:
378,237,13989,1,0,0:0:0:0:
422,220,14053,1,0,0:0:0:0:
341,215,14243,1,8,0:0:0:0:
298,224,14815,1,8,0:0:0:0:
61,171,15006,1,0,0:0:0:0:
184,174,15070,1,0,0:0:0:0:
213,184,15260,1,8,0:0:0:0:
156,134,15769,1,8,0:0:0:0:
422,223,15832,1,8,0:0:0:0:
378,237,16087,1,0,0:0:0:0:
422,220,16341,1,12,0:0:0:0:
298,224,16849,1,8,0:0:0:0:
61,171,17040,1,8,0:0:0:0:
184,174,17104,1,8,0:0:0:0:
213,184,17294,1,0,0:0:0:0:
422,223,17866,1,0,0:0:0:0:
378,237,18057,1,0,0:0:0:0:
422,220,18121,1,0,0:0:0:0:
341,215,18311,1,8,0:0:0:0:
298,224,18883,1,8,0:0:0:0:
61,171,19074,1,0,0:0:0:0:
184,174,19137,1,0,0:0:0:0:
213,184,19328,1,8,0:0:0:0:
318,199,19837,1,0,0:0:0:0:
422,223,19900,1,0,0:0:0:0:
378,237,20154,1,8,0:0:0:0:
435,237,20409,1,12,0:0:0:0:
435,237,20917,1,8,0:0:0:0:
61,171,21108,1,8,0:0:0:0:
184,174,21171,1,8,0:0:0:0:
158,205,21362,1,0,0:0:0:0:
422,223,21934,1,0,0:0:0:0:
378,237,22125,1,0,0:0:0:0:
341,215,22188,1,0,0:0:0:0:
435,237,22379,1,8,0:0:0:0:
298,224,22951,1,8,0:0:0:0:
61,171,23142,1,8,0:0:0:0:
184,174,23205,1,8,0:0:0:0:
213,184,23396,1,0,0:0:0:0:
318,199,23904,1,8,0:0:0:0:
422,223,23968,1,8,0:0:0:0:
378,237,24222,1,0,0:0:0:0:
422,220,24476,1,8,0:0:0:0:
298,224,24985,1,8,0:0:0:0:
61,171,25176,1,8,0:0:0:0:
184,174,25239,1,8,0:0:0:0:
213,184,25430,1,0,0:0:0:0:
422,223,26002,1,0,0:0:0:0:
378,237,26193,1,0,0:0:0:0:
422,220,26256,1,0,0:0:0:0:
435,237,26447,1,8,0:0:0:0:
298,224,27019,1,8,0:0:0:0:
61,171,27210,1,0,0:0:0:0:
184,174,27273,1,0,0:0:0:0:
433,197,27527,1,8,0:0:0:0:
422,223,28036,1,0,0:0:0:0:
77,203,28544,1,0,0:0:0:0:
193,221,29053,1,8,0:0:0:0:
262,233,29307,1,0,0:0:0:0:
298,226,30070,1,0,0:0:0:0:
366,194,30324,1,8,0:0:0:0:
255,216,31087,1,8,0:0:0:0:
420,215,31341,1,0,0:0:0:0:
361,212,32104,1,8,0:0:0:0:
341,255,32358,1,0,0:0:0:0:
194,195,33883,1,8,0:0:0:0:
268,223,34137,1,0,0:0:0:0:
268,223,34392,1,0,0:0:0:0:
400,145,34646,1,8,0:0:0:0:
268,223,35154,1,0,0:0:0:0:
330,230,35663,1,8,0:0:0:0:
268,223,36171,1,0,0:0:0:0:
337,278,37188,1,8,0:0:0:0:
402,253,37443,1,0,0:0:0:0:
447,209,38205,1,0,0:0:0:0:
266,241,38460,1,8,0:0:0:0:
419,233,39222,1,8,0:0:0:0:
321,216,39476,1,0,0:0:0:0:
362,218,40239,1,0,0:0:0:0:
362,218,40493,1,8,0:0:0:0:
329,236,40748,1,0,0:0:0:0:
339,243,41256,1,0,0:0:0:0:
277,262,41765,1,0,0:0:0:0:
362,224,42019,1,8,0:0:0:0:
345,238,42273,1,8,0:0:0:0:
348,245,42527,1,0,0:0:0:0:
480,220,42782,1,8,0:0:0:0:
431,226,43290,1,0,0:0:0:0:
255,206,43799,1,8,0:0:0:0:
318,243,44307,1,0,0:0:0:0:
501,199,44561,1,8,0:0:0:0:
265,203,44815,5,4,0:0:0:0:
435,237,45324,1,8,0:0:0:0:
61,171,45515,1,8,0:0:0:0:
184,174,45578,1,8,0:0:0:0:
229,225,45769,1,0,0:0:0:0:
289,209,46087,1,8,0:0:0:0:
432,181,46341,1,8,0:0:0:0:
422,220,46595,1,0,0:0:0:0:
341,215,46849,1,0,0:0:0:0:
298,224,47358,1,0,0:0:0:0:
61,171,47549,1,0,0:0:0:0:
184,174,47612,1,0,0:0:0:0:
320,178,47803,1,8,0:0:0:0:
289,209,48121,1,8,0:0:0:0:
422,223,48375,1,8,0:0:0:0:
378,237,48629,1,0,0:0:0:0:
422,220,48883,1,12,0:0:0:0:
435,237,49392,1,8,0:0:0:0:
61,171,49582,1,0,0:0:0:0:
184,174,49646,1,0,0:0:0:0:
229,225,49837,1,0,0:0:0:0:
289,209,50154,1,8,0:0:0:0:
422,223,50409,1,0,0:0:0:0:
422,220,50663,1,8,0:0:0:0:
341,215,50917,1,0,0:0:0:0:
298,224,51426,1,8,0:0:0:0:
61,171,51616,1,8,0:0:0:0:
184,174,51680,1,8,0:0:0:0:
433,197,51871,1,0,0:0:0:0:
293,163,52379,1,0,0:0:0:0:
422,223,52443,1,0,0:0:0:0:
378,237,52697,1,8,0:0:0:0:
270,176,52951,1,12,0:0:0:0:
435,237,53460,1,8,0:0:0:0:
61,171,53651,1,8,0:0:0:0:
184,174,53714,1,8,0:0:0:0:
229,225,53905,1,0,0:0:0:0:
289,209,54223,1,8,0:0:0:0:
432,181,54477,1,8,0:0:0:0:
422,220,54731,1,0,0:0:0:0:
341,215,54985,1,0,0:0:0:0:
298,224,55494,1,0,0:0:0:0:
61,171,55685,1,0,0:0:0:0:
184,174,55748,1,0,0:0:0:0:
320,178,55939,1,8,0:0:0:0:
289,209,56257,1,8,0:0:0:0:
422,223,56511,1,8,0:0:0:0:
378,237,56765,1,0,0:0:0:0:
422,220,57019,1,8,0:0:0:0:
435,237,57528,1,8,0:0:0:0:
61,171,57718,1,0,0:0:0:0:
184,174,57782,1,0,0:0:0:0:
229,225,57973,1,0,0:0:0:0:
289,209,58290,1,8,0:0:0:0:
422,223,58545,1,0,0:0:0:0:
422,220,58799,1,8,0:0:0:0:
341,215,59053,1,0,0:0:0:0:
298,224,59562,1,8,0:0:0:0:
184,174,59816,1,0,0:0:0:0:
433,197,60070,5,8,0:0:0:0:
422,223,60578,1,0,0:0:0:0:
378,237,60832,1,8,0:0:0:0:
77,203,61087,1,0,0:0:0:0:
193,221,61595,1,8,0:0:0:0:
262,233,61849,1,0,0:0:0:0:
298,226,62612,1,0,0:0:0:0:
366,194,62866,1,8,0:0:0:0:
255,216,63629,1,8,0:0:0:0:
420,215,63883,1,0,0:0:0:0:
361,212,64646,1,8,0:0:0:0:
341,255,64900,1,0,0:0:0:0:
194,195,66426,1,8,0:0:0:0:
268,223,66680,1,0,0:0:0:0:
268,223,66934,1,0,0:0:0:0:
400,145,67188,1,8,0:0:0:0:
268,223,67697,1,0,0:0:0:0:
330,230,68205,1,8,0:0:0:0:
268,223,68714,1,0,0:0:0:0:
347,216,69222,1,8,0:0:0:0:
337,278,69731,1,8,0:0:0:0:
402,253,69985,1,0,0:0:0:0:
447,209,70748,1,0,0:0:0:0:
266,241,71002,1,0,0:0:0:0:
419,233,71765,1,8,0:0:0:0:
321,216,72019,1,8,0:0:0:0:
362,218,72782,1,8,0:0:0:0:
248,209,73036,1,0,0:0:0:0:
193,142,73290,1,0,0:0:0:0:
279,149,74053,1,8,0:0:0:0:
277,262,74307,1,0,0:0:0:0:
362,224,74561,1,8,0:0:0:0:
345,238,74815,1,0,0:0:0:0:
348,245,75070,1,0,0:0:0:0:
480,220,75324,1,8,0:0:0:0:
431,226,75832,1,0,0:0:0:0:
255,206,76341,1,0,0:0:0:0:
358,234,76849,1,8,0:0:0:0:
442,200,77358,1,8,0:0:0:0:
383,201,77866,1,8,0:0:0:0:
351,234,78057,1,8,0:0:0:0:
381,219,78121,1,8,0:0:0:0:
449,219,78311,1,0,0:0:0:0:
316,204,79392,1,0,0:0:0:0:
383,201,79900,1,0,0:0:0:0:
351,234,80091,1,8,0:0:0:0:
381,219,80154,1,8,0:0:0:0:
449,219,80345,1,0,0:0:0:0:
427,215,81426,1,8,0:0:0:0:
287,202,81934,1,0,0:0:0:0:
260,221,82125,1,0,0:0:0:0:
397,197,82188,1,0,0:0:0:0:
397,197,82379,1,8,0:0:0:0:
231,161,83205,1,0,0:0:0:0:
177,170,83714,1,8,0:0:0:0:
375,203,83968,1,8,0:0:0:0:
445,220,84222,1,0,0:0:0:0:
402,216,85493,1,8,0:0:0:0:
375,239,85875,1,0,0:0:0:0:
325,237,86256,1,8,0:0:0:0:
325,237,86510,1,0,0:0:0:0:
357,252,86892,1,8,0:0:0:0:
325,237,87273,1,0,0:0:0:0:
282,202,87527,1,8,0:0:0:0:
282,202,87909,1,0,0:0:0:0:
282,202,88290,1,8,0:0:0:0:
282,202,88544,1,0,0:0:0:0:
282,202,88926,1,0,0:0:0:0:
250,223,89307,1,8,0:0:0:0:
333,224,89561,1,0,0:0:0:0:
431,215,89943,1,8,0:0:0:0:
359,218,90324,1,0,0:0:0:0:
445,226,90578,1,8,0:0:0:0:
394,241,90960,1,8,0:0:0:0:
336,205,91341,1,0,0:0:0:0:
339,252,91595,1,8,0:0:0:0:
413,219,91976,1,0,0:0:0:0:
407,220,92358,1,8,0:0:0:0:
484,225,92612,1,0,0:0:0:0:
410,259,93121,1,8,0:0:0:0:
435,237,93629,1,4,0:0:0:0:
207,160,93883,1,0,0:0:0:0:
435,237,94137,1,8,0:0:0:0:
213,184,94646,1,8,0:0:0:0:
226,130,94900,1,0,0:0:0:0:
422,223,95154,1,0,0:0:0:0:
422,220,95409,1,0,0:0:0:0:
341,215,95663,1,8,0:0:0:0:
214,195,95917,1,8,0:0:0:0:
298,224,96171,1,0,0:0:0:0:
213,184,96680,1,8,0:0:0:0:
231,167,96934,1,8,0:0:0:0:
422,223,97188,1,0,0:0:0:0:
378,237,97443,1,0,0:0:0:0:
422,220,97697,1,12,0:0:0:0:
98,132,97951,1,0,0:0:0:0:
435,237,98205,1,8,0:0:0:0:
213,184,98714,1,8,0:0:0:0:
226,130,98968,1,0,0:0:0:0:
422,223,99222,1,0,0:0:0:0:
422,220,99476,1,8,0:0:0:0:
341,215,99731,1,8,0:0:0:0:
214,195,99985,1,0,0:0:0:0:
298,224,100239,1,0,0:0:0:0:
315,225,100493,1,8,0:0:0:0:
214,195,101002,1,0,0:0:0:0:
422,223,101256,1,8,0:0:0:0:
378,237,101510,1,8,0:0:0:0:
435,237,101765,1,4,0:0:0:0:
244,201,102019,1,0,0:0:0:0:
435,237,102273,1,8,0:0:0:0:
213,184,102782,1,8,0:0:0:0:
226,130,103036,1,0,0:0:0:0:
422,223,103290,1,0,0:0:0:0:
422,220,103544,1,8,0:0:0:0:
341,215,103799,1,8,0:0:0:0:
214,195,104053,1,0,0:0:0:0:
298,224,104307,1,8,0:0:0:0:
315,225,104561,1,0,0:0:0:0:
213,184,104815,1,8,0:0:0:0:
231,167,105070,1,8,0:0:0:0:
422,223,105324,1,0,0:0:0:0:
422,220,105832,1,0,0:0:0:0:
201,196,106087,1,0,0:0:0:0:
298,224,106341,1,8,0:0:0:0:
172,125,106849,1,8,0:0:0:0:
245,194,107104,1,0,0:0:0:0:
422,223,107358,1,0,0:0:0:0:
422,220,107612,1,8,0:0:0:0:
330,180,107866,1,8,0:0:0:0:
214,202,108121,1,0,0:0:0:0:
298,224,108375,1,8,0:0:0:0:
184,174,108629,1,0,0:0:0:0:
433,197,108883,1,8,0:0:0:0:
16,163,109137,1,0,0:0:0:0:
422,223,109392,5,8,0:0:0:0:
77,203,109900,1,4,0:0:0:0:
168,167,110154,1,8,0:0:0:0:
368,210,110409,1,0,0:0:0:0:
179,225,110536,1,8,0:0:0:0:
347,230,110790,1,8,0:0:0:0:
440,222,111044,1,0,0:0:0:0:
262,204,111299,1,0,0:0:0:0:
382,189,111426,1,8,0:0:0:0:
326,193,111680,1,0,0:0:0:0:
412,218,112188,1,8,0:0:0:0:
159,175,112443,1,0,0:0:0:0:
389,234,112570,1,8,0:0:0:0:
191,116,112824,1,0,0:0:0:0:
349,214,113078,1,0,0:0:0:0:
306,185,113332,1,0,0:0:0:0:
347,214,113460,1,8,0:0:0:0:
447,225,113714,1,0,0:0:0:0:
168,167,114222,1,8,0:0:0:0:
368,210,114476,1,0,0:0:0:0:
179,225,114604,1,8,0:0:0:0:
347,230,114858,1,8,0:0:0:0:
440,222,115112,1,0,0:0:0:0:
262,204,115366,1,0,0:0:0:0:
382,189,115493,1,8,0:0:0:0:
326,193,115748,1,0,0:0:0:0:
371,251,116002,1,8,0:0:0:0:
288,200,116256,1,0,0:0:0:0:
165,167,116383,1,0,0:0:0:0:
159,175,116510,1,8,0:0:0:0:
389,234,116765,1,0,0:0:0:0:
191,116,117019,1,8,0:0:0:0:
333,211,117273,1,8,0:0:0:0:
271,189,117527,1,0,0:0:0:0:
260,216,117782,1,8,0:0:0:0:
268,167,118290,1,8,0:0:0:0:
368,210,118544,1,0,0:0:0:0:
179,225,118671,1,8,0:0:0:0:
347,230,118926,1,8,0:0:0:0:
440,222,119180,1,0,0:0:0:0:
262,204,119434,1,0,0:0:0:0:
382,189,119561,1,8,0:0:0:0:
326,193,119815,1,0,0:0:0:0:
371,251,120070,1,0,0:0:0:0:
412,218,120324,1,8,0:0:0:0:
315,152,120451,1,0,0:0:0:0:
372,257,120832,1,8,0:0:0:0:
191,116,121087,1,0,0:0:0:0:
306,185,121404,1,8,0:0:0:0:
286,180,121722,1,0,0:0:0:0:
505,155,121849,1,0,0:0:0:0:
367,241,121976,5,0,0:0:0:0:
259,235,122104,1,0,0:0:0:0:
325,219,122739,1,0,0:0:0:0:
314,180,122866,1,8,0:0:0:0:
445,200,123121,1,0,0:0:0:0:
485,228,124137,1,8,0:0:0:0:
322,226,124307,1,0,0:0:0:0:
266,205,124476,1,0,0:0:0:0:
322,226,124646,1,8,0:0:0:0:
205,201,124985,1,0,0:0:0:0:
329,226,125154,1,8,0:0:0:0:
329,226,125493,1,8,0:0:0:0:
300,167,125663,1,0,0:0:0:0:
341,231,126171,1,0,0:0:0:0:
409,221,126426,1,0,0:0:0:0:
472,221,126680,1,8,0:0:0:0:
396,211,126934,1,0,0:0:0:0:
455,218,127061,1,8,0:0:0:0:
431,232,127315,1,8,0:0:0:0:
431,232,127443,1,8,0:0:0:0:
362,244,127697,1,0,0:0:0:0:
362,244,127951,1,0,0:0:0:0:
431,232,128205,1,8,0:0:0:0:
431,232,128714,1,8,0:0:0:0:
317,256,128968,1,0,0:0:0:0:
431,232,129222,1,8,0:0:0:0:
317,256,129731,1,0,0:0:0:0:
317,256,129985,1,0,0:0:0:0:
431,232,130239,1,8,0:0:0:0:
288,242,131510,1,0,0:0:0:0:
288,242,131765,1,8,0:0:0:0:
288,242,132019,1,0,0:0:0:0:
288,242,132273,1,0,0:0:0:0:
288,242,132782,1,8,0:0:0:0:
288,242,133290,1,8,0:0:0:0:
288,242,133799,1,0,0:0:0:0:
271,229,134561,1,0,0:0:0:0:
270,219,134815,1,8,0:0:0:0:
270,219,135070,1,0,0:0:0:0:
270,219,135197,1,0,0:0:0:0:
270,219,135451,1,0,0:0:0:0:
270,219,135578,1,8,0:0:0:0:
270,219,135832,1,0,0:0:0:0:
270,219,136087,1,8,0:0:0:0:
292,217,136341,1,0,0:0:0:0:
318,220,136595,1,0,0:0:0:0:
318,220,136849,1,8,0:0:0:0:
318,220,137358,1,8,0:0:0:0:
318,220,137866,1,0,0:0:0:0:
318,220,138121,1,8,0:0:0:0:
329,236,138375,5,0,0:0:0:0:
339,243,138883,1,0,0:0:0:0:
277,262,139392,1,0,0:0:0:0:
213,162,139646,1,0,0:0:0:0:
345,238,139900,1,0,0:0:0:0:
348,245,140154,1,8,0:0:0:0:
480,220,140409,1,0,0:0:0:0:
431,226,140917,1,8,0:0:0:0:
255,206,141426,1,0,0:0:0:0:
236,208,141934,1,8,0:0:0:0:
442,200,142443,1,8,0:0:0:0:
383,201,142951,1,8,0:0:0:0:
351,234,143142,1,8,0:0:0:0:
381,219,143205,1,8,0:0:0:0:
449,219,143396,1,0,0:0:0:0:
316,204,144476,1,0,0:0:0:0:
383,201,144985,1,0,0:0:0:0:
351,234,145176,1,8,0:0:0:0:
381,219,145239,1,8,0:0:0:0:
449,219,145430,1,0,0:0:0:0:
427,215,146510,1,8,0:0:0:0:
287,202,147019,1,0,0:0:0:0:
321,237,147210,1,0,0:0:0:0:
380,214,147273,1,0,0:0:0:0:
397,197,147464,1,8,0:0:0:0:
326,237,148290,1,8,0:0:0:0:
283,221,148799,1,0,0:0:0:0:
375,203,149053,1,8,0:0:0:0:
445,220,149307,1,8,0:0:0:0:
402,216,150578,1,8,0:0:0:0:
375,239,150960,1,0,0:0:0:0:
325,237,151341,1,8,0:0:0:0:
325,237,151595,1,0,0:0:0:0:
357,252,151976,1,8,0:0:0:0:
325,237,152358,1,0,0:0:0:0:
282,202,152612,1,8,0:0:0:0:
282,202,152993,1,0,0:0:0:0:
282,202,153375,1,8,0:0:0:0:
282,202,153629,1,0,0:0:0:0:
282,202,154010,1,0,0:0:0:0:
250,223,154392,1,8,0:0:0:0:
333,224,154646,1,0,0:0:0:0:
431,215,155027,1,8,0:0:0:0:
359,218,155409,1,0,0:0:0:0:
445,226,155663,1,8,0:0:0:0:
394,241,156044,1,8,0:0:0:0:
336,205,156426,1,0,0:0:0:0:
339,252,156680,1,8,0:0:0:0:
332,205,156807,1,0,0:0:0:0:
413,219,157061,1,0,0:0:0:0:
389,203,157188,1,8,0:0:0:0:
407,220,157443,1,8,0:0:0:0:
290,200,157570,1,8,0:0:0:0:
484,225,157697,1,0,0:0:0:0:
493,210,157951,1,8,0:0:0:0:
410,259,158205,1,0,0:0:0:0:
278,157,158460,1,8,0:0:0:0:
435,237,158714,1,4,0:0:0:0:
207,160,158968,1,0,0:0:0:0:
435,237,159222,1,8,0:0:0:0:
213,184,159731,1,8,0:0:0:0:
226,130,159985,1,0,0:0:0:0:
422,223,160239,1,0,0:0:0:0:
422,220,160494,1,0,0:0:0:0:
341,215,160748,1,8,0:0:0:0:
214,195,161002,1,8,0:0:0:0:
298,224,161256,1,0,0:0:0:0:
213,184,161765,1,8,0:0:0:0:
231,167,162019,1,8,0:0:0:0:
422,223,162273,1,0,0:0:0:0:
378,237,162528,1,0,0:0:0:0:
422,220,162782,1,12,0:0:0:0:
98,132,163036,1,0,0:0:0:0:
435,237,163290,1,8,0:0:0:0:
213,184,163799,1,8,0:0:0:0:
226,130,164053,1,0,0:0:0:0:
422,223,164307,1,0,0:0:0:0:
422,220,164561,1,8,0:0:0:0:
341,215,164816,1,8,0:0:0:0:
214,195,165070,1,0,0:0:0:0:
298,224,165324,1,0,0:0:0:0:
315,225,165578,1,8,0:0:0:0:
214,195,166087,1,0,0:0:0:0:
422,223,166341,1,8,0:0:0:0:
378,237,166595,1,8,0:0:0:0:
435,237,166850,1,4,0:0:0:0:
244,201,167104,1,0,0:0:0:0:
435,237,167358,1,8,0:0:0:0:
213,184,167867,1,8,0:0:0:0:
226,130,168121,1,0,0:0:0:0:
422,223,168375,1,0,0:0:0:0:
422,220,168629,1,8,0:0:0:0:
341,215,168884,1,8,0:0:0:0:
214,195,169138,1,0,0:0:0:0:
298,224,169392,1,8,0:0:0:0:
315,225,169646,1,0,0:0:0:0:
213,184,169900,1,8,0:0:0:0:
231,167,170155,1,8,0:0:0:0:
422,223,170409,1,0,0:0:0:0:
422,220,170917,1,0,0:0:0:0:
201,196,171172,1,0,0:0:0:0:
298,224,171426,1,8,0:0:0:0:
172,125,171934,1,8,0:0:0:0:
245,194,172189,1,0,0:0:0:0:
422,223,172443,1,0,0:0:0:0:
422,220,172697,1,8,0:0:0:0:
330,180,172951,1,8,0:0:0:0:
214,202,173206,1,0,0:0:0:0:
298,224,173460,1,8,0:0:0:0:
184,174,173714,1,0,0:0:0:0:
433,197,173968,1,8,0:0:0:0:
16,163,174222,1,0,0:0:0:0:
422,223,174477,5,8,0:0:0:0:
237,192,174985,1,4,0:0:0:0:
435,237,175493,5,8,0:0:0:0:
61,171,175684,1,8,0:0:0:0:
184,174,175748,1,8,0:0:0:0:
234,172,175938,1,0,0:0:0:0:
497,200,176510,1,8,0:0:0:0:
140,189,176637,1,0,0:0:0:0:
307,221,176892,1,0,0:0:0:0:
346,272,177273,1,8,0:0:0:0:
298,224,177527,1,8,0:0:0:0:
61,171,177718,1,0,0:0:0:0:
213,184,177972,1,0,0:0:0:0:
308,220,178290,1,8,0:0:0:0:
253,222,178417,1,0,0:0:0:0:
353,218,178544,1,8,0:0:0:0:
422,220,178799,1,8,0:0:0:0:
422,220,179053,1,4,0:0:0:0:
298,224,179307,1,8,0:0:0:0:
61,171,179561,1,0,0:0:0:0:
160,181,179752,1,0,0:0:0:0:
213,184,180006,1,0,0:0:0:0:
250,140,180260,1,0,0:0:0:0:
349,156,180578,1,8,0:0:0:0:
377,216,180832,1,0,0:0:0:0:
207,134,181341,1,0,0:0:0:0:
298,224,181595,1,8,0:0:0:0:
455,160,181786,1,0,0:0:0:0:
327,216,182040,1,0,0:0:0:0:
198,194,182294,1,0,0:0:0:0:
318,199,182612,1,8,0:0:0:0:
378,237,182866,1,0,0:0:0:0:
435,237,183121,1,0,0:0:0:0:
298,237,183248,1,8,0:0:0:0:
290,235,183502,1,0,0:0:0:0:
435,237,183629,1,8,0:0:0:0:
184,174,183883,1,0,0:0:0:0:
213,184,184010,1,8,0:0:0:0:
240,238,184265,1,0,0:0:0:0:
289,209,184392,1,8,0:0:0:0:
422,223,184646,1,0,0:0:0:0:
240,238,184773,1,8,0:0:0:0:
341,215,185027,1,0,0:0:0:0:
435,237,185282,1,8,0:0:0:0:
298,224,185663,1,0,0:0:0:0:
184,174,185917,1,0,0:0:0:0:
433,197,186171,1,8,0:0:0:0:
289,209,186426,1,8,0:0:0:0:
422,220,187188,1,12,0:0:0:0:
352,189,187443,1,8,0:0:0:0:
273,205,187697,1,8,0:0:0:0:
101,158,187951,1,0,0:0:0:0:
301,208,188205,1,0,0:0:0:0:
289,209,188460,1,0,0:0:0:0:
440,187,188714,1,8,0:0:0:0:
422,220,188968,1,0,0:0:0:0:
435,237,189222,1,0,0:0:0:0:
346,272,189476,1,8,0:0:0:0:
298,224,189731,1,8,0:0:0:0:
184,174,189985,1,0,0:0:0:0:
433,197,190239,1,0,0:0:0:0:
289,209,190493,1,8,0:0:0:0:
318,199,190748,1,0,0:0:0:0:
378,237,191002,1,8,0:0:0:0:
77,203,191256,1,4,0:0:0:0:
215,188,193290,5,0,0:0:0:0:
414,235,195324,5,8,0:0:0:0:
458,172,197358,5,0,0:0:0:0:
402,216,199392,5,8,0:0:0:0:
375,239,199773,1,0,0:0:0:0:
325,237,200154,1,8,0:0:0:0:
325,237,200409,1,0,0:0:0:0:
357,252,200790,1,8,0:0:0:0:
325,237,201171,1,0,0:0:0:0:
282,202,201426,1,8,0:0:0:0:
282,202,201807,1,0,0:0:0:0:
282,202,202188,1,8,0:0:0:0:
282,202,202443,1,0,0:0:0:0:
282,202,202824,1,0,0:0:0:0:
250,223,203205,1,8,0:0:0:0:
333,224,203460,1,0,0:0:0:0:
431,215,203841,1,8,0:0:0:0:
359,218,204222,1,0,0:0:0:0:
445,226,204476,1,8,0:0:0:0:
394,241,204858,1,8,0:0:0:0:
336,205,205239,1,0,0:0:0:0:
339,252,205493,1,8,0:0:0:0:
413,219,205875,1,0,0:0:0:0:
407,220,206256,1,8,0:0:0:0:
484,225,206510,1,0,0:0:0:0:
410,259,207019,1,0,0:0:0:0:
278,157,207273,1,8,0:0:0:0:
435,237,207527,1,4,0:0:0:0:
207,160,207782,1,0,0:0:0:0:
435,237,208036,1,8,0:0:0:0:
213,184,208545,1,8,0:0:0:0:
226,130,208799,1,0,0:0:0:0:
422,223,209053,1,0,0:0:0:0:
422,220,209308,1,0,0:0:0:0:
341,215,209562,1,8,0:0:0:0:
214,195,209816,1,8,0:0:0:0:
298,224,210070,1,0,0:0:0:0:
213,184,210579,1,8,0:0:0:0:
231,167,210833,1,8,0:0:0:0:
422,223,211087,1,0,0:0:0:0:
378,237,211342,1,0,0:0:0:0:
422,220,211596,1,12,0:0:0:0:
98,132,211850,1,0,0:0:0:0:
435,237,212104,1,8,0:0:0:0:
213,184,212613,1,8,0:0:0:0:
226,130,212867,1,0,0:0:0:0:
422,223,213121,1,0,0:0:0:0:
422,220,213375,1,8,0:0:0:0:
341,215,213630,1,8,0:0:0:0:
214,195,213884,1,0,0:0:0:0:
298,224,214138,1,0,0:0:0:0:
315,225,214392,1,8,0:0:0:0:
214,195,214901,1,0,0:0:0:0:
422,223,215155,1,8,0:0:0:0:
378,237,215409,1,8,0:0:0:0:
435,237,215664,1,4,0:0:0:0:
244,201,215918,1,0,0:0:0:0:
435,237,216172,1,8,0:0:0:0:
213,184,216681,1,8,0:0:0:0:
226,130,216935,1,0,0:0:0:0:
422,223,217189,1,0,0:0:0:0:
422,220,217443,1,8,0:0:0:0:
341,215,217698,1,8,0:0:0:0:
214,195,217952,1,0,0:0:0:0:
298,224,218206,1,8,0:0:0:0:
315,225,218460,1,0,0:0:0:0:
213,184,218714,1,8,0:0:0:0:
231,167,218969,1,8,0:0:0:0:
422,223,219223,1,0,0:0:0:0:
422,220,219731,1,0,0:0:0:0:
201,196,219986,1,0,0:0:0:0:
298,224,220240,1,8,0:0:0:0:
172,125,220748,1,8,0:0:0:0:
245,194,221003,1,0,0:0:0:0:
422,223,221257,1,0,0:0:0:0:
422,220,221511,1,8,0:0:0:0:
330,180,221765,1,8,0:0:0:0:
214,202,222020,1,0,0:0:0:0:
298,224,222274,1,8,0:0:0:0:
184,174,222528,1,0,0:0:0:0:
433,197,222782,1,8,0:0:0:0:
16,163,223036,1,0,0:0:0:0:
422,223,223291,5,8,0:0:0:0:
199,186,223544,1,8,0:0:0:0:
237,192,223799,1,4,0:0:0:0:
207,160,224053,1,0,0:0:0:0:
435,237,224307,1,8,0:0:0:0:
213,184,224816,1,8,0:0:0:0:
226,130,225070,1,0,0:0:0:0:
422,223,225324,1,0,0:0:0:0:
422,220,225579,1,0,0:0:0:0:
341,215,225833,1,8,0:0:0:0:
214,195,226087,1,8,0:0:0:0:
298,224,226341,1,0,0:0:0:0:
213,184,226850,1,8,0:0:0:0:
231,167,227104,1,8,0:0:0:0:
422,223,227358,1,0,0:0:0:0:
378,237,227613,1,0,0:0:0:0:
422,220,227867,1,12,0:0:0:0:
98,132,228121,1,0,0:0:0:0:
435,237,228375,1,8,0:0:0:0:
213,184,228884,1,8,0:0:0:0:
226,130,229138,1,0,0:0:0:0:
422,223,229392,1,0,0:0:0:0:
422,220,229646,1,8,0:0:0:0:
341,215,229901,1,8,0:0:0:0:
214,195,230155,1,0,0:0:0:0:
298,224,230409,1,0,0:0:0:0:
315,225,230663,1,8,0:0:0:0:
214,195,231172,1,0,0:0:0:0:
422,223,231426,1,8,0:0:0:0:
378,237,231680,1,8,0:0:0:0:
435,237,231935,1,4,0:0:0:0:
244,201,232189,1,0,0:0:0:0:
435,237,232443,1,8,0:0:0:0:
213,184,232952,1,8,0:0:0:0:
226,130,233206,1,0,0:0:0:0:
422,223,233460,1,0,0:0:0:0:
422,220,233714,1,8,0:0:0:0:
341,215,233969,1,8,0:0:0:0:
214,195,234223,1,0,0:0:0:0:
298,224,234477,1,8,0:0:0:0:
315,225,234731,1,0,0:0:0:0:
213,184,234985,1,8,0:0:0:0:
231,167,235240,1,8,0:0:0:0:
422,223,235494,1,0,0:0:0:0:
352,199,235748,1,8,0:0:0:0:
422,220,236002,1,4,0:0:0:0:
201,196,236257,1,0,0:0:0:0:
298,224,236511,1,8,0:0:0:0:
172,125,237019,1,8,0:0:0:0:
245,194,237274,1,0,0:0:0:0:
422,223,237528,1,0,0:0:0:0:
422,220,237782,1,8,0:0:0:0:
330,180,238036,1,8,0:0:0:0:
214,202,238291,1,0,0:0:0:0:
184,174,238799,1,0,0:0:0:0:
433,197,239053,1,8,0:0:0:0:
16,163,239307,1,8,0:0:0:0:
422,223,239561,5,0,0:0:0:0:
427,226,239815,1,0,0:0:0:0:
237,192,240070,1,12,0:0:0:0:
435,237,240579,1,8,0:0:0:0:
61,171,240770,1,8,0:0:0:0:
184,174,240833,1,8,0:0:0:0:
229,225,241024,1,0,0:0:0:0:
289,209,241342,1,8,0:0:0:0:
432,181,241596,1,8,0:0:0:0:
422,220,241850,1,0,0:0:0:0:
226,157,242104,1,0,0:0:0:0:
298,224,242613,1,0,0:0:0:0:
61,171,242804,1,0,0:0:0:0:
184,174,242867,1,0,0:0:0:0:
320,178,243058,1,8,0:0:0:0:
289,209,243375,1,8,0:0:0:0:
422,223,243629,1,8,0:0:0:0:
378,237,243884,1,0,0:0:0:0:
422,220,244138,1,12,0:0:0:0:
435,237,244647,1,8,0:0:0:0:
61,171,244837,1,0,0:0:0:0:
184,174,244901,1,0,0:0:0:0:
229,225,245092,1,0,0:0:0:0:
289,209,245409,1,8,0:0:0:0:
422,223,245663,1,0,0:0:0:0:
422,220,245918,1,8,0:0:0:0:
341,215,246172,1,0,0:0:0:0:
298,224,246681,1,8,0:0:0:0:
61,171,246871,1,8,0:0:0:0:
184,174,246935,1,8,0:0:0:0:
433,197,247126,1,0,0:0:0:0:
293,163,247634,1,0,0:0:0:0:
422,223,247698,1,0,0:0:0:0:
422,220,247951,1,8,0:0:0:0:
270,176,248206,1,12,0:0:0:0:
435,237,248715,1,8,0:0:0:0:
61,171,248904,1,8,0:0:0:0:
184,174,248969,1,8,0:0:0:0:
229,225,249160,1,0,0:0:0:0:
289,209,249476,1,8,0:0:0:0:
432,181,249732,1,8,0:0:0:0:
422,220,249986,1,0,0:0:0:0:
341,215,250240,1,0,0:0:0:0:
298,224,250749,1,0,0:0:0:0:
61,171,250938,1,0,0:0:0:0:
184,174,251003,1,0,0:0:0:0:
320,178,251194,1,8,0:0:0:0:
289,209,251510,1,8,0:0:0:0:
422,223,251765,1,0,0:0:0:0:
378,237,252020,1,0,0:0:0:0:
422,220,252274,1,8,0:0:0:0:
435,237,252783,1,8,0:0:0:0:
61,171,252973,1,0,0:0:0:0:
184,174,253037,1,0,0:0:0:0:
229,225,253226,1,0,0:0:0:0:
289,209,253544,1,8,0:0:0:0:
422,223,253800,1,0,0:0:0:0:
422,220,254054,1,8,0:0:0:0:
341,215,254308,1,0,0:0:0:0:
306,203,254815,1,0,0:0:0:0:
350,198,255070,1,8,0:0:0:0:
433,197,255324,5,0,0:0:0:0:
396,133,255451,1,8,0:0:0:0:
422,223,255832,1,0,0:0:0:0:
378,237,256087,1,8,0:0:0:0:
77,203,256341,1,0,0:0:0:0:
240,218,256849,5,8,0:0:0:0:
216,116,257104,1,8,0:0:0:0:
288,192,257358,1,0,0:0:0:0:
193,270,257866,1,0,0:0:0:0:
421,240,258121,1,8,0:0:0:0:
416,224,258375,1,8,0:0:0:0:
421,240,258883,1,8,0:0:0:0:
378,213,259137,1,0,0:0:0:0:
256,224,259392,1,0,0:0:0:0:
378,213,259900,1,0,0:0:0:0:
490,229,260154,1,8,0:0:0:0:
352,256,260409,1,8,0:0:0:0:
247,202,260917,1,8,0:0:0:0:
353,211,261171,1,8,0:0:0:0:
288,256,261426,1,0,0:0:0:0:
134,201,261934,1,0,0:0:0:0:
267,246,262188,1,8,0:0:0:0:
320,224,262443,1,8,0:0:0:0:
359,259,262951,1,8,0:0:0:0:
181,210,263205,1,0,0:0:0:0:
246,189,264476,5,0,0:0:0:0:
240,218,264985,5,8,0:0:0:0:
216,116,265239,1,0,0:0:0:0:
288,192,265493,1,0,0:0:0:0:
193,270,266002,1,0,0:0:0:0:
421,240,266256,1,8,0:0:0:0:
416,224,266510,1,8,0:0:0:0:
421,240,267019,1,8,0:0:0:0:
378,213,267273,1,0,0:0:0:0:
256,224,267527,1,0,0:0:0:0:
378,213,268036,1,0,0:0:0:0:
490,229,268290,1,8,0:0:0:0:
198,183,268544,1,0,0:0:0:0:
247,202,269053,1,8,0:0:0:0:
353,211,269307,1,8,0:0:0:0:
288,256,269561,1,0,0:0:0:0:
134,201,270070,1,0,0:0:0:0:
267,246,270324,1,8,0:0:0:0:
359,259,271087,1,8,0:0:0:0:
309,212,271341,1,0,0:0:0:0:
263,201,272040,1,8,0:0:0:0:
451,202,272104,1,8,0:0:0:0:
