osu file format v14

[General]
AudioFilename: audio.mp3
AudioLeadIn: 0
PreviewTime: 41765
Countdown: 0
SampleSet: Normal
StackLeniency: 0.7
Mode: 1
LetterboxInBreaks: 0
WidescreenStoryboard: 1

[Editor]
Bookmarks: 12269,28540,44811,61083,77354,85489,93625,109896,126167,142439,158710,174981,191252,207523,240066,256337,272100
DistanceSpacing: 1.5
BeatDivisor: 4
GridSize: 32
TimelineZoom: 2.299999

[Metadata]
Title:flos
TitleUnicode:flos
Artist:Nekomata Okayu
ArtistUnicode:猫又おかゆ
Creator:Gamelan4
Version:Hivie's Futsuu
Source:
Tags:closed hivie vtuber virtual youtuber japanese cover ホロライブ R Sound Design jpop j-pop quartia hololive pop バーチャルyoutuber
BeatmapID:2639826
BeatmapSetID:1262793

[Difficulty]
HPDrainRate:8
CircleSize:5
OverallDifficulty:3
ApproachRate:10
SliderMultiplier:1.4
SliderTickRate:3

[Events]
//Background and Video events
0,0,"okayuwu.png",0,0
Video,0,"mogu moguuu okayuuu.mp4"
//Break Periods
2,10439,11823
2,191456,192840
2,193490,194874
2,195524,196908
2,197558,198942
2,263205,264026
//Storyboard Layer 0 (Background)
//Storyboard Layer 1 (Fail)
//Storyboard Layer 2 (Pass)
//Storyboard Layer 3 (Foreground)
//Storyboard Layer 4 (Overlay)
//Storyboard Sound Samples

[TimingPoints]
4138,508.474576271186,4,1,0,60,1,0
44815,-100,4,1,0,70,0,1
61087,-100,4,1,0,60,0,0
77231,-100,4,1,0,50,0,0
93502,-100,4,1,0,60,0,0
141934,-100,4,1,0,50,0,0
158587,-100,4,1,0,60,0,0
191129,-100,4,1,0,50,0,0
207400,-100,4,1,0,60,0,0
239943,-100,4,1,0,70,0,0
240070,-100,4,1,0,70,0,1
256341,-100,4,1,0,70,0,0
270451,-100,4,1,0,50,0,0

[HitObjects]
256,192,4138,5,8,0:0:0:0:
256,192,4900,1,0,0:0:0:0:
256,192,5154,1,0,0:0:0:0:
256,192,5917,1,0,0:0:0:0:
256,192,6171,1,8,0:0:0:0:
256,192,6934,1,8,0:0:0:0:
256,192,7188,1,0,0:0:0:0:
256,192,7697,1,0,0:0:0:0:
256,192,7951,1,8,0:0:0:0:
256,192,8205,1,8,0:0:0:0:
256,192,8968,1,0,0:0:0:0:
256,192,9222,1,0,0:0:0:0:
256,192,9985,1,8,0:0:0:0:
256,192,10239,1,0,0:0:0:0:
256,96,12273,5,12,0:0:0:0:
256,192,12782,1,8,0:0:0:0:
256,192,13036,1,8,0:0:0:0:
256,192,13290,1,0,0:0:0:0:
256,192,13799,1,0,0:0:0:0:
256,192,14307,1,0,0:0:0:0:
256,192,14815,1,8,0:0:0:0:
256,192,15070,1,0,0:0:0:0:
256,192,15324,1,8,0:0:0:0:
256,192,15832,1,0,0:0:0:0:
256,192,16341,1,12,0:0:0:0:
256,192,16849,1,8,0:0:0:0:
256,192,17104,1,8,0:0:0:0:
256,192,17358,1,0,0:0:0:0:
256,192,17866,1,0,0:0:0:0:
256,192,18375,1,0,0:0:0:0:
256,192,18883,1,8,0:0:0:0:
256,192,19137,1,0,0:0:0:0:
256,192,19392,1,8,0:0:0:0:
256,192,19900,1,0,0:0:0:0:
256,192,20409,1,12,0:0:0:0:
256,192,21426,1,0,0:0:0:0:
256,192,21934,1,0,0:0:0:0:
256,192,22188,1,0,0:0:0:0:
256,192,22443,1,8,0:0:0:0:
256,192,22951,1,8,0:0:0:0:
256,192,23460,1,0,0:0:0:0:
256,192,23968,1,0,0:0:0:0:
256,192,24222,1,8,0:0:0:0:
256,192,24476,1,0,0:0:0:0:
256,192,24985,1,8,0:0:0:0:
256,192,25493,1,0,0:0:0:0:
256,192,26002,1,0,0:0:0:0:
256,192,26256,1,0,0:0:0:0:
256,192,26510,1,8,0:0:0:0:
256,192,27019,1,8,0:0:0:0:
256,192,27527,1,0,0:0:0:0:
256,192,28036,1,8,0:0:0:0:
256,192,28290,1,8,0:0:0:0:
256,192,28544,1,0,0:0:0:0:
256,192,29053,1,0,0:0:0:0:
256,192,30070,1,0,0:0:0:0:
256,192,30324,1,8,0:0:0:0:
256,192,30578,1,0,0:0:0:0:
256,192,31087,1,8,0:0:0:0:
256,192,31595,1,0,0:0:0:0:
256,192,32104,1,8,0:0:0:0:
256,192,32358,1,8,0:0:0:0:
256,192,32612,1,0,0:0:0:0:
256,192,33121,1,0,0:0:0:0:
256,192,33883,1,8,0:0:0:0:
256,192,34137,1,0,0:0:0:0:
256,192,34646,1,8,0:0:0:0:
256,192,35663,1,8,0:0:0:0:
256,192,36680,1,0,0:0:0:0:
256,192,37188,1,8,0:0:0:0:
256,192,38205,1,0,0:0:0:0:
256,192,38460,1,8,0:0:0:0:
256,192,38714,1,0,0:0:0:0:
256,192,39222,1,8,0:0:0:0:
256,192,39731,1,0,0:0:0:0:
256,192,40239,1,0,0:0:0:0:
256,192,40493,1,8,0:0:0:0:
256,192,40748,1,0,0:0:0:0:
256,192,41765,1,0,0:0:0:0:
256,192,42782,1,8,0:0:0:0:
256,192,43290,1,0,0:0:0:0:
256,192,43799,1,8,0:0:0:0:
256,192,44307,1,0,0:0:0:0:
256,192,44561,1,8,0:0:0:0:
256,192,44815,1,4,0:0:0:0:
256,192,45324,1,8,0:0:0:0:
256,192,45578,1,8,0:0:0:0:
256,192,45832,1,0,0:0:0:0:
256,192,46341,1,0,0:0:0:0:
256,192,46595,1,8,0:0:0:0:
256,192,46849,1,0,0:0:0:0:
256,192,47358,1,8,0:0:0:0:
256,192,47866,1,8,0:0:0:0:
256,192,48375,1,0,0:0:0:0:
256,192,48629,1,0,0:0:0:0:
256,96,48883,1,12,0:0:0:0:
256,192,49392,1,8,0:0:0:0:
256,192,49646,1,8,0:0:0:0:
256,192,49900,1,0,0:0:0:0:
256,192,50409,1,0,0:0:0:0:
256,192,50663,1,8,0:0:0:0:
256,192,50917,1,0,0:0:0:0:
256,192,51426,1,8,0:0:0:0:
256,192,51934,1,8,0:0:0:0:
256,192,52443,1,0,0:0:0:0:
256,192,52697,1,0,0:0:0:0:
256,96,52951,1,12,0:0:0:0:
256,192,53968,1,8,0:0:0:0:
256,192,54476,1,0,0:0:0:0:
256,192,54731,1,0,0:0:0:0:
256,192,54985,1,8,0:0:0:0:
256,192,55493,1,8,0:0:0:0:
256,192,55748,1,8,0:0:0:0:
256,192,56002,1,0,0:0:0:0:
256,192,56510,1,0,0:0:0:0:
256,96,57019,1,8,0:0:0:0:
256,192,57527,1,8,0:0:0:0:
256,192,57782,1,8,0:0:0:0:
256,192,58036,1,0,0:0:0:0:
256,192,58544,1,0,0:0:0:0:
256,192,58799,1,0,0:0:0:0:
256,192,59053,1,8,0:0:0:0:
256,192,59561,1,8,0:0:0:0:
256,192,59815,1,0,0:0:0:0:
256,192,60070,1,8,0:0:0:0:
256,192,60578,1,8,0:0:0:0:
256,192,61087,1,0,0:0:0:0:
256,192,61595,1,0,0:0:0:0:
256,192,62612,1,0,0:0:0:0:
256,192,62866,1,8,0:0:0:0:
256,192,63121,1,0,0:0:0:0:
256,192,63629,1,8,0:0:0:0:
256,192,64137,1,0,0:0:0:0:
256,192,64646,1,8,0:0:0:0:
256,192,64900,1,8,0:0:0:0:
256,192,65154,1,0,0:0:0:0:
256,192,65663,1,0,0:0:0:0:
256,192,66426,1,8,0:0:0:0:
256,192,66680,1,0,0:0:0:0:
256,192,67188,1,8,0:0:0:0:
256,192,68205,1,0,0:0:0:0:
256,192,69222,1,0,0:0:0:0:
256,192,69731,1,8,0:0:0:0:
256,192,70748,1,0,0:0:0:0:
256,192,71002,1,8,0:0:0:0:
256,192,71256,1,0,0:0:0:0:
256,192,71765,1,8,0:0:0:0:
256,192,72273,1,0,0:0:0:0:
256,192,72782,1,0,0:0:0:0:
256,192,73036,1,8,0:0:0:0:
256,192,73290,1,0,0:0:0:0:
256,192,74307,1,0,0:0:0:0:
256,192,75324,1,8,0:0:0:0:
256,192,75832,1,0,0:0:0:0:
256,192,76341,1,8,0:0:0:0:
256,192,76849,1,0,0:0:0:0:
256,192,77358,1,8,0:0:0:0:
256,192,78375,1,0,0:0:0:0:
256,192,79392,1,8,0:0:0:0:
256,192,79900,1,0,0:0:0:0:
256,192,80409,1,0,0:0:0:0:
256,192,81426,1,8,0:0:0:0:
256,192,81934,1,0,0:0:0:0:
256,192,82443,1,8,0:0:0:0:
256,192,82951,1,8,0:0:0:0:
256,192,83460,1,0,0:0:0:0:
256,192,84476,1,8,0:0:0:0:
256,192,85493,1,8,0:0:0:0:
256,192,85875,1,0,0:0:0:0:
256,192,86510,1,0,0:0:0:0:
256,192,86892,1,8,0:0:0:0:
256,192,87527,1,8,0:0:0:0:
256,192,87909,1,0,0:0:0:0:
256,192,88544,1,0,0:0:0:0:
256,192,88926,1,0,0:0:0:0:
256,192,89561,1,0,0:0:0:0:
256,192,89943,1,8,0:0:0:0:
256,192,90578,1,8,0:0:0:0:
256,192,90960,1,8,0:0:0:0:
256,192,91595,1,8,0:0:0:0:
256,192,92612,1,0,0:0:0:0:
256,192,93121,1,8,0:0:0:0:
256,96,93629,1,12,0:0:0:0:
256,192,94646,1,0,0:0:0:0:
256,192,94900,1,8,0:0:0:0:
256,192,95154,1,0,0:0:0:0:
256,192,95409,1,8,0:0:0:0:
256,192,95663,1,8,0:0:0:0:
256,192,96171,1,0,0:0:0:0:
256,192,96680,1,8,0:0:0:0:
256,192,97188,1,0,0:0:0:0:
256,96,97697,1,12,0:0:0:0:
256,192,98205,1,8,0:0:0:0:
256,192,98714,1,0,0:0:0:0:
256,192,98968,1,8,0:0:0:0:
256,192,99222,1,8,0:0:0:0:
256,192,99476,1,0,0:0:0:0:
256,192,99731,1,8,0:0:0:0:
256,192,100239,1,8,0:0:0:0:
256,192,100748,1,8,0:0:0:0:
256,192,101002,1,0,0:0:0:0:
256,192,101256,1,0,0:0:0:0:
256,96,101765,1,12,0:0:0:0:
256,192,102782,1,8,0:0:0:0:
256,192,103036,1,0,0:0:0:0:
256,192,103290,1,0,0:0:0:0:
256,192,103544,1,8,0:0:0:0:
256,192,103799,1,8,0:0:0:0:
256,192,104307,1,0,0:0:0:0:
256,192,104815,1,8,0:0:0:0:
256,192,105324,1,0,0:0:0:0:
256,96,105832,1,12,0:0:0:0:
256,192,106341,1,8,0:0:0:0:
256,192,106849,1,8,0:0:0:0:
256,192,107104,1,0,0:0:0:0:
256,192,107358,1,0,0:0:0:0:
256,192,107612,1,0,0:0:0:0:
256,192,107866,1,8,0:0:0:0:
256,192,108375,1,8,0:0:0:0:
256,192,108629,1,0,0:0:0:0:
256,192,108883,1,8,0:0:0:0:
256,96,109900,1,4,0:0:0:0:
256,192,110154,1,8,0:0:0:0:
256,192,110409,1,0,0:0:0:0:
256,192,110917,1,8,0:0:0:0:
256,192,111426,1,0,0:0:0:0:
256,192,111934,1,0,0:0:0:0:
256,192,112188,1,8,0:0:0:0:
256,192,112443,1,8,0:0:0:0:
256,192,112951,1,0,0:0:0:0:
256,192,113460,1,0,0:0:0:0:
256,192,113968,1,0,0:0:0:0:
256,192,114222,1,8,0:0:0:0:
256,192,114476,1,0,0:0:0:0:
256,192,114985,1,8,0:0:0:0:
256,192,115493,1,0,0:0:0:0:
256,192,116002,1,8,0:0:0:0:
256,192,116256,1,0,0:0:0:0:
256,192,116510,1,8,0:0:0:0:
256,192,116765,1,0,0:0:0:0:
256,192,117019,1,8,0:0:0:0:
256,192,117527,1,0,0:0:0:0:
256,192,117782,1,8,0:0:0:0:
256,96,118036,1,4,0:0:0:0:
256,192,119053,1,8,0:0:0:0:
256,192,119561,1,0,0:0:0:0:
256,192,119815,1,0,0:0:0:0:
256,192,120070,1,8,0:0:0:0:
256,192,120832,1,8,0:0:0:0:
256,192,121087,1,0,0:0:0:0:
256,192,121595,1,8,0:0:0:0:
256,192,121849,1,8,0:0:0:0:
256,192,122104,1,0,0:0:0:0:
256,192,122866,1,8,0:0:0:0:
256,192,123121,1,0,0:0:0:0:
256,192,123629,1,0,0:0:0:0:
256,192,124137,1,8,0:0:0:0:
256,192,124646,1,8,0:0:0:0:
256,192,125154,1,8,0:0:0:0:
256,192,125663,1,8,0:0:0:0:
256,192,126171,1,0,0:0:0:0:
256,192,127188,1,0,0:0:0:0:
256,192,127697,1,0,0:0:0:0:
256,192,127951,1,0,0:0:0:0:
256,192,128205,1,8,0:0:0:0:
256,192,128714,1,8,0:0:0:0:
256,192,129222,1,8,0:0:0:0:
256,192,129731,1,0,0:0:0:0:
256,192,130239,1,8,0:0:0:0:
256,192,131256,1,0,0:0:0:0:
256,192,131510,1,0,0:0:0:0:
256,192,131765,1,8,0:0:0:0:
256,192,132273,1,0,0:0:0:0:
256,192,132782,1,8,0:0:0:0:
256,192,133290,1,0,0:0:0:0:
256,192,133799,1,0,0:0:0:0:
256,192,134561,1,0,0:0:0:0:
256,192,134815,1,8,0:0:0:0:
256,192,135324,1,0,0:0:0:0:
256,192,135578,1,8,0:0:0:0:
256,192,135832,1,0,0:0:0:0:
256,192,136341,1,0,0:0:0:0:
256,192,136849,1,8,0:0:0:0:
256,192,137358,1,8,0:0:0:0:
256,192,137866,1,0,0:0:0:0:
256,192,138121,1,8,0:0:0:0:
256,192,138375,1,0,0:0:0:0:
256,192,139392,1,0,0:0:0:0:
256,192,139900,1,8,0:0:0:0:
256,192,140154,1,0,0:0:0:0:
256,192,140409,1,8,0:0:0:0:
256,192,140917,1,8,0:0:0:0:
256,192,141426,1,8,0:0:0:0:
256,192,141934,1,8,0:0:0:0:
256,192,142443,1,0,0:0:0:0:
256,192,143460,1,0,0:0:0:0:
256,192,144476,1,8,0:0:0:0:
256,192,144985,1,0,0:0:0:0:
256,192,145493,1,0,0:0:0:0:
256,192,146510,1,8,0:0:0:0:
256,192,147019,1,0,0:0:0:0:
256,192,147527,1,8,0:0:0:0:
256,192,148036,1,8,0:0:0:0:
256,192,148544,1,0,0:0:0:0:
256,192,149561,1,8,0:0:0:0:
256,192,150578,1,8,0:0:0:0:
256,192,150960,1,0,0:0:0:0:
256,192,151595,1,0,0:0:0:0:
256,192,151976,1,8,0:0:0:0:
256,192,152612,1,8,0:0:0:0:
256,192,152993,1,0,0:0:0:0:
256,192,153629,1,0,0:0:0:0:
256,192,154010,1,0,0:0:0:0:
256,192,154646,1,0,0:0:0:0:
256,192,155027,1,8,0:0:0:0:
256,192,155663,1,8,0:0:0:0:
256,192,156044,1,8,0:0:0:0:
256,192,156680,1,8,0:0:0:0:
256,192,157697,1,0,0:0:0:0:
256,192,158205,1,8,0:0:0:0:
256,96,158714,1,12,0:0:0:0:
256,192,159731,1,0,0:0:0:0:
256,192,159985,1,8,0:0:0:0:
256,192,160239,1,0,0:0:0:0:
256,192,160493,1,8,0:0:0:0:
256,192,160748,1,8,0:0:0:0:
256,192,161256,1,0,0:0:0:0:
256,192,161765,1,8,0:0:0:0:
256,192,162273,1,0,0:0:0:0:
256,96,162782,1,12,0:0:0:0:
256,192,163290,1,8,0:0:0:0:
256,192,163799,1,0,0:0:0:0:
256,192,164053,1,8,0:0:0:0:
256,192,164307,1,8,0:0:0:0:
256,192,164561,1,0,0:0:0:0:
256,192,164815,1,8,0:0:0:0:
256,192,165324,1,8,0:0:0:0:
256,192,165832,1,8,0:0:0:0:
256,192,166087,1,0,0:0:0:0:
256,192,166341,1,0,0:0:0:0:
256,96,166849,1,12,0:0:0:0:
256,192,167866,1,8,0:0:0:0:
256,192,168121,1,0,0:0:0:0:
256,192,168375,1,0,0:0:0:0:
256,192,168629,1,8,0:0:0:0:
256,192,168883,1,8,0:0:0:0:
256,192,169392,1,0,0:0:0:0:
256,192,169900,1,8,0:0:0:0:
256,192,170409,1,0,0:0:0:0:
256,96,170917,1,12,0:0:0:0:
256,192,171426,1,8,0:0:0:0:
256,192,171934,1,8,0:0:0:0:
256,192,172188,1,0,0:0:0:0:
256,192,172443,1,8,0:0:0:0:
256,192,172697,1,8,0:0:0:0:
256,192,172951,1,0,0:0:0:0:
256,192,173460,1,8,0:0:0:0:
256,192,173714,1,0,0:0:0:0:
256,192,173968,1,8,0:0:0:0:
256,192,174476,1,8,0:0:0:0:
256,96,174985,1,4,0:0:0:0:
256,192,176002,1,0,0:0:0:0:
256,192,176510,1,8,0:0:0:0:
256,192,177019,1,0,0:0:0:0:
256,192,177527,1,0,0:0:0:0:
256,192,178036,1,8,0:0:0:0:
256,192,178544,1,8,0:0:0:0:
256,192,178799,1,8,0:0:0:0:
256,96,179053,1,4,0:0:0:0:
256,192,180070,1,0,0:0:0:0:
256,192,180578,1,8,0:0:0:0:
256,192,180832,1,0,0:0:0:0:
256,192,181087,1,0,0:0:0:0:
256,192,181595,1,8,0:0:0:0:
256,192,182104,1,8,0:0:0:0:
256,192,182612,1,8,0:0:0:0:
256,192,182866,1,0,0:0:0:0:
256,192,183121,1,8,0:0:0:0:
256,192,183629,1,8,0:0:0:0:
256,192,183883,1,8,0:0:0:0:
256,192,184392,1,8,0:0:0:0:
256,192,184646,1,8,0:0:0:0:
256,192,185154,1,0,0:0:0:0:
256,192,185663,1,8,0:0:0:0:
256,192,185917,1,8,0:0:0:0:
256,192,186171,1,0,0:0:0:0:
256,192,186680,1,8,0:0:0:0:
256,96,187188,1,12,0:0:0:0:
256,192,188205,1,0,0:0:0:0:
256,192,188714,1,8,0:0:0:0:
256,192,189222,1,0,0:0:0:0:
256,192,189731,1,8,0:0:0:0:
256,192,190239,1,0,0:0:0:0:
256,192,190493,1,0,0:0:0:0:
256,192,190748,1,8,0:0:0:0:
256,192,191002,1,8,0:0:0:0:
256,192,191256,1,0,0:0:0:0:
256,192,193290,5,0,0:0:0:0:
256,192,195324,5,8,0:0:0:0:
256,192,197358,5,0,0:0:0:0:
256,192,199392,5,0,0:0:0:0:
256,192,199773,1,8,0:0:0:0:
256,192,200409,1,0,0:0:0:0:
256,192,200790,1,0,0:0:0:0:
256,192,201426,1,8,0:0:0:0:
256,192,201807,1,0,0:0:0:0:
256,192,202443,1,0,0:0:0:0:
256,192,202824,1,0,0:0:0:0:
256,192,203460,1,0,0:0:0:0:
256,192,203841,1,8,0:0:0:0:
256,192,204476,1,8,0:0:0:0:
256,192,204858,1,8,0:0:0:0:
256,192,205493,1,8,0:0:0:0:
256,192,206510,1,0,0:0:0:0:
256,192,207019,1,8,0:0:0:0:
256,96,207527,1,4,0:0:0:0:
256,192,208544,1,0,0:0:0:0:
256,192,208799,1,8,0:0:0:0:
256,192,209053,1,0,0:0:0:0:
256,192,209307,1,8,0:0:0:0:
256,192,209561,1,8,0:0:0:0:
256,192,210070,1,0,0:0:0:0:
256,192,210578,1,8,0:0:0:0:
256,192,211087,1,0,0:0:0:0:
256,96,211595,1,12,0:0:0:0:
256,192,212104,1,8,0:0:0:0:
256,192,212612,1,0,0:0:0:0:
256,192,212866,1,8,0:0:0:0:
256,192,213121,1,8,0:0:0:0:
256,192,213375,1,0,0:0:0:0:
256,192,213629,1,8,0:0:0:0:
256,192,214137,1,8,0:0:0:0:
256,192,214646,1,8,0:0:0:0:
256,192,214900,1,0,0:0:0:0:
256,192,215154,1,0,0:0:0:0:
256,96,215663,1,12,0:0:0:0:
256,192,216680,1,8,0:0:0:0:
256,192,216934,1,0,0:0:0:0:
256,192,217188,1,0,0:0:0:0:
256,192,217443,1,8,0:0:0:0:
256,192,217697,1,8,0:0:0:0:
256,192,218205,1,0,0:0:0:0:
256,192,218714,1,8,0:0:0:0:
256,192,219222,1,0,0:0:0:0:
256,96,219731,1,12,0:0:0:0:
256,192,220239,1,8,0:0:0:0:
256,192,220748,1,0,0:0:0:0:
256,192,221002,1,8,0:0:0:0:
256,192,221256,1,0,0:0:0:0:
256,192,221510,1,8,0:0:0:0:
256,192,221765,1,0,0:0:0:0:
256,192,222273,1,8,0:0:0:0:
256,192,222527,1,0,0:0:0:0:
256,192,222782,1,8,0:0:0:0:
256,192,223036,1,0,0:0:0:0:
256,192,223290,1,8,0:0:0:0:
256,96,223799,1,4,0:0:0:0:
256,192,224815,1,0,0:0:0:0:
256,192,225070,1,8,0:0:0:0:
256,192,225324,1,0,0:0:0:0:
256,192,225578,1,8,0:0:0:0:
256,192,225832,1,8,0:0:0:0:
256,192,226341,1,0,0:0:0:0:
256,192,226849,1,8,0:0:0:0:
256,192,227358,1,0,0:0:0:0:
256,96,227866,1,12,0:0:0:0:
256,192,228375,1,8,0:0:0:0:
256,192,228883,1,0,0:0:0:0:
256,192,229137,1,8,0:0:0:0:
256,192,229392,1,8,0:0:0:0:
256,192,229646,1,0,0:0:0:0:
256,192,229900,1,8,0:0:0:0:
256,192,230409,1,8,0:0:0:0:
256,192,230917,1,8,0:0:0:0:
256,192,231171,1,0,0:0:0:0:
256,192,231426,1,0,0:0:0:0:
256,96,231934,1,12,0:0:0:0:
256,192,232951,1,8,0:0:0:0:
256,192,233205,1,0,0:0:0:0:
256,192,233460,1,0,0:0:0:0:
256,192,233714,1,8,0:0:0:0:
256,192,233968,1,8,0:0:0:0:
256,192,234476,1,0,0:0:0:0:
256,192,234985,1,8,0:0:0:0:
256,192,235493,1,0,0:0:0:0:
256,96,236002,1,12,0:0:0:0:
256,192,236510,1,8,0:0:0:0:
256,192,237019,1,0,0:0:0:0:
256,192,237273,1,8,0:0:0:0:
256,192,237527,1,0,0:0:0:0:
256,192,238036,1,8,0:0:0:0:
256,192,238290,1,0,0:0:0:0:
256,192,239053,1,0,0:0:0:0:
256,96,240070,1,4,0:0:0:0:
256,192,240578,1,8,0:0:0:0:
256,192,240832,1,8,0:0:0:0:
256,192,241087,1,0,0:0:0:0:
256,192,241595,1,0,0:0:0:0:
256,192,241849,1,8,0:0:0:0:
256,192,242104,1,0,0:0:0:0:
256,192,242612,1,8,0:0:0:0:
256,192,243121,1,8,0:0:0:0:
256,192,243629,1,0,0:0:0:0:
256,192,243883,1,0,0:0:0:0:
256,96,244137,1,12,0:0:0:0:
256,192,244646,1,8,0:0:0:0:
256,192,244900,1,8,0:0:0:0:
256,192,245154,1,0,0:0:0:0:
256,192,245663,1,0,0:0:0:0:
256,192,245917,1,8,0:0:0:0:
256,192,246171,1,0,0:0:0:0:
256,192,246680,1,8,0:0:0:0:
256,192,247188,1,8,0:0:0:0:
256,192,247697,1,0,0:0:0:0:
256,192,247951,1,0,0:0:0:0:
256,96,248205,1,12,0:0:0:0:
256,192,249222,1,8,0:0:0:0:
256,192,249731,1,0,0:0:0:0:
256,192,249985,1,0,0:0:0:0:
256,192,250239,1,8,0:0:0:0:
256,192,250748,1,8,0:0:0:0:
256,192,251002,1,8,0:0:0:0:
256,192,251256,1,0,0:0:0:0:
256,192,251765,1,0,0:0:0:0:
256,96,252273,1,8,0:0:0:0:
256,192,252782,1,8,0:0:0:0:
256,192,253036,1,8,0:0:0:0:
256,192,253290,1,0,0:0:0:0:
256,192,253799,1,0,0:0:0:0:
256,192,254053,1,0,0:0:0:0:
256,192,254307,1,8,0:0:0:0:
256,192,254815,1,8,0:0:0:0:
256,192,255070,1,0,0:0:0:0:
256,192,255324,1,8,0:0:0:0:
256,192,255832,1,8,0:0:0:0:
256,192,256341,1,0,0:0:0:0:
256,192,257104,1,0,0:0:0:0:
256,192,257358,1,0,0:0:0:0:
256,192,258121,1,0,0:0:0:0:
256,192,258375,1,8,0:0:0:0:
256,192,259137,1,8,0:0:0:0:
256,192,259392,1,0,0:0:0:0:
256,192,260154,1,0,0:0:0:0:
256,192,260409,1,8,0:0:0:0:
174,107,261171,1,8,0:0:0:0:
256,192,261426,1,0,0:0:0:0:
256,192,262188,1,0,0:0:0:0:
256,192,262443,1,8,0:0:0:0:
189,126,264476,5,8,0:0:0:0:
352,197,265239,5,8,0:0:0:0:
256,192,265493,1,0,0:0:0:0:
256,192,266256,1,0,0:0:0:0:
256,192,266510,1,8,0:0:0:0:
256,192,267273,1,8,0:0:0:0:
256,192,267527,1,0,0:0:0:0:
256,192,268290,1,8,0:0:0:0:
256,192,268544,1,8,0:0:0:0:
144,123,269307,1,8,0:0:0:0:
256,192,269561,1,0,0:0:0:0:
256,192,270324,1,8,0:0:0:0:
256,192,270578,1,0,0:0:0:0:
256,192,271595,1,0,0:0:0:0:
256,192,272104,1,8,0:0:0:0:
