osu file format v14

[General]
AudioFilename: audio.mp3
AudioLeadIn: 0
PreviewTime: 155829
Countdown: 0
SampleSet: Soft
StackLeniency: 0.7
Mode: 0
LetterboxInBreaks: 0
WidescreenStoryboard: 1

[Editor]
DistanceSpacing: 1.2
BeatDivisor: 8
GridSize: 16
TimelineZoom: 1.344

[Metadata]
Title:Wakusei Loop
TitleUnicode:惑星ループ
Artist:Nekomata Okayu
ArtistUnicode:猫又おかゆ
Creator:Wanpachi
Version:Deppy's Hard
Source:
Tags:ホロライブ mogu amateurre deppyforce cycopton planet ruupu ナユタン星人 nayutalien nayutan seijin hatsune miku 初音ミク vocaloid cover vtuber virtual youtuber v-tuber hololive nayutan sei kara no buttai y j-pop jpop japanese pop
BeatmapID:2741599
BeatmapSetID:1310761

[Difficulty]
HPDrainRate:5
CircleSize:5
OverallDifficulty:6
ApproachRate:8
SliderMultiplier:1.4
SliderTickRate:1

[Events]
//Background and Video events
0,0,"tuttururuttu ruttutturu.jpg",0,0
//Break Periods
2,2027,3579
2,117999,127674
2,153117,154321
2,190000,191203
//Storyboard Layer 0 (Background)
//Storyboard Layer 1 (Fail)
//Storyboard Layer 2 (Pass)
//Storyboard Layer 3 (Foreground)
//Storyboard Layer 4 (Overlay)
//Storyboard Sound Samples

[TimingPoints]
-788,352.941176470588,4,2,1,50,1,0
4329,-100,4,2,1,60,0,0
4859,-100,4,2,1,70,0,0
16153,-105.263157894737,4,2,1,60,0,0
27447,-100,4,2,1,70,0,0
38741,-105.263157894737,4,2,1,60,0,0
50035,-90.9090909090909,4,2,1,80,0,0
72623,-90.9090909090909,4,2,1,70,0,1
83917,-100,4,2,1,70,0,0
95211,-100,4,2,1,60,0,0
115947,-100,4,2,1,5,0,0
116035,-100,4,2,1,60,0,0
117800,-125,4,2,2,50,0,0
129800,-125,4,2,1,60,0,0
130506,-90.9090909090909,4,2,1,80,0,0
153094,-90.9090909090909,4,2,1,50,0,0
155917,-90.9090909090909,4,2,1,70,0,1
178506,-100,4,2,1,70,0,0
189800,-100,4,2,1,50,0,0
191741,-100,4,2,1,5,0,0
192094,-100,4,2,1,50,0,0

[Colours]
Combo1 : 192,192,192
Combo2 : 255,149,149

[HitObjects]
107,125,623,5,0,1:0:0:0:
107,125,976,1,0,1:0:0:0:
107,125,1329,1,0,1:0:0:0:
107,125,1682,1,0,1:0:0:0:
134,349,4329,5,8,0:0:0:0:
217,340,4506,1,8,0:0:0:0:
300,331,4682,1,8,0:0:0:0:
384,278,4859,6,0,B|413:221|400:182|309:192,1,140,4|8,3:2|0:0,0:0:0:0:
273,126,5388,1,2,0:3:0:0:
192,147,5564,2,0,L|179:218,1,70,0|2,3:2|0:3,0:0:0:0:
100,245,5917,2,0,L|87:176,1,70,8|2,0:0|0:3,0:0:0:0:
29,114,6270,2,0,B|28:53|81:27|115:100,2,140,0|8|0,3:2|0:0|3:2,0:0:0:0:
87,176,7153,1,2,0:3:0:0:
60,255,7329,2,0,P|81:301|124:327,1,70,8|2,0:0|0:3,0:0:0:0:
167,356,7682,6,0,L|239:353,1,70,0|2,3:2|0:3,0:0:0:0:
257,271,8035,2,0,B|293:227|312:192|306:112,1,140,8|0,0:0|3:2,0:0:0:0:
267,69,8564,1,2,0:3:0:0:
327,9,8741,2,0,L|399:5,1,70,8|2,0:0|0:3,0:0:0:0:
436,90,9094,5,0,3:2:0:0:
436,90,9270,1,2,0:3:0:0:
400,173,9447,1,8,0:0:0:0:
400,173,9623,1,2,0:3:0:0:
324,217,9800,2,0,B|252:232|236:207|254:141,1,140,0|8,3:2|0:0,0:0:0:0:
272,109,10241,2,0,L|319:104,2,35,8|8|8,0:0|0:0|0:0,0:0:0:0:
267,70,10506,6,0,P|224:43|183:36,1,70,4|2,3:2|0:3,0:0:0:0:
125,61,10859,2,0,P|123:111|137:150,1,70,8|2,0:0|0:3,0:0:0:0:
192,183,11211,2,0,B|204:247|171:279|94:251,1,140,0|8,3:2|0:0,0:0:0:0:
31,234,11741,1,2,0:3:0:0:
4,313,11917,2,0,B|70:299|103:333|61:387,2,140,0|8|0,3:2|0:0|3:2,0:0:0:0:
31,234,12800,1,2,0:3:0:0:
5,154,12976,2,0,L|18:80,1,70,8|2,0:0|0:3,0:0:0:0:
101,82,13329,6,0,L|167:39,1,70,0|2,3:2|0:3,0:0:0:0:
242,58,13682,2,0,B|299:41|337:42|382:97,1,140,8|0,0:0|3:2,0:0:0:0:
388,166,14211,1,2,0:3:0:0:
304,153,14388,2,0,P|295:196|305:239,1,70,8|2,0:0|0:3,0:0:0:0:
333,309,14741,5,0,3:2:0:0:
333,309,14917,1,4,0:3:0:0:
245,332,15094,1,4,0:3:0:0:
174,273,15270,1,8,0:3:0:0:
174,273,15359,1,8,0:3:0:0:
174,273,15447,1,4,0:3:0:0:
204,188,15623,2,0,L|186:106,2,70,8|8|4,0:0|3:3|0:3,0:0:0:0:
88,255,16153,6,0,B|60:252|45:235|31:191,1,66.4999982242585,6|0,3:2|0:0,0:0:0:0:
19,137,16506,2,0,B|71:126|117:95|130:37,1,132.999996448517,10|2,0:0|3:2,0:0:0:0:
188,119,17035,1,0,3:2:0:0:
188,119,17211,2,0,L|229:190,1,66.4999982242585,10|0,0:0|0:0,0:0:0:0:
252,250,17564,2,0,B|313:265|342:230|302:179,1,132.999996448517,2|10,3:2|0:0,0:0:0:0:
332,104,18094,1,0,0:0:0:0:
408,125,18271,1,2,3:2:0:0:
408,125,18447,1,0,3:2:0:0:
416,204,18623,2,0,L|412:276,1,66.4999982242585,10|0,0:0|0:0,0:0:0:0:
382,344,18976,6,0,B|321:359|292:324|332:273,2,132.999996448517,2|10|2,3:2|0:0|3:2,0:0:0:0:
412,270,19859,1,0,0:0:0:0:
412,270,20035,2,0,L|416:204,1,66.4999982242585,10|0,0:0|0:0,0:0:0:0:
435,126,20388,2,0,B|422:62|464:44|511:85,2,132.999996448517,2|10|2,3:2|0:0|3:2,0:0:0:0:
353,146,21270,1,0,0:0:0:0:
353,146,21447,1,10,0:0:0:0:
274,109,21623,1,8,0:0:0:0:
260,23,21800,6,0,L|190:30,1,66.4999982242585,6|0,3:2|0:0,0:0:0:0:
115,15,22153,2,0,P|88:63|89:155,1,132.999996448517,10|2,0:0|3:2,0:0:0:0:
157,185,22682,1,0,3:2:0:0:
157,185,22859,2,0,P|195:217|201:261,1,66.4999982242585,10|0,0:0|0:0,0:0:0:0:
189,310,23211,2,0,B|134:331|112:332|51:326,1,132.999996448517,2|10,3:2|0:0,0:0:0:0:
4,267,23741,1,0,0:0:0:0:
20,188,23917,2,0,B|-11:145|3:96|81:119,1,132.999996448517,2|10,3:2|0:0,0:0:0:0:
129,174,24447,1,0,0:0:0:0:
208,179,24623,6,0,B|239:222|225:271|147:248,2,132.999996448517,2|10|2,3:2|0:0|3:2,0:0:0:0:
253,112,25506,1,0,3:2:0:0:
224,38,25682,1,10,0:0:0:0:
386,56,26035,1,2,3:2:0:0:
386,56,26211,2,0,L|427:-2,2,66.4999982242585,0|10|0,3:2|0:0|0:0,0:0:0:0:
453,110,26741,2,0,B|488:161|489:194|456:243,1,132.999996448517,2|10,3:2|0:0,0:0:0:0:
405,299,27270,1,0,3:2:0:0:
405,299,27359,1,8,0:0:0:0:
405,299,27447,6,0,B|336:315|310:292|342:230,1,140,4|8,3:2|0:0,0:0:0:0:
379,154,27976,1,2,0:3:0:0:
349,74,28153,2,0,L|273:89,1,70,0|2,3:2|0:3,0:0:0:0:
233,157,28506,2,0,L|248:233,1,70,8|2,0:0|0:3,0:0:0:0:
298,292,28859,2,0,B|312:358|274:383|221:351,2,140,0|8|0,3:2|0:0|3:2,0:0:0:0:
246,225,29741,1,2,0:3:0:0:
178,275,29917,2,0,P|141:234|132:207,1,70,8|2,0:0|0:3,0:0:0:0:
53,202,30270,6,0,P|34:160|45:126,1,70,0|2,3:2|0:3,0:0:0:0:
30,54,30623,2,0,B|65:72|115:78|174:63,1,140,8|0,0:0|3:2,0:0:0:0:
234,13,31153,1,2,0:3:0:0:
269,88,31329,2,0,L|255:161,1,70,8|2,0:0|0:3,0:0:0:0:
347,187,31682,1,0,3:2:0:0:
347,187,31859,1,2,0:3:0:0:
404,266,32035,1,8,0:0:0:0:
404,266,32212,1,2,0:3:0:0:
415,358,32388,2,0,B|453:379|521:353|510:293,1,140,0|8,3:2|0:0,0:0:0:0:
497,262,32829,2,0,L|534:213,2,35,8|8|8,0:0|0:0|0:0,0:0:0:0:
475,229,33094,6,0,B|423:182|431:146|494:133,1,140,4|8,3:2|0:0,0:0:0:0:
511,50,33623,1,2,0:3:0:0:
431,21,33800,2,0,L|356:35,1,70,0|2,3:2|0:3,0:0:0:0:
368,117,34153,2,0,L|293:103,1,70,8|2,0:0|0:3,0:0:0:0:
229,151,34506,6,0,B|191:213|217:249|286:218,2,140,0|8|0,3:2|0:0|3:2,0:0:0:0:
170,89,35388,1,2,0:3:0:0:
206,12,35564,2,0,P|240:13|286:28,1,70,8|2,0:0|0:3,0:0:0:0:
299,104,35917,2,0,L|353:175,1,70,0|2,3:2|0:3,0:0:0:0:
425,169,36271,2,0,B|490:149|491:95|414:76,1,140,8|0,0:0|3:2,0:0:0:0:
351,38,36800,1,2,0:3:0:0:
299,104,36976,2,0,L|274:177,1,70,8|2,0:0|0:3,0:0:0:0:
303,260,37329,5,0,3:2:0:0:
303,260,37506,1,4,0:3:0:0:
211,270,37682,1,4,3:3:0:0:
145,206,37859,1,8,0:3:0:0:
145,206,37947,1,8,0:3:0:0:
145,206,38035,1,4,0:3:0:0:
190,127,38211,2,0,P|195:79|183:45,2,70,8|8|4,0:0|0:3|0:3,0:0:0:0:
56,179,38741,6,0,L|49:254,1,66.4999982242585,6|0,3:2|0:0,0:0:0:0:
7,312,39094,2,0,B|29:369|66:378|117:372,1,132.999996448517,10|2,0:0|3:2,0:0:0:0:
190,349,39623,1,0,3:2:0:0:
190,349,39800,2,0,P|209:314|204:271,1,66.4999982242585,10|0,0:0|0:0,0:0:0:0:
236,212,40153,2,0,B|201:169|160:169|146:238,1,132.999996448517,2|10,3:2|0:0,0:0:0:0:
146,237,40859,5,2,3:2:0:0:
70,260,41035,1,0,3:2:0:0:
11,205,41211,2,0,L|53:144,1,66.4999982242585,10|0,0:0|0:0,0:0:0:0:
128,159,41564,2,0,B|145:113|142:75|92:37,2,132.999996448517,2|10|2,3:2|0:0|3:2,0:0:0:0:
146,237,42447,1,0,0:0:0:0:
146,237,42623,2,0,P|181:221|221:227,1,66.4999982242585,10|0,0:0|0:0,0:0:0:0:
264,279,42976,2,0,B|317:265|335:228|278:186,2,132.999996448517,2|10|2,3:2|0:0|3:2,0:0:0:0:
322,344,43859,1,0,0:0:0:0:
402,307,44035,1,10,0:0:0:0:
402,307,44211,1,8,0:0:0:0:
433,225,44388,6,0,L|420:160,1,66.4999982242585,6|0,3:2|0:0,0:0:0:0:
437,84,44741,1,10,0:0:0:0:
437,84,44917,1,0,0:0:0:0:
361,57,45094,1,2,3:2:0:0:
340,133,45270,2,0,B|291:166|261:174|207:156,1,132.999996448517,0|0,3:2|0:0,0:0:0:0:
166,94,45800,2,0,B|188:75|201:71|227:67,2,66.4999982242585,2|0|10,3:2|0:0|0:0,0:0:0:0:
55,209,46506,6,0,P|37:268|44:296,1,66.4999982242585,2|0,3:2|3:2,0:0:0:0:
31,351,46858,2,0,B|78:371|115:366|112:291,3,132.999996448517,10|2|10|2,0:0|3:2|0:0|3:2,0:0:0:0:
162,229,48094,1,0,3:2:0:0:
120,161,48270,1,10,0:0:0:0:
120,161,48623,5,8,0:0:0:0:
199,151,48800,1,0,3:2:0:0:
199,151,48888,1,0,0:0:0:0:
199,151,48976,2,0,L|268:162,1,66.4999982242585,8|0,0:0|3:2,0:0:0:0:
307,228,49329,2,0,L|356:220,3,33.2499991121292,12|8|8|8,3:2|0:0|0:0|0:0,0:0:0:0:
375,236,49682,2,0,L|401:267,3,33.2499991121292,8|8|8|8,3:2|0:0|0:0|0:0,0:0:0:0:
412,301,50035,6,0,B|489:251|492:134|435:62,1,231.000007049561,4|0,3:2|0:0,0:0:0:0:
383,34,50741,2,0,P|336:37|310:57,1,77.0000023498536,0|2,3:2|0:3,0:0:0:0:
281,141,51094,1,8,0:0:0:0:
197,168,51270,1,2,0:3:0:0:
107,144,51447,2,0,B|71:92|67:54|109:0,2,154.000004699707,0|8|0,3:2|0:0|3:2,0:0:0:0:
110,147,52506,2,0,L|96:245,1,77.0000023498536,8|2,0:0|0:3,0:0:0:0:
131,314,52859,5,0,3:2:0:0:
220,291,53035,1,2,0:3:0:0:
262,209,53211,2,0,P|246:153|220:132,1,77.0000023498536,8|2,0:0|0:3,0:0:0:0:
168,74,53564,2,0,P|107:93|73:172,1,154.000004699707,0|8,3:2|0:0,0:0:0:0:
9,239,54094,2,0,P|57:288|143:291,1,154.000004699707,2|2,0:3|0:3,0:0:0:0:
234,305,54623,1,8,0:0:0:0:
234,305,54800,1,2,0:3:0:0:
326,145,55153,5,2,0:3:0:0:
410,99,55329,1,8,0:0:0:0:
410,99,55417,1,8,0:0:0:0:
410,99,55506,1,8,0:0:0:0:
410,99,55594,1,8,0:0:0:0:
410,99,55682,6,0,B|472:59|516:84|496:168,1,154.000004699707,4|8,3:2|0:0,0:0:0:0:
501,160,56388,2,0,P|451:204|440:289,1,154.000004699707,0|8,3:2|0:0,0:0:0:0:
487,366,56917,1,2,0:3:0:0:
394,363,57094,2,0,L|279:375,1,115.50000352478,0|0,3:2|0:0,0:0:0:0:
239,360,57447,2,0,L|311:333,1,77.0000023498536,8|2,0:0|0:3,0:0:0:0:
345,246,57800,2,0,L|268:230,1,77.0000023498536,0|2,3:2|0:3,0:0:0:0:
201,167,58152,1,8,0:0:0:0:
180,76,58329,6,0,B|213:5|272:15|261:105,1,154.000004699707,2|2,0:3|0:3,0:0:0:0:
201,167,58859,2,0,B|149:158|93:171|51:203,1,154.000004699707,8|0,0:0|3:2,0:0:0:0:
40,291,59388,1,2,0:3:0:0:
124,330,59564,1,8,0:0:0:0:
124,330,59741,1,2,0:3:0:0:
209,277,59918,6,0,P|242:238|276:222,1,77.0000023498536,0|4,3:2|0:3,0:0:0:0:
362,250,60271,1,4,0:3:0:0:
420,169,60447,2,0,L|468:161,2,38.5000011749268,8|8|4,0:3|0:3|0:3,0:0:0:0:
361,98,60800,1,8,0:0:0:0:
361,98,60888,1,8,0:0:0:0:
361,98,60976,2,0,L|326:123,3,38.5000011749268,8|8|4|4,0:3|0:3|0:3|0:3,0:0:0:0:
288,131,61329,6,0,B|258:203|261:270|327:352,1,231.000007049561,4|0,3:2|0:0,0:0:0:0:
413,363,62035,2,0,P|449:325|455:294,1,77.0000023498536,0|2,3:2|0:3,0:0:0:0:
467,210,62388,1,8,0:0:0:0:
376,192,62564,1,2,0:3:0:0:
306,252,62741,2,0,B|248:266|201:249|174:182,2,154.000004699707,0|8|0,3:2|0:0|3:2,0:0:0:0:
309,255,63800,2,0,L|327:178,1,77.0000023498536,8|2,0:0|0:3,0:0:0:0:
368,97,64153,5,0,3:2:0:0:
301,32,64329,1,2,0:3:0:0:
217,72,64506,2,0,P|177:87|139:79,1,77.0000023498536,8|2,0:0|0:3,0:0:0:0:
80,14,64859,2,0,P|31:52|51:136,1,154.000004699707,0|8,3:2|0:0,0:0:0:0:
37,225,65388,2,0,B|79:292|139:267|115:196,1,154.000004699707,2|2,0:3|0:3,0:0:0:0:
185,135,65917,1,8,0:0:0:0:
185,135,66094,1,2,0:3:0:0:
247,334,66623,5,8,0:0:0:0:
247,334,66711,1,8,0:0:0:0:
247,334,66800,1,8,0:0:0:0:
247,334,66888,1,8,0:0:0:0:
247,334,66976,6,0,B|265:161|380:174|361:348,1,308.000009399414,4|0,3:2|3:2,0:0:0:0:
451,369,67859,1,2,0:3:0:0:
451,369,68035,1,8,0:0:0:0:
502,292,68211,2,0,B|442:260|440:211|498:169,2,154.000004699707,2|2|2,0:3|0:3|0:3,0:0:0:0:
419,334,69094,2,0,L|341:328,1,77.0000023498536,0|2,3:2|0:3,0:0:0:0:
304,243,69447,1,8,0:0:0:0:
232,301,69623,6,0,B|163:331|128:332|65:308,1,154.000004699707,2|2,0:3|0:3,0:0:0:0:
41,231,70153,2,0,P|38:181|63:143,1,77.0000023498536,8|2,0:0|0:3,0:0:0:0:
141,147,70506,2,0,P|144:197|119:235,1,77.0000023498536,0|2,3:2|0:3,0:0:0:0:
200,283,70859,1,8,0:0:0:0:
200,283,71035,1,2,0:3:0:0:
282,224,71211,6,0,L|249:149,1,77.0000023498536,0|4,3:2|0:3,0:0:0:0:
263,53,71564,1,4,0:3:0:0:
361,63,71741,2,0,L|391:36,2,38.5000011749268,8|8|4,0:3|0:3|0:3,0:0:0:0:
369,167,72094,1,8,0:0:0:0:
369,167,72182,1,8,0:0:0:0:
369,167,72270,2,0,L|410:174,3,38.5000011749268,8|8|4|4,0:3|0:3|0:3|0:3,0:0:0:0:
445,194,72623,6,0,B|517:170|547:217|497:277,1,154.000004699707,4|8,3:2|0:0,0:0:0:0:
481,365,73153,1,2,0:0:0:0:
481,365,73241,1,0,0:0:0:0:
481,365,73329,2,0,B|434:324|370:318|328:345,1,154.000004699707,0|8,3:2|0:0,0:0:0:0:
249,370,73859,2,0,L|223:297,1,77.0000023498536,2|0,0:0|3:2,0:0:0:0:
155,234,74211,2,0,L|138:310,1,77.0000023498536,2|8,0:0|0:0,0:0:0:0:
53,341,74564,1,2,0:0:0:0:
53,341,74741,2,0,L|49:264,1,77.0000023498536,0|2,3:2|0:0,0:0:0:0:
16,177,75094,5,8,0:0:0:0:
16,177,75270,1,2,0:0:0:0:
106,157,75447,2,0,B|83:79|110:53|186:98,3,154.000004699707,0|8|0|8,3:2|0:0|3:2|0:0,0:0:0:0:
236,165,76682,2,0,P|282:169|292:268,1,154.000004699707,2|2,0:0|0:0,0:0:0:0:
265,346,77211,1,8,0:0:0:0:
172,353,77388,2,0,P|161:303|168:272,1,77.0000023498536,2|0,0:0|3:2,0:0:0:0:
147,181,77741,1,8,0:1:0:0:
147,181,77917,2,0,L|187:176,3,38.5000011749268,8|8|8|8,3:1|0:0|0:0|0:0,0:0:0:0:
222,155,78270,6,0,B|287:100|252:49|163:83,1,154.000004699707,4|8,3:2|0:0,0:0:0:0:
106,22,78800,1,2,0:3:0:0:
106,22,78888,1,0,0:0:0:0:
106,22,78976,2,0,B|66:68|59:104|61:174,1,154.000004699707,0|8,3:2|0:0,0:0:0:0:
79,255,79506,2,0,P|111:279|164:276,1,77.0000023498536,2|0,0:3|3:2,0:0:0:0:
225,330,79859,2,0,P|256:286|261:256,1,77.0000023498536,2|8,0:3|0:0,0:0:0:0:
315,190,80211,1,2,0:3:0:0:
315,190,80388,2,0,L|355:260,1,77.0000023498536,0|2,3:2|0:3,0:0:0:0:
445,268,80741,5,8,0:0:0:0:
445,268,80917,1,2,0:3:0:0:
464,177,81094,2,0,B|479:103|440:74|385:130,3,154.000004699707,0|8|0|8,3:2|0:0|3:2|0:0,0:0:0:0:
299,168,82329,2,0,P|257:130|250:93,1,77.0000023498536,2|8,0:3|3:2,0:0:0:0:
257,13,82682,1,0,3:2:0:0:
359,25,82859,1,0,3:2:0:0:
359,25,83035,1,0,3:2:0:0:
405,113,83211,2,0,L|400:202,2,77.0000023498536,8|8|8,0:0|0:1|0:1,0:0:0:0:
504,99,83741,1,0,3:2:0:0:
506,233,83917,6,0,B|520:298|481:340|420:352,1,140,6|10,3:2|0:0,0:0:0:0:
449,348,84623,2,0,L|371:344,1,70,2|0,3:2|3:2,0:0:0:0:
362,261,84976,2,0,L|284:265,1,70,10|0,0:0|0:0,0:0:0:0:
221,219,85329,6,0,B|202:168|205:98|254:64,2,140,2|10|2,3:2|0:0|3:2,0:0:0:0:
269,288,86212,1,0,3:2:0:0:
189,314,86388,2,0,P|158:285|115:279,1,70,10|0,0:0|0:0,0:0:0:0:
48,268,86741,1,2,3:2:0:0:
48,268,86917,1,0,3:2:0:0:
11,191,87094,2,0,B|-41:144|-21:97|47:117,2,140,10|2|10,0:0|3:2|0:0,0:0:0:0:
14,194,88153,6,0,L|101:190,1,70,2|0,3:2|3:2,0:0:0:0:
157,231,88506,2,0,L|201:172,1,70,10|0,3:2|0:0,0:0:0:0:
184,91,88859,2,0,B|227:20|270:42|328:86,1,140,2|10,3:2|0:0,0:0:0:0:
360,137,89388,1,8,0:0:0:0:
289,193,89564,6,0,P|284:225|298:267,1,70,6|0,3:2|3:2,0:0:0:0:
328,337,89917,2,0,P|383:346|446:281,1,140,10|2,0:0|3:2,0:0:0:0:
427,210,90447,1,0,3:2:0:0:
501,172,90623,2,0,L|509:96,1,70,10|0,0:0|0:0,0:0:0:0:
437,57,90976,6,0,B|432:-12|474:-24|523:18,2,140,2|10|2,3:2|0:0|3:2,0:0:0:0:
369,107,91859,1,0,3:2:0:0:
397,185,92035,2,0,P|399:229|384:259,1,70,10|0,0:0|0:0,0:0:0:0:
308,263,92388,1,2,3:2:0:0:
308,263,92564,1,0,3:2:0:0:
242,209,92741,2,0,B|231:135|283:119|311:185,2,140,10|2|10,0:0|3:2|0:0,0:0:0:0:
245,212,93800,6,0,L|172:220,1,70,2|4,3:2|0:3,0:0:0:0:
167,303,94153,2,0,L|102:337,1,70,4|8,0:3|0:3,0:0:0:0:
35,278,94506,1,4,0:3:0:0:
54,193,94682,2,0,L|43:153,2,35,8|8|8,0:0|0:3|0:3,0:0:0:0:
148,186,95035,1,4,0:3:0:0:
148,186,95124,1,4,0:3:0:0:
148,186,95211,6,0,P|173:164|190:128,1,70,4|2,3:2|0:3,0:0:0:0:
138,63,95564,2,0,P|191:29|223:31,1,70,8|2,0:0|0:3,0:0:0:0:
276,4,95917,2,0,B|337:20|358:43|339:122,1,140,0|8,3:2|0:0,0:0:0:0:
488,189,96623,2,0,B|443:233|413:240|354:184,1,140,0|8,3:2|0:0,0:0:0:0:
222,280,97329,2,0,B|205:219|214:189|292:166,1,140,0|8,3:2|0:0,0:0:0:0:
414,265,98035,6,0,B|460:319|433:362|358:328,1,140,0|8,3:2|0:0,0:0:0:0:
314,171,98741,2,0,B|268:117|295:74|370:108,1,140,0|8,3:2|0:0,0:0:0:0:
360,19,99270,2,0,L|291:8,1,70,2|0,0:3|0:0,0:0:0:0:
219,52,99623,1,2,0:3:0:0:
219,52,99800,2,0,L|189:125,1,70,8|2,0:0|0:3,0:0:0:0:
203,208,100153,1,8,0:0:0:0:
203,208,100329,1,0,3:2:0:0:
120,246,100506,1,8,0:0:0:0:
81,164,100682,1,0,3:2:0:0:
108,77,100859,6,0,P|136:56|187:47,1,70,4|2,3:2|0:3,0:0:0:0:
238,94,101211,2,0,P|282:101|311:125,1,70,8|2,0:0|0:3,0:0:0:0:
374,71,101564,2,0,B|412:123|422:167|371:224,1,140,0|8,3:2|0:0,0:0:0:0:
393,203,102270,2,0,L|401:276,1,70,0|2,3:2|0:3,0:0:0:0:
336,326,102623,1,8,0:0:0:0:
336,326,102800,1,2,0:3:0:0:
259,291,102976,2,0,B|234:331|186:355|132:350,1,140,0|8,3:2|0:0,0:0:0:0:
1,253,103682,6,0,B|26:213|74:189|128:194,1,140,0|8,3:2|0:0,0:0:0:0:
200,219,104211,1,0,0:0:0:0:
250,151,104388,2,0,L|265:77,2,70,0|0|8,3:2|0:0|0:0,0:0:0:0:
179,104,104917,1,2,0:3:0:0:
114,157,105094,2,0,L|91:225,2,70,0|2|8,3:2|0:3|0:0,0:0:0:0:
179,312,105800,2,0,L|234:310,3,35,8|8|8|8,3:2|0:0|0:0|0:0,0:0:0:0:
245,287,106153,2,0,L|289:300,3,35,8|8|8|8,3:2|0:0|0:0|0:0,0:0:0:0:
307,329,106506,5,4,3:2:0:0:
307,329,106682,1,2,0:3:0:0:
355,260,106859,2,0,P|390:250|424:218,1,70,8|2,0:0|0:3,0:0:0:0:
486,184,107211,2,0,B|547:145|535:100|464:101,1,140,0|8,3:2|0:0,0:0:0:0:
393,59,107741,1,2,0:3:0:0:
326,109,107917,2,0,L|337:184,1,70,0|2,3:2|0:3,0:0:0:0:
355,260,108270,2,0,B|323:319|278:309|274:236,2,140,8|0|8,0:0|3:2|0:0,0:0:0:0:
512,197,109329,5,0,3:2:0:0:
349,156,109682,1,8,0:2:0:0:
456,285,110035,1,0,3:2:0:0:
445,117,110388,1,8,0:0:0:0:
445,117,110564,6,0,B|447:44|393:20|328:47,1,140,2|2,0:3|0:3,0:0:0:0:
294,95,111094,2,0,L|256:163,2,70,8|2|8,0:0|0:3|0:0,0:0:0:0:
233,35,111623,1,0,3:2:0:0:
233,35,111712,1,0,3:2:0:0:
233,35,111800,1,8,0:0:0:0:
162,80,111976,1,8,3:2:0:0:
167,164,112153,6,0,P|176:220|188:235,1,70,4|2,3:2|0:3,0:0:0:0:
160,310,112506,2,0,L|233:313,1,70,8|2,0:0|0:3,0:0:0:0:
280,380,112859,2,0,B|350:400|374:353|318:311,1,140,0|8,3:2|0:0,0:0:0:0:
359,238,113388,1,2,0:3:0:0:
359,238,113564,2,0,B|373:175|356:146|287:132,2,140,0|8|0,3:2|0:0|3:2,0:0:0:0:
362,241,114623,2,0,L|292:279,1,70,8|2,0:0|0:3,0:0:0:0:
224,238,114976,6,0,L|201:305,2,70,0|0|8,3:2|0:0|0:0,0:0:0:0:
214,153,115506,1,2,0:3:0:0:
214,153,115682,2,0,B|170:99|134:104|124:188,1,140,0|8,3:2|0:0,0:0:0:0:
125,261,116211,1,2,0:3:0:0:
125,261,116388,6,0,B|81:315|45:310|35:226,1,140,0|8,3:2|0:0,0:0:0:0:
0,153,116917,1,2,0:3:0:0:
61,86,117094,1,8,3:2:0:0:
61,86,117182,1,8,0:0:0:0:
61,86,117270,2,0,P|60:50|56:26,2,35,8|8|8,0:0|0:0|3:2,0:0:0:0:
129,148,117623,2,0,L|123:193,2,35,8|8|6,0:0|0:0|0:0,0:0:0:0:
256,192,128741,12,8,130153,0:0:0:0:
256,192,130506,6,0,B|281:48|366:88|348:206,1,231.000007049561,4|2,3:2|0:3,0:0:0:0:
297,274,131211,2,0,L|218:281,1,77.0000023498536,0|2,3:2|0:3,0:0:0:0:
140,233,131564,1,8,0:0:0:0:
179,149,131741,1,2,0:3:0:0:
129,71,131917,2,0,P|87:18|6:22,2,154.000004699707,0|8|0,3:2|0:0|3:2,0:0:0:0:
132,74,132976,2,0,B|112:147|153:180|203:112,1,154.000004699707,8|0,0:0|3:2,0:0:0:0:
242,27,133506,5,2,0:3:0:0:
316,88,133682,1,8,0:0:0:0:
316,88,133859,1,2,0:3:0:0:
261,162,134035,2,0,B|241:217|244:256|274:310,1,154.000004699707,0|8,3:2|0:0,0:0:0:0:
363,332,134564,2,0,B|432:321|456:248|426:195,1,154.000004699707,2|2,0:3|0:3,0:0:0:0:
345,229,135094,1,8,0:0:0:0:
345,229,135270,1,2,0:3:0:0:
172,161,135623,5,2,0:3:0:0:
193,265,135800,1,8,0:0:0:0:
193,265,135888,1,8,0:0:0:0:
193,265,135976,1,8,0:0:0:0:
193,265,136064,1,8,0:0:0:0:
193,265,136153,6,0,B|258:316|215:370|143:326,1,154.000004699707,4|8,3:2|0:0,0:0:0:0:
149,329,136859,1,0,3:2:0:0:
59,352,137035,1,2,0:3:0:0:
0,280,137211,2,0,L|65:224,1,77.0000023498536,8|2,0:0|0:3,0:0:0:0:
143,191,137564,2,0,B|169:116|125:88|68:136,3,154.000004699707,0|8|0|8,3:2|0:0|3:2|0:0,0:0:0:0:
58,229,138800,6,0,B|145:220|188:231|227:265,1,154.000004699707,2|2,0:3|0:3,0:0:0:0:
294,280,139329,1,8,0:0:0:0:
355,211,139506,1,2,0:3:0:0:
318,126,139682,2,0,B|311:75|334:22|395:11,1,154.000004699707,0|8,3:2|0:0,0:0:0:0:
446,87,140211,1,2,0:3:0:0:
431,178,140388,6,0,L|356:197,1,77.0000023498536,0|4,3:2|0:3,0:0:0:0:
256,186,140741,1,4,0:3:0:0:
213,96,140917,2,0,L|220:58,2,38.5000011749268,8|8|4,0:3|0:3|0:3,0:0:0:0:
120,127,141270,1,8,0:0:0:0:
120,127,141359,1,8,0:0:0:0:
120,127,141447,2,0,L|113:165,3,38.5000011749268,8|8|4|4,0:3|0:3|0:3|0:3,0:0:0:0:
82,192,141800,6,0,B|133:181|210:233|225:297|188:348,1,231.000007049561,6|0,3:2|0:0,0:0:0:0:
278,372,142506,1,2,3:2:0:0:
345,309,142682,1,0,3:2:0:0:
430,345,142859,2,0,L|440:255,1,77.0000023498536,10|0,0:0|0:0,0:0:0:0:
425,177,143211,2,0,B|499:150|497:102|412:91,2,154.000004699707,2|10|2,3:2|0:0|3:2,0:0:0:0:
428,180,144270,2,0,L|394:262,1,77.0000023498536,10|0,0:0|0:0,0:0:0:0:
313,288,144623,5,2,3:2:0:0:
313,288,144800,1,0,3:2:0:0:
252,218,144976,2,0,P|289:178|288:126,1,77.0000023498536,10|0,0:0|0:0,0:0:0:0:
359,92,145329,2,0,B|339:34|301:0|222:22,1,154.000004699707,2|10,3:2|0:0,0:0:0:0:
149,26,145859,2,0,B|115:85|131:131|215:109,1,154.000004699707,0|0,0:0|3:2,0:0:0:0:
294,69,146388,1,10,0:0:0:0:
294,69,146564,1,0,0:0:0:0:
302,272,147094,5,10,0:0:0:0:
302,272,147270,1,8,0:0:0:0:
269,358,147447,2,0,B|196:381|46:305|30:204,1,308.000009399414,6|2,3:2|3:2,0:0:0:0:
54,116,148329,1,0,3:2:0:0:
143,91,148506,1,10,0:0:0:0:
174,176,148682,2,0,B|259:163|277:208|198:252,2,154.000004699707,0|0|0,0:0|3:2|0:0,0:0:0:0:
143,91,149564,2,0,L|221:78,1,77.0000023498536,2|0,3:2|3:2,0:0:0:0:
285,14,149917,1,10,0:0:0:0:
328,96,150094,6,0,B|387:66|441:84|446:172,1,154.000004699707,0|0,0:0|3:2,0:0:0:0:
475,235,150623,2,0,P|479:277|465:308,1,77.0000023498536,10|0,0:0|0:0,0:0:0:0:
373,319,150976,2,0,P|369:277|383:246,1,77.0000023498536,2|0,3:2|3:2,0:0:0:0:
336,170,151329,1,10,0:0:0:0:
336,170,151506,1,0,0:0:0:0:
255,215,151682,2,0,L|244:293,1,77.0000023498536,2|0,3:2|3:2,0:0:0:0:
231,383,152035,1,10,0:0:0:0:
58,317,152388,5,8,3:2:0:0:
58,317,152476,1,8,0:0:0:0:
58,317,152564,1,8,0:0:0:0:
58,317,152653,1,8,0:0:0:0:
58,317,152741,2,0,L|69:239,1,77.0000023498536,8|8,3:2|0:0,0:0:0:0:
40,82,155211,6,0,L|85:90,3,38.5000011749268,12|8|8|8,3:2|0:0|0:0|0:0,0:0:0:0:
109,118,155564,2,0,L|154:110,3,38.5000011749268,8|8|8|8,3:2|0:0|0:0|0:0,0:0:0:0:
178,83,155918,6,0,P|226:85|248:174,1,154.000004699707,4|8,3:2|0:0,0:0:0:0:
165,206,156447,1,2,0:0:0:0:
165,206,156535,1,0,0:0:0:0:
165,206,156623,2,0,P|165:277|234:297,1,154.000004699707,0|8,3:2|0:0,0:0:0:0:
313,346,157153,2,0,L|339:274,1,77.0000023498536,2|0,0:0|3:2,0:0:0:0:
431,280,157506,2,0,L|410:202,1,77.0000023498536,2|8,0:0|0:0,0:0:0:0:
481,145,157859,1,2,0:0:0:0:
481,145,158035,2,0,L|409:110,1,77.0000023498536,0|2,3:2|0:0,0:0:0:0:
326,141,158388,5,8,0:0:0:0:
326,141,158564,1,2,0:0:0:0:
258,77,158741,2,0,B|232:2|298:-22|334:49,3,154.000004699707,0|8|0|8,3:2|0:0|3:2|0:0,0:0:0:0:
326,141,159976,2,0,B|353:192|333:245|259:256,1,154.000004699707,2|2,0:0|0:0,0:0:0:0:
176,233,160506,1,8,0:0:0:0:
103,290,160682,2,0,L|93:377,1,77.0000023498536,2|0,0:0|3:2,0:0:0:0:
19,310,161035,1,8,0:1:0:0:
19,310,161211,2,0,L|27:238,3,38.5000011749268,8|8|8|8,3:1|0:0|0:0|0:0,0:0:0:0:
43,233,161564,6,0,B|7:190|13:134|75:107,1,154.000004699707,4|8,3:2|0:0,0:0:0:0:
102,21,162094,1,2,0:3:0:0:
102,21,162182,1,0,0:0:0:0:
102,21,162270,2,0,P|178:13|265:40,1,154.000004699707,0|8,3:2|0:0,0:0:0:0:
317,99,162800,2,0,L|306:178,1,77.0000023498536,2|0,0:3|3:2,0:0:0:0:
231,229,163153,2,0,L|166:187,1,77.0000023498536,2|8,0:3|0:0,0:0:0:0:
162,98,163506,1,2,0:3:0:0:
162,98,163682,2,0,L|243:60,1,77.0000023498536,0|2,3:2|0:3,0:0:0:0:
268,155,164035,5,8,0:0:0:0:
268,155,164211,1,2,0:3:0:0:
250,246,164388,2,0,B|208:311|252:355|311:302,3,154.000004699707,0|8|0|8,3:2|0:0|3:2|0:0,0:0:0:0:
361,225,165623,2,0,P|396:243|416:277,1,77.0000023498536,2|8,0:3|3:2,0:0:0:0:
512,242,165976,1,0,3:2:0:0:
449,171,166153,1,0,3:2:0:0:
449,171,166329,1,0,3:2:0:0:
486,78,166506,2,0,L|533:12,2,77.0000023498536,8|8|8,0:0|0:1|0:1,0:0:0:0:
392,41,167035,1,0,3:2:0:0:
349,132,167211,6,0,B|289:153|226:153|178:137,1,154.000004699707,4|8,3:2|0:0,0:0:0:0:
146,220,167741,1,2,0:0:0:0:
146,220,167829,1,0,0:0:0:0:
146,220,167917,2,0,B|98:278|50:272|25:201,1,154.000004699707,0|8,3:2|0:0,0:0:0:0:
0,120,168447,2,0,L|77:112,1,77.0000023498536,2|0,0:0|3:2,0:0:0:0:
94,21,168800,2,0,P|144:41|164:65,1,77.0000023498536,2|8,0:0|0:0,0:0:0:0:
197,142,169153,1,2,0:0:0:0:
197,142,169329,2,0,P|229:114|269:101,1,77.0000023498536,0|2,3:2|0:0,0:0:0:0:
304,188,169682,5,8,0:0:0:0:
304,188,169859,1,2,0:0:0:0:
396,186,170035,2,0,B|453:230|437:293|350:255,3,154.000004699707,0|8|0|8,3:2|0:0|3:2|0:0,0:0:0:0:
350,350,171270,2,0,B|284:317|254:309|187:329,1,154.000004699707,2|2,0:0|0:0,0:0:0:0:
120,368,171800,1,8,0:0:0:0:
13,307,171976,2,0,B|83:286|111:271|146:211,1,154.000004699707,2|8,0:0|0:1,0:0:0:0:
107,147,172506,2,0,L|116:108,1,38.5000011749268,8|8,0:1|0:0,0:0:0:0:
107,68,172682,2,0,L|144:53,1,38.5000011749268,8|8,0:0|0:0,0:0:0:0:
185,55,172859,6,0,B|240:-7|294:43|242:102,1,154.000004699707,4|8,3:2|0:0,0:0:0:0:
228,191,173388,1,2,0:3:0:0:
228,191,173476,1,0,0:0:0:0:
228,191,173564,2,0,P|225:229|324:273,1,154.000004699707,0|8,3:2|0:0,0:0:0:0:
392,327,174094,2,0,P|419:285|422:259,1,77.0000023498536,2|0,0:3|3:2,0:0:0:0:
479,186,174447,2,0,L|456:113,1,77.0000023498536,2|8,0:3|0:0,0:0:0:0:
462,20,174800,1,2,0:3:0:0:
462,20,174976,2,0,L|386:31,1,77.0000023498536,0|2,3:2|0:3,0:0:0:0:
310,85,175329,5,8,0:0:0:0:
310,85,175506,1,2,0:3:0:0:
365,158,175682,2,0,B|433:194|421:245|340:236,3,154.000004699707,0|8|0|8,3:2|0:0|3:2|0:0,0:0:0:0:
270,297,176917,1,2,0:3:0:0:
193,244,177094,2,0,L|196:194,3,38.5000011749268,8|8|8|8,3:2|0:0|0:0|0:0,0:0:0:0:
233,186,177447,2,0,L|224:133,3,38.5000011749268,8|8|8|8,3:2|0:0|0:0|0:0,0:0:0:0:
239,107,177800,1,8,3:2:0:0:
239,107,177976,1,8,0:1:0:0:
278,23,178153,2,0,P|221:13|191:21,1,77.0000023498536,8|0,0:1|3:2,0:0:0:0:
89,90,178506,6,0,B|57:157|58:183|78:247,1,140,4|8,3:2|0:0,0:0:0:0:
43,307,179035,1,2,0:0:0:0:
43,307,179123,1,0,0:0:0:0:
43,307,179211,2,0,B|81:361|116:361|133:288,1,140,0|8,3:2|0:0,0:0:0:0:
153,205,179741,2,0,L|227:197,1,70,2|0,0:0|3:2,0:0:0:0:
273,264,180094,2,0,P|294:290|306:328,1,70,2|8,0:0|0:0,0:0:0:0:
391,309,180447,1,2,0:0:0:0:
391,309,180623,2,0,P|382:243|409:171,1,140,0|8,3:2|0:0,0:0:0:0:
409,178,181329,6,0,L|480:172,1,70,0|2,3:2|0:0,0:0:0:0:
505,92,181682,2,0,B|472:36|443:25|384:40,1,140,8|0,0:0|3:2,0:0:0:0:
307,20,182211,1,2,0:0:0:0:
324,102,182388,2,0,P|298:162|267:173,1,70,8|2,0:0|0:0,0:0:0:0:
336,236,182741,2,0,L|267:254,1,70,0|2,3:2|0:0,0:0:0:0:
208,312,183094,2,0,P|122:263|124:202,1,140,8|0,0:0|3:2,0:0:0:0:
146,139,183623,1,8,0:1:0:0:
236,167,183800,2,0,L|243:209,3,35,8|8|8|8,0:1|0:0|0:0|0:0,0:0:0:0:
275,222,184153,6,0,B|326:271|364:252|340:175,1,140,4|8,3:2|0:0,0:0:0:0:
306,102,184682,1,2,0:3:0:0:
306,102,184770,1,0,0:0:0:0:
306,102,184859,2,0,B|278:57|198:44|153:72,1,140,0|8,3:2|0:0,0:0:0:0:
131,129,185388,2,0,L|61:117,1,70,2|0,0:3|3:2,0:0:0:0:
4,178,185741,2,0,L|37:246,1,70,2|8,0:3|0:0,0:0:0:0:
111,274,186094,1,2,0:3:0:0:
111,274,186270,2,0,B|85:331|111:370|194:343,1,140,0|8,3:2|0:0,0:0:0:0:
181,350,186976,6,0,L|254:343,1,70,0|2,3:2|0:3,0:0:0:0:
295,272,187329,2,0,P|361:279|409:331,1,140,8|0,0:0|3:2,0:0:0:0:
484,291,187859,1,2,0:3:0:0:
441,218,188035,2,0,L|457:144,1,70,8|2,0:0|0:3,0:0:0:0:
410,77,188388,5,0,3:2:0:0:
410,77,188565,1,4,0:3:0:0:
319,92,188741,1,4,0:3:0:0:
361,182,188917,1,8,0:3:0:0:
361,182,189006,1,8,0:3:0:0:
361,182,189094,1,4,0:3:0:0:
305,254,189270,2,0,L|352:306,2,70,8|8|8,0:1|0:1|0:0,0:0:0:0:
220,264,189800,1,0,0:0:0:0:
203,290,192094,6,0,B|184:274|188:236|201:200,1,70,8|8,0:1|0:1,0:0:0:0:
