osu file format v14

[General]
AudioFilename: nightbird lost wing.mp3
AudioLeadIn: 0
PreviewTime: 75002
Countdown: 0
SampleSet: Soft
StackLeniency: 0.7
Mode: 0
LetterboxInBreaks: 1
WidescreenStoryboard: 1

[Editor]
Bookmarks: 3081,11924,22029,23292,33397,43502,53608,64976,85186,93633,95291,100344,105397
DistanceSpacing: 1.5
BeatDivisor: 4
GridSize: 4
TimelineZoom: 2.599999

[Metadata]
Title:nightbird lost wing
TitleUnicode:nightbird lost wing
Artist:Nekomata Master+
ArtistUnicode:猫叉Master+
Creator:captin1
Version:apaffy's Extreme
Source:DanceDanceRevolution
Tags:apaffy trust hootowlstar reflec beat colette dance dance revolution -Autumn- plus naoyuki sato
BeatmapID:627961
BeatmapSetID:241892

[Difficulty]
HPDrainRate:7
CircleSize:5
OverallDifficulty:8.5
ApproachRate:9.4
SliderMultiplier:1.8
SliderTickRate:1

[Events]
//Background and Video events
0,0,"bg.png",0,0
//Break Periods
//Storyboard Layer 0 (Background)
//Storyboard Layer 1 (Fail)
//Storyboard Layer 2 (Pass)
//Storyboard Layer 3 (Foreground)
//Storyboard Sound Samples

[TimingPoints]
555,315.789473684211,4,2,2,60,1,0
3081,315.789473684211,4,2,2,60,1,0
3081,-125,4,2,2,60,0,0
5212,-125,4,2,2,60,0,0
5607,-125,4,2,2,60,0,0
6870,-125,4,2,2,60,0,0
7186,-125,4,2,2,60,0,0
7344,-125,4,2,2,60,0,0
7502,-125,4,2,2,30,0,0
7976,-125,4,2,2,40,0,0
8133,-125,4,2,2,60,0,0
10502,-125,4,2,2,50,0,0
10660,-125,4,2,2,60,0,0
11923,-83.3333333333333,4,2,2,60,0,0
12555,-100,4,2,2,60,0,0
13186,-100,4,2,3,70,0,0
15081,-125,4,2,3,70,0,0
15712,-100,4,2,3,70,0,0
19502,-100,4,2,3,80,0,0
20765,-100,4,2,3,90,0,0
21397,-100,4,2,3,100,0,0
22186,-100,4,2,3,60,0,0
23291,-100,4,2,3,70,0,0
27317,-100,4,2,3,70,0,0
27396,-100,4,2,3,70,0,0
27633,-100,4,2,3,70,0,0
27712,-100,4,2,3,70,0,0
33318,-100,4,2,3,50,0,0
33397,-100,4,2,3,70,0,0
34897,-100,4,2,3,70,0,0
34976,-100,4,2,3,70,0,0
35212,-100,4,2,3,70,0,0
35291,-100,4,2,3,70,0,0
37423,-100,4,2,3,70,0,0
37502,-100,4,2,3,70,0,0
37738,-100,4,2,3,70,0,0
37817,-100,4,2,3,70,0,0
41528,-100,4,2,3,50,0,0
41607,-100,4,2,3,70,0,0
42160,-100,4,2,3,50,0,0
42239,-100,4,2,3,70,0,0
42791,-100,4,2,3,50,0,0
42870,-100,4,2,3,70,0,0
43502,-100,4,2,3,80,0,0
54555,-100,4,2,3,60,0,0
56133,-100,4,2,3,80,0,0
57081,-100,4,2,3,60,0,0
58028,-100,4,1,1,40,0,0
58344,-100,4,1,1,60,0,0
58660,-100,4,2,3,80,0,0
59607,-133.333333333333,4,2,3,60,0,0
60555,-133.333333333333,4,2,3,60,0,0
61186,-100,4,2,3,80,0,0
64344,-100,4,2,3,40,0,0
64976,-100,4,2,3,70,0,0
72555,-100,4,2,3,80,0,0
73818,-100,4,2,3,50,0,0
75081,-100,4,2,2,80,0,1
95291,-142.857142857143,4,2,3,70,0,0
102870,-166.666666666667,4,2,3,70,0,0
105238,-166.666666666667,4,2,3,5,0,0

[Colours]
Combo1 : 154,53,255
Combo2 : 250,155,69
Combo3 : 36,135,255
Combo4 : 255,94,94

[HitObjects]
100,132,3081,5,4,1:2:0:0:
121,291,3239,1,0,0:0:0:0:
198,147,3397,1,8,0:0:0:0:
51,219,3555,1,0,1:0:0:0:
213,249,3713,1,0,0:0:0:0:
51,219,3871,1,8,0:0:0:0:
252,72,4976,6,0,B|320:92|372:68|372:68|413:88|424:148|392:192,1,252,2|0,0:0|0:0,0:0:0:0:
376,212,5608,6,0,L|288:198,1,72,0|0,1:0|0:0,0:0:0:0:
217,187,5924,1,8,0:0:0:0:
428,324,6081,2,0,L|340:310,1,72,0|0,1:0|0:0,0:0:0:0:
269,299,6397,1,8,0:0:0:0:
256,72,6871,6,0,L|256:216,1,144,2|0,0:0|0:0,0:0:0:0:
173,272,7345,1,8,0:0:0:0:
341,114,7502,1,8,0:3:0:0:
141,148,7660,1,4,0:3:0:0:
370,236,7818,1,4,0:3:0:0:
173,272,7976,1,8,0:1:0:0:
248,208,8133,5,0,1:0:0:0:
190,367,8291,1,0,0:0:0:0:
82,239,8449,1,8,0:0:0:0:
262,301,8607,1,0,1:0:0:0:
97,332,8765,1,0,0:0:0:0:
154,173,8923,1,8,0:0:0:0:
73,298,9871,5,0,0:0:0:0:
79,211,10029,1,2,0:0:0:0:
149,259,10187,1,0,0:0:0:0:
3,250,10345,1,0,0:0:0:0:
143,347,10502,1,8,0:1:0:0:
143,347,10581,1,8,0:1:0:0:
143,347,10660,5,0,1:0:0:0:
157,172,10818,1,0,0:0:0:0:
73,298,10976,1,8,0:0:0:0:
85,125,11134,1,0,1:0:0:0:
149,259,11292,1,0,0:0:0:0:
9,163,11450,1,8,0:0:0:0:
180,92,11924,6,0,P|165:41|171:-2,1,71.9999978027344,0|0,1:0|0:0,0:0:0:0:
261,104,12134,2,0,P|264:52|284:12,1,71.9999978027344,8|0,0:1|0:0,0:0:0:0:
328,148,12345,2,0,P|349:100|382:69,1,71.9999978027344,8|0,0:1|0:0,0:0:0:0:
370,211,12555,5,8,0:1:0:0:
351,246,12633,1,0,0:0:0:0:
319,271,12712,1,8,0:3:0:0:
280,280,12791,1,0,0:0:0:0:
244,260,12870,1,8,0:3:0:0:
204,276,12950,1,0,0:0:0:0:
168,292,13029,1,4,0:3:0:0:
132,308,13108,1,0,0:0:0:0:
96,324,13187,6,0,P|93:271|96:227,1,90,6|0,1:2|0:0,0:0:0:0:
234,343,13502,1,8,0:0:0:0:
293,201,13660,1,0,0:0:0:0:
120,140,13818,1,0,0:0:0:0:
168,292,13976,1,0,0:0:0:0:
259,111,14134,1,8,0:0:0:0:
259,111,14213,1,0,0:0:0:0:
259,111,14292,1,0,0:0:0:0:
382,208,14450,6,0,L|266:200,1,90,0|0,0:0|0:0,0:0:0:0:
78,286,14766,2,0,L|194:294,1,90,8|0,0:0|0:0,0:0:0:0:
351,215,15081,2,0,L|258:209,1,72,2|0,0:0|0:0,0:0:0:0:
108,278,15397,2,0,L|201:284,1,72,8|0,0:0|0:0,0:0:0:0:
208,176,15713,5,2,1:2:0:0:
300,288,15871,1,0,0:0:0:0:
400,147,16029,1,8,0:0:0:0:
232,188,16187,1,0,0:0:0:0:
324,300,16345,1,2,0:0:0:0:
424,159,16503,1,0,0:0:0:0:
250,114,16660,2,0,P|252:169|257:207,1,90,8|0,0:0|0:0,0:0:0:0:
256,203,16897,1,0,0:0:0:0:
256,203,16976,5,2,0:0:0:0:
184,288,17134,2,0,L|88:280,1,90,0|8,0:0|0:0,0:0:0:0:
32,344,17450,1,0,0:0:0:0:
128,208,17608,1,2,0:0:0:0:
188,308,17766,1,0,0:0:0:0:
192,328,17845,1,0,0:0:0:0:
196,348,17924,1,8,0:0:0:0:
324,244,18081,1,0,0:0:0:0:
328,224,18160,1,0,0:0:0:0:
332,204,18239,6,0,P|382:204|440:209,1,90,6|0,1:2|0:0,0:0:0:0:
472,284,18555,1,8,0:0:0:0:
396,108,18713,1,0,0:0:0:0:
484,92,18871,1,0,0:0:0:0:
384,300,19029,1,0,0:0:0:0:
384,300,19108,1,0,0:0:0:0:
384,300,19187,1,8,0:0:0:0:
308,124,19345,1,0,0:0:0:0:
220,258,19502,6,0,P|213:326|218:362,1,90,0|0,0:0|0:0,0:0:0:0:
216,127,19817,2,0,P|161:87|127:74,1,90,8|2,0:0|0:0,0:0:0:0:
180,193,20133,2,0,P|118:221|89:244,1,90,2|2,0:0|0:0,0:0:0:0:
292,126,20450,2,0,P|299:58|294:22,1,90,10|2,0:0|0:0,0:0:0:0:
360,172,20766,6,0,L|472:188,1,90,2|2,0:0|0:0,0:0:0:0:
181,193,21081,2,0,L|69:177,1,90,10|0,0:0|0:0,0:0:0:0:
396,248,21397,2,0,L|508:264,1,90,0|0,0:0|0:0,0:0:0:0:
148,118,21713,2,0,L|36:102,1,90,8|0,0:0|0:0,0:0:0:0:
256,192,22029,5,0,0:0:0:0:
168,272,22187,2,0,B|164:296|164:296|170:325,1,45,2|0,0:0|0:0,0:0:0:0:
343,316,22344,2,0,B|348:296|348:296|344:272,1,45,2|0,0:0|0:0,0:0:0:0:
255,337,22502,6,0,L|256:368,3,30,0|0|0|2,0:0|0:0|0:0|0:0,0:0:0:0:
256,132,22817,1,0,0:0:0:0:
256,132,22975,1,2,0:0:0:0:
168,272,23134,1,0,0:0:0:0:
344,272,23292,6,0,L|449:283,1,90,6|0,1:2|0:0,0:0:0:0:
492,348,23608,1,8,0:0:0:0:
268,310,23765,2,0,P|264:254|296:199,1,90,0|0,0:0|0:0,0:0:0:0:
433,281,24081,1,0,1:0:0:0:
244,148,24238,2,0,L|139:137,1,90,10|0,0:0|0:0,0:0:0:0:
48,124,24554,5,2,1:2:0:0:
140,40,24712,2,0,L|162:13,3,30,0|0|0|10,0:0|0:0|0:0|0:0,0:0:0:0:
186,214,25028,1,0,0:0:0:0:
48,124,25186,2,0,L|188:140,1,120,2|0,0:0|0:0,0:0:0:0:
238,153,25449,1,0,0:0:0:0:
238,153,25502,2,0,P|262:200|252:256,1,90,10|0,0:0|0:0,0:0:0:0:
220,72,25817,5,2,1:2:0:0:
103,243,25975,1,0,0:0:0:0:
103,243,26054,1,0,0:0:0:0:
103,243,26133,1,8,0:0:0:0:
48,124,26291,2,0,L|36:27,1,90,0|0,0:0|0:0,0:0:0:0:
220,72,26607,1,0,1:0:0:0:
192,204,26765,2,0,L|204:301,1,90,10|0,0:0|0:0,0:0:0:0:
123,337,27081,6,0,P|191:321|267:349,1,135,2|0,1:2|0:0,0:0:0:0:
321,365,27396,2,0,B|364:381|364:381|473:337,1,135,10|0,0:0|0:0,0:0:0:0:
476,276,27712,2,0,L|464:179,1,90,2|0,0:0|1:0,0:0:0:0:
368,48,28028,1,8,0:0:0:0:
268,116,28133,2,0,L|264:176,1,60,0|0,0:0|0:0,0:0:0:0:
179,185,28344,6,0,P|239:189|279:157,1,90,2|0,1:2|0:0,0:0:0:0:
140,268,28659,1,8,0:0:0:0:
104,120,28817,2,0,P|44:116|4:148,1,90,0|0,0:0|0:0,0:0:0:0:
152,32,29133,1,0,1:0:0:0:
252,104,29291,2,0,L|356:88,1,90,8|2,0:0|0:0,0:0:0:0:
441,72,29607,5,2,1:2:0:0:
412,216,29765,2,0,L|428:272,1,45,0|0,0:0|0:0,0:0:0:0:
416,300,29923,1,8,0:0:0:0:
254,189,30081,2,0,B|240:148|240:148|252:104,1,90,2|2,0:0|0:0,0:0:0:0:
292,32,30396,1,0,1:0:0:0:
448,124,30554,2,0,L|344:140,1,90,8|2,0:0|0:0,0:0:0:0:
168,167,30870,5,2,1:2:0:0:
336,224,31028,1,0,0:0:0:0:
336,224,31107,1,0,0:0:0:0:
336,224,31186,1,8,0:0:0:0:
252,104,31344,1,2,0:0:0:0:
200,292,31502,1,2,0:0:0:0:
359,137,31659,1,0,1:0:0:0:
156,237,31817,2,0,P|131:276|140:328,1,90,8|2,0:0|0:0,0:0:0:0:
264,360,32133,2,0,L|368:348,1,90,2|0,1:2|0:0,0:0:0:0:
444,340,32449,5,8,0:0:0:0:
444,340,32607,1,8,0:0:0:0:
352,240,32765,2,0,L|300:247,1,45,2|2,0:0|0:0,0:0:0:0:
432,152,32923,2,0,L|484:145,1,45,0|0,1:0|0:0,0:0:0:0:
292,100,33081,1,10,0:0:0:0:
492,180,33238,1,0,0:0:0:0:
492,180,33317,1,8,0:1:0:0:
492,180,33396,6,0,B|508:224|508:224|500:280,1,90,6|0,1:2|0:0,0:0:0:0:
460,348,33712,1,8,0:0:0:0:
307,246,33870,2,0,L|410:235,1,90,2|0,0:0|0:0,0:0:0:0:
345,353,34186,1,0,1:0:0:0:
228,300,34344,2,0,B|212:256|212:256|220:200,1,90,10|0,0:0|0:0,0:0:0:0:
324,65,34659,6,0,P|261:76|186:33,1,135,2|0,1:2|0:0,0:0:0:0:
125,18,34975,2,0,B|33:38|33:38|17:90,1,135,10|0,0:0|0:0,0:0:0:0:
28,156,35291,2,0,L|40:256,1,90,2|0,0:0|0:0,0:0:0:0:
20,312,35502,6,0,L|-12:320,2,30,0|0|10,0:0|0:0|0:0,0:0:0:0:
192,184,35765,2,0,L|224:176,3,30,0|0|0|2,0:0|0:0|0:0|1:2,0:0:0:0:
212,332,36081,5,0,0:0:0:0:
212,332,36238,2,0,P|144:324|104:348,1,90,8|0,0:0|0:0,0:0:0:0:
192,184,36554,1,0,0:0:0:0:
306,318,36712,1,0,1:0:0:0:
384,208,36870,2,0,L|496:196,1,90,8|2,0:0|0:0,0:0:0:0:
306,318,37186,6,0,P|288:244|312:180,1,135,2|0,1:2|0:0,0:0:0:0:
352,128,37502,2,0,B|460:116|460:116|420:88,1,135,10|0,0:0|0:0,0:0:0:0:
380,48,37817,2,0,L|289:59,1,90,2|0,0:0|1:0,0:0:0:0:
188,136,38133,1,8,0:0:0:0:
106,60,38238,2,0,L|185:52,1,60,0|0,0:0|0:0,0:0:0:0:
21,75,38449,6,0,P|65:55|121:67,1,90,2|0,1:2|0:0,0:0:0:0:
92,192,38765,1,8,0:0:0:0:
272,120,38923,2,0,P|228:140|172:128,1,90,0|0,0:0|0:0,0:0:0:0:
293,24,39238,1,0,1:0:0:0:
388,120,39396,2,0,B|400:148|400:148|392:216,1,90,8|2,0:0|0:0,0:0:0:0:
376,312,39712,5,2,1:2:0:0:
184,216,39870,2,0,L|252:208,1,45,0|0,0:0|0:0,0:0:0:0:
264,232,40028,1,8,0:0:0:0:
104,320,40186,2,0,B|92:292|92:292|100:224,1,90,2|2,0:0|0:0,0:0:0:0:
152,108,40502,1,0,1:0:0:0:
317,198,40659,2,0,L|203:214,1,90,8|2,0:0|0:0,0:0:0:0:
61,143,40975,5,2,1:2:0:0:
200,36,41133,1,0,0:0:0:0:
260,188,41291,2,0,P|336:208|408:176,1,135,8|8,0:0|0:1,0:0:0:0:
452,164,41607,2,0,L|468:276,1,90,2|0,0:0|1:0,0:0:0:0:
224,332,41923,2,0,P|148:312|76:344,1,135,8|8,0:0|0:1,0:0:0:0:
32,356,42239,2,0,L|16:244,1,90,2|0,0:0|0:0,0:0:0:0:
0,88,42554,5,10,0:0:0:0:
33,109,42632,1,0,0:0:0:0:
73,113,42711,1,0,0:0:0:0:
111,99,42790,1,8,0:1:0:0:
142,74,42870,1,8,0:1:0:0:
179,60,42949,1,0,0:0:0:0:
219,64,43028,1,0,1:0:0:0:
253,86,43106,1,0,0:0:0:0:
274,120,43186,1,8,0:1:0:0:
65,34,43344,1,8,0:1:0:0:
12,192,43502,6,0,L|128:180,1,90,4|0,1:2|0:0,0:0:0:0:
192,172,43817,1,8,0:1:0:0:
400,292,43975,2,0,P|348:288|296:320,1,90,2|0,1:2|0:0,0:0:0:0:
244,360,44291,1,8,0:1:0:0:
345,180,44449,2,0,B|390:197|432:168|432:168|447:214|510:241,1,180,2|8,1:2|0:1,0:0:0:0:
376,107,44923,5,0,1:0:0:0:
314,302,45081,1,8,0:1:0:0:
314,302,45238,1,8,0:1:0:0:
511,154,45396,1,0,0:0:0:0:
262,199,45554,2,0,L|221:206,3,30,0|0|0|8,1:0|0:0|0:0|0:1,0:0:0:0:
452,320,45870,1,0,0:0:0:0:
376,107,46028,6,0,B|364:52|364:52|392:16,1,90,4|0,1:2|0:0,0:0:0:0:
456,80,46344,1,8,0:1:0:0:
256,220,46502,2,0,B|236:249|236:249|255:316,1,90,4|0,1:2|0:0,0:0:0:0:
280,384,46817,1,8,0:1:0:0:
338,133,46975,2,0,P|256:95|168:135,1,180,4|0,1:2|0:0,0:0:0:0:
125,200,47449,5,0,1:0:0:0:
336,44,47607,1,8,0:1:0:0:
80,28,47765,1,8,0:1:0:0:
257,196,47923,5,2,0:0:0:0:
39,126,48081,1,0,1:0:0:0:
207,21,48238,1,8,0:1:0:0:
107,274,48396,2,0,L|92:316,3,30,0|0|0|4,0:0|0:0|0:0|1:2,0:0:0:0:
156,111,48712,5,0,0:0:0:0:
24,212,48870,1,8,0:1:0:0:
256,196,49028,1,2,1:2:0:0:
96,304,49186,1,0,0:0:0:0:
60,112,49344,1,8,0:1:0:0:
176,311,49502,6,0,P|260:347|343:289,1,180,4|8,1:2|0:1,0:0:0:0:
256,216,49976,1,0,1:0:0:0:
148,96,50134,2,0,L|136:192,1,90,8|8,0:1|0:1,0:0:0:0:
375,185,50450,2,0,L|364:96,1,90,0|0,0:0|1:0,0:0:0:0:
184,238,50766,1,8,0:1:0:0:
256,80,50924,1,0,0:0:0:0:
328,272,51081,6,0,L|424:280,1,90,4|0,1:2|0:0,0:0:0:0:
508,288,51397,1,8,0:1:0:0:
264,172,51555,2,0,P|232:236|256:360,1,180,4|8,1:2|0:1,0:0:0:0:
88,348,52029,2,0,P|93:299|99:225,1,90,4|0,1:2|0:0,0:0:0:0:
36,192,52345,1,8,0:1:0:0:
160,32,52502,2,0,P|163:76|168:121,1,90,0|8,1:0|0:1,0:0:0:0:
180,284,52818,1,8,0:1:0:0:
36,192,52976,5,0,0:0:0:0:
220,180,53134,1,0,1:0:0:0:
97,258,53292,1,8,0:1:0:0:
47,102,53450,1,0,0:0:0:0:
220,180,53608,6,0,L|320:168,1,90,4|0,1:2|0:0,0:0:0:0:
324,188,53845,1,0,0:0:0:0:
336,208,53924,1,8,0:1:0:0:
401,46,54081,1,4,1:2:0:0:
197,130,54555,6,0,B|192:92|192:92|200:60,1,60,0|0,0:0|0:0,0:0:0:0:
314,70,54766,2,0,B|320:92|320:92|315:130,1,60,0|0,0:0|0:0,0:0:0:0:
257,208,55029,5,0,0:0:0:0:
188,280,55187,1,2,0:0:0:0:
326,280,55345,1,0,0:0:0:0:
115,346,55502,5,0,1:0:0:0:
115,346,55555,1,0,1:0:0:0:
115,346,55608,1,0,1:0:0:0:
115,346,55660,1,8,1:0:0:0:
397,346,55818,1,0,1:0:0:0:
188,280,55976,1,8,0:1:0:0:
326,280,56134,6,0,P|329:223|325:185,1,90,4|0,1:2|0:0,0:0:0:0:
256,104,56450,1,8,0:1:0:0:
188,280,56608,1,4,1:2:0:0:
256,104,57081,5,2,0:0:0:0:
178,148,57239,1,0,0:0:0:0:
178,58,57396,1,2,0:0:0:0:
256,194,57555,5,0,0:0:0:0:
100,102,57712,1,2,0:0:0:0:
256,14,57870,1,0,0:0:0:0:
100,192,58028,5,0,0:0:0:0:
88,225,58106,1,0,0:0:0:0:
89,261,58185,1,0,0:0:0:0:
102,295,58264,1,0,0:0:0:0:
136,304,58344,1,0,0:0:0:0:
172,312,58423,1,0,0:0:0:0:
208,320,58502,1,0,0:0:0:0:
244,328,58581,1,0,0:0:0:0:
280,336,58660,5,4,1:2:0:0:
355,203,58818,1,0,0:0:0:0:
163,240,58976,1,8,0:1:0:0:
355,203,59133,1,0,1:0:0:0:
163,240,59449,5,0,0:0:0:0:
163,240,59607,2,0,P|164:168|156:88,2,135.000005149842,2|0|2,0:0|0:0|0:0,0:0:0:0:
114,318,60555,1,0,1:0:0:0:
114,318,60607,1,0,1:0:0:0:
114,318,60660,1,0,1:0:0:0:
114,318,60712,1,0,1:0:0:0:
98,238,60870,1,0,1:0:0:0:
41,376,61028,1,0,1:0:0:0:
194,353,61186,6,0,L|292:344,1,90,4|0,1:2|0:0,0:0:0:0:
372,336,61502,1,8,0:1:0:0:
260,232,61660,2,0,L|358:223,1,90,4|0,1:2|0:0,0:0:0:0:
438,215,61976,1,8,0:1:0:0:
216,112,62133,1,4,1:2:0:0:
256,192,62291,12,0,63923,0:0:0:0:
200,136,64344,5,8,0:3:0:0:
168,116,64422,1,0,0:0:0:0:
132,112,64501,1,8,0:1:0:0:
100,124,64580,1,8,0:1:0:0:
76,152,64660,1,8,0:1:0:0:
145,187,64818,1,4,0:3:0:0:
40,44,64976,6,0,P|83:39|144:35,1,90,4|0,1:2|0:0,0:0:0:0:
324,60,65291,2,0,P|279:65|234:68,1,90,8|0,0:0|0:0,0:0:0:0:
216,156,65607,2,0,L|224:248,1,90,2|0,0:0|0:0,0:0:0:0:
223,245,65844,1,0,0:0:0:0:
223,245,65923,1,8,0:0:0:0:
296,296,66081,1,0,0:0:0:0:
380,268,66239,6,0,P|440:272|484:304,1,90,2|0,0:0|0:0,0:0:0:0:
465,285,66476,1,0,0:0:0:0:
465,285,66555,1,8,0:0:0:0:
404,352,66712,1,0,0:0:0:0:
312,212,66870,1,2,0:0:0:0:
352,132,67028,1,0,0:0:0:0:
352,132,67107,1,0,0:0:0:0:
352,132,67186,1,8,0:0:0:0:
392,52,67344,1,0,0:0:0:0:
272,40,67502,6,0,L|170:34,1,90,2|0,1:2|0:0,0:0:0:0:
108,68,67739,1,0,0:0:0:0:
108,68,67818,2,0,P|112:132|92:180,1,90,8|0,0:0|0:0,0:0:0:0:
56,232,68133,2,0,L|160:244,1,90,2|0,0:0|0:0,0:0:0:0:
152,264,68370,1,0,0:0:0:0:
160,284,68449,1,8,0:0:0:0:
88,340,68607,1,0,0:0:0:0:
248,296,68765,5,2,0:0:0:0:
316,356,68923,1,0,0:0:0:0:
316,356,69002,1,0,0:0:0:0:
316,356,69081,1,8,0:0:0:0:
440,228,69239,1,0,0:0:0:0:
470,316,69397,2,0,L|342:296,1,90,2|0,0:0|0:0,0:0:0:0:
328,232,69633,1,0,0:0:0:0:
328,232,69712,2,0,P|328:188|352:136,1,90,8|0,0:0|0:0,0:0:0:0:
412,88,69949,1,0,0:0:0:0:
412,88,70028,6,0,L|500:101,1,90,4|0,1:2|0:0,0:0:0:0:
444,172,70344,1,8,0:0:0:0:
292,88,70502,1,0,0:0:0:0:
328,232,70660,1,2,0:0:0:0:
412,88,70818,1,2,0:0:0:0:
412,88,70897,1,0,0:0:0:0:
412,88,70976,1,8,0:0:0:0:
232,184,71133,1,0,0:0:0:0:
292,88,71291,5,2,0:0:0:0:
328,232,71449,1,2,0:0:0:0:
328,232,71528,1,0,0:0:0:0:
328,232,71607,1,8,0:0:0:0:
176,112,71765,1,2,0:0:0:0:
220,300,71923,1,2,0:0:0:0:
60,328,72081,2,0,L|16:336,3,30,2|0|0|8,0:0|0:0|0:0|0:0,0:0:0:0:
137,215,72396,1,2,0:0:0:0:
56,140,72555,6,0,L|45:44,1,90,2|2,0:0|0:0,0:0:0:0:
252,72,72870,2,0,L|262:167,1,90,8|2,0:0|0:0,0:0:0:0:
148,305,73186,2,0,L|137:209,1,90,0|2,0:0|0:0,0:0:0:0:
344,237,73502,2,0,L|354:332,1,90,8|0,0:0|0:0,0:0:0:0:
452,144,73818,5,8,0:1:0:0:
432,108,73896,1,8,0:1:0:0:
404,84,73975,1,8,0:1:0:0:
364,72,74054,1,8,0:1:0:0:
324,72,74133,1,8,0:0:0:0:
288,88,74212,1,8,0:1:0:0:
260,116,74291,1,8,0:1:0:0:
244,152,74370,1,8,0:1:0:0:
224,188,74449,1,8,0:1:0:0:
192,212,74527,1,8,0:1:0:0:
152,220,74606,1,8,0:1:0:0:
112,212,74685,1,8,0:1:0:0:
80,188,74764,1,8,0:1:0:0:
153,127,74923,1,8,0:1:0:0:
336,204,75081,6,0,P|381:203|444:208,1,90,6|0,1:2|0:0,0:0:0:0:
244,352,75396,2,0,B|233:313|233:313|248:248,1,90,10|0,0:1|0:0,0:0:0:0:
304,24,75712,2,0,B|315:63|315:63|300:128,1,90,2|0,0:0|1:0,0:0:0:0:
136,168,76028,2,0,L|24:188,1,90,10|0,0:1|0:0,0:0:0:0:
12,268,76344,1,0,1:0:0:0:
164,52,76502,2,0,L|156:96,1,45,0|0,0:0|0:0,0:0:0:0:
192,120,76659,6,0,P|256:108|324:132,1,120,10|0,0:1|0:0,0:0:0:0:
360,160,76923,1,0,0:0:0:0:
360,160,76975,2,0,B|380:176|380:176|488:164,1,120,2|0,0:0|0:0,0:0:0:0:
512,219,77238,1,0,0:0:0:0:
512,219,77291,2,0,P|524:251|504:315,1,90,10|0,0:1|0:0,0:0:0:0:
360,160,77607,6,0,B|348:116|348:116|368:56,1,90,2|0,1:2|0:0,0:0:0:0:
448,40,77923,1,10,0:1:0:0:
276,160,78081,1,2,0:0:0:0:
466,57,78238,1,2,0:0:0:0:
252,32,78396,1,2,1:2:0:0:
455,202,78554,6,0,B|407:214|383:254|383:254|332:224|271:242,1,180,10|0,0:1|1:0,0:0:0:0:
464,288,79028,1,0,0:0:0:0:
360,160,79186,1,8,0:1:0:0:
324,317,79344,5,2,0:0:0:0:
472,156,79502,1,2,0:0:0:0:
254,210,79659,1,2,1:2:0:0:
403,350,79817,1,10,0:1:0:0:
348,132,79975,1,2,0:0:0:0:
173,313,80133,6,0,L|69:303,1,90,6|0,1:2|0:0,0:0:0:0:
352,224,80449,2,0,L|456:214,1,90,10|0,0:1|0:0,0:0:0:0:
156,120,80765,2,0,L|52:110,1,90,2|0,0:0|1:0,0:0:0:0:
340,44,81081,2,0,L|444:34,1,90,10|0,0:1|0:0,0:0:0:0:
500,92,81396,1,0,1:0:0:0:
352,224,81554,1,0,0:0:0:0:
216,72,81712,6,0,P|152:48|60:92,1,135,10|0,0:1|0:0,0:0:0:0:
22,137,82028,2,0,B|14:168|14:168|110:137,1,120,2|0,0:0|0:0,0:0:0:0:
161,119,82291,1,0,0:0:0:0:
161,119,82344,2,0,B|184:144|184:144|176:220,1,90,10|0,0:1|0:0,0:0:0:0:
42,262,82659,6,0,L|32:352,1,90,6|0,1:2|0:0,0:0:0:0:
205,245,82975,2,0,L|199:300,1,45,8|0,0:1|0:0,0:0:0:0:
124,256,83133,2,0,L|113:345,1,90,2|0,0:0|0:0,0:0:0:0:
168,92,83449,2,0,L|162:147,1,45,0|0,1:0|0:0,0:0:0:0:
87,103,83607,2,0,L|76:192,1,90,10|0,0:1|0:0,0:0:0:0:
116,25,83923,5,0,1:0:0:0:
246,122,84081,1,0,0:0:0:0:
124,256,84238,1,8,0:1:0:0:
124,256,84396,1,8,0:1:0:0:
246,122,84554,1,2,0:0:0:0:
208,108,84632,1,2,0:0:0:0:
167,108,84711,1,0,1:0:0:0:
130,124,84790,1,0,0:0:0:0:
104,156,84870,2,0,L|116:232,1,45,10|0,0:1|0:0,0:0:0:0:
24,100,85028,2,0,L|12:24,1,45,0|0,0:0|0:0,0:0:0:0:
112,24,85186,6,0,L|236:12,1,90,6|0,1:2|0:0,0:0:0:0:
464,52,85502,2,0,L|340:64,1,90,10|0,0:1|0:0,0:0:0:0:
220,224,85817,2,0,B|202:181|202:181|216:112,1,90,2|0,0:0|1:0,0:0:0:0:
440,196,86133,2,0,B|458:239|458:239|444:308,1,90,10|0,0:1|0:0,0:0:0:0:
420,368,86449,1,0,1:0:0:0:
220,224,86607,2,0,L|280:256,1,45
296,272,86765,6,0,P|252:268|172:316,1,120,10|0,0:1|0:0,0:0:0:0:
136,348,87028,1,0,0:0:0:0:
136,348,87081,2,0,L|16:336,1,120,2|0,0:0|0:0,0:0:0:0:
4,269,87344,1,0,0:0:0:0:
4,269,87396,2,0,P|0:220|24:176,1,90,10|0,0:1|0:0,0:0:0:0:
176,40,87712,6,0,B|196:64|196:64|184:136,1,90,2|0,1:2|0:0,0:0:0:0:
164,208,88028,1,10,0:1:0:0:
88,116,88186,1,2,0:0:0:0:
280,60,88344,1,2,0:0:0:0:
66,103,88502,1,2,1:2:0:0:
298,210,88659,2,0,L|396:200,1,90,10|0,0:1|0:0,0:0:0:0:
480,256,88975,6,0,P|496:302|485:356,1,90,0|0,1:0|0:0,0:0:0:0:
232,260,89291,2,0,P|216:214|227:160,1,90,8|2,0:1|0:0,0:0:0:0:
300,128,89607,1,2,0:0:0:0:
320,288,89765,1,2,1:2:0:0:
136,236,89923,1,10,0:1:0:0:
348,204,90081,1,2,0:0:0:0:
140,332,90238,6,0,B|111:350|111:350|52:340,1,90,6|0,1:2|0:0,0:0:0:0:
220,244,90554,2,0,B|191:226|191:226|132:236,1,90,10|0,0:1|0:0,0:0:0:0:
308,328,90870,2,0,B|337:346|337:346|396:336,1,90,2|0,0:0|1:0,0:0:0:0:
484,148,91186,2,0,B|455:130|455:130|396:140,1,90,10|0,0:1|0:0,0:0:0:0:
199,129,91502,6,0,B|251:157|319:129|319:129|311:169|343:197,1,180,0|10,1:0|0:1,0:0:0:0:
256,47,91975,1,0,0:0:0:0:
152,192,92133,2,0,P|88:184|48:156,1,90,2|0,0:0|1:0,0:0:0:0:
16,112,92344,2,0,L|64:100,1,30,0|0,0:0|0:0,0:0:0:0:
66,172,92449,2,0,P|58:236|30:276,1,90,10|0,0:1|0:0,0:0:0:0:
122,363,92765,6,0,L|132:255,1,90,6|0,1:2|0:0,0:0:0:0:
321,330,93081,2,0,L|276:339,1,45,8|0,0:1|0:0,0:0:0:0:
204,352,93238,2,0,L|214:244,1,90,6|0,1:2|0:0,0:0:0:0:
36,80,93554,2,0,L|81:71,1,45,8|0,0:1|0:0,0:0:0:0:
153,58,93712,2,0,L|142:164,1,90,6|0,1:2|0:0,0:0:0:0:
46,257,94028,5,0,0:0:0:0:
234,177,94186,1,0,1:0:0:0:
36,80,94344,1,8,0:1:0:0:
168,224,94502,1,8,0:1:0:0:
198,250,94580,1,0,0:0:0:0:
237,258,94659,1,2,0:0:0:0:
275,247,94738,1,2,0:0:0:0:
300,216,94817,1,0,1:0:0:0:
338,204,94896,1,0,0:0:0:0:
377,212,94975,1,10,0:1:0:0:
404,244,95054,1,0,0:0:0:0:
400,284,95133,2,0,L|392:336,1,45,0|0,0:0|0:0,0:0:0:0:
468,208,95291,6,0,B|492:248|492:248|480:352,1,125.999996154785,6|8,1:2|0:0,0:0:0:0:
412,352,95765,1,0,0:0:0:0:
340,324,95923,2,0,L|268:336,1,62.9999980773926,2|0,0:0|0:0,0:0:0:0:
277,334,96159,1,0,0:0:0:0:
277,334,96238,1,8,0:0:0:0:
216,380,96396,1,0,0:0:0:0:
136,312,96554,6,0,L|208:300,1,62.9999980773926,2|0,0:0|0:0,0:0:0:0:
199,302,96790,1,0,0:0:0:0:
199,302,96869,1,8,0:0:0:0:
260,256,97028,1,0,0:0:0:0:
208,204,97186,2,0,L|196:140,1,62.9999980773926,2|0,0:0|0:0,0:0:0:0:
196,142,97423,1,0,0:0:0:0:
196,142,97502,1,8,0:0:0:0:
256,96,97659,1,0,0:0:0:0:
196,48,97817,6,0,L|76:44,1,94.499997116089,2|0,0:0|0:0,0:0:0:0:
64,44,98133,2,0,P|52:96|60:128,1,62.9999980773926,8|0,0:0|0:0,0:0:0:0:
100,164,98449,2,0,L|183:168,1,62.9999980773926,2|0,0:0|0:0,0:0:0:0:
162,167,98686,1,0,0:0:0:0:
162,167,98765,1,8,0:0:0:0:
240,172,98923,1,0,0:0:0:0:
300,216,99081,6,0,L|400:200,1,94.499997116089,2|0,0:0|0:0,0:0:0:0:
428,192,99396,2,0,L|416:272,1,62.9999980773926,8|0,0:0|0:0,0:0:0:0:
340,312,99712,2,0,L|240:296,1,94.499997116089,2|0,0:0|0:0,0:0:0:0:
212,288,100028,2,0,L|224:361,1,62.9999980773926,8|0,0:0|0:0,0:0:0:0:
144,352,100344,6,0,P|96:340|32:368,1,94.499997116089,2|0,0:0|0:0,0:0:0:0:
20,372,100659,1,8,0:0:0:0:
96,260,100817,1,0,0:0:0:0:
32,200,100975,2,0,L|24:128,1,62.9999980773926,2|0,0:0|0:0,0:0:0:0:
25,137,101212,1,0,0:0:0:0:
25,137,101291,1,8,0:0:0:0:
60,72,101449,1,0,0:0:0:0:
104,12,101607,6,0,L|172:8,1,62.9999980773926,2|0,0:0|0:0,0:0:0:0:
166,8,101844,1,0,0:0:0:0:
166,8,101923,1,8,0:0:0:0:
228,56,102081,1,0,0:0:0:0:
300,40,102238,2,0,P|352:40|384:48,1,62.9999980773926,2|0,0:0|0:0,0:0:0:0:
362,41,102475,1,0,0:0:0:0:
362,41,102554,1,8,0:0:0:0:
436,68,102712,1,0,0:0:0:0:
456,144,102870,6,0,B|388:160|340:128|340:128|359:178|328:220,2,215.999993408203,2|2|2,0:0|0:0|0:0,0:0:0:0:
416,224,104291,1,0,0:0:0:0:
416,224,104370,1,0,0:0:0:0:
416,224,104449,1,8,0:0:0:0:
269,162,104607,1,0,0:0:0:0:
394,25,104765,6,0,L|405:88,1,53.9999983520508,10|0,0:0|0:0,0:0:0:0:
278,215,105081,2,0,L|267:152,1,53.9999983520508,8|0,0:0|0:0,0:0:0:0:
