osu file format v14

[General]
AudioFilename: nightbird lost wing.mp3
AudioLeadIn: 0
PreviewTime: 75002
Countdown: 0
SampleSet: Soft
StackLeniency: 0.7
Mode: 0
LetterboxInBreaks: 1
WidescreenStoryboard: 1

[Editor]
DistanceSpacing: 0.6
BeatDivisor: 4
GridSize: 4
TimelineZoom: 2.539999

[Metadata]
Title:nightbird lost wing
TitleUnicode:nightbird lost wing
Artist:Nekomata Master+
ArtistUnicode:猫叉Master+
Creator:captin1
Version:Trust's Insane
Source:DanceDanceRevolution
Tags:apaffy trust hootowlstar reflec beat colette dance dance revolution -Autumn- plus naoyuki sato
BeatmapID:1313009
BeatmapSetID:241892

[Difficulty]
HPDrainRate:6
CircleSize:4
OverallDifficulty:8
ApproachRate:9
SliderMultiplier:1.76
SliderTickRate:1

[Events]
//Background and Video events
0,0,"bg.png",0,0
//Break Periods
//Storyboard Layer 0 (Background)
//Storyboard Layer 1 (Fail)
//Storyboard Layer 2 (Pass)
//Storyboard Layer 3 (Foreground)
//Storyboard Sound Samples

[TimingPoints]
555,315.789473684211,4,2,2,60,1,0
555,-200,4,2,2,60,0,0
3081,315.789473684211,4,2,2,60,1,0
3239,-100,4,2,2,60,0,0
4976,-133.333333333333,4,2,2,60,0,0
5765,-100,4,2,2,60,0,0
6870,-100,4,2,2,60,0,0
7502,-100,4,2,2,30,0,0
7976,-100,4,2,2,40,0,0
8133,-100,4,2,2,60,0,0
10502,-100,4,2,2,50,0,0
10581,-100,4,2,2,50,0,0
10660,-100,4,2,2,60,0,0
13186,-100,4,2,3,70,0,0
19502,-100,4,2,3,80,0,0
20765,-100,4,2,3,90,0,0
21397,-100,4,2,3,100,0,0
22186,-100,4,2,3,60,0,0
22344,-133.333333333333,4,2,3,60,0,0
23291,-100,4,2,3,70,0,0
33318,-100,4,2,3,50,0,0
33397,-100,4,2,3,70,0,0
41528,-100,4,2,3,50,0,0
41607,-100,4,2,3,70,0,0
42160,-100,4,2,3,50,0,0
42239,-100,4,2,3,70,0,0
42791,-100,4,2,3,50,0,0
42870,-100,4,2,3,70,0,0
43502,-100,4,2,3,80,0,0
54555,-100,4,2,3,60,0,0
56133,-100,4,2,3,80,0,0
57081,-100,4,2,3,60,0,0
58028,-100,4,1,1,40,0,0
58344,-100,4,1,1,60,0,0
58660,-100,4,2,3,80,0,0
59607,-100,4,2,3,60,0,0
61186,-100,4,2,3,80,0,0
64344,-100,4,2,3,40,0,0
64976,-100,4,2,3,70,0,0
72555,-100,4,2,3,80,0,0
73818,-100,4,2,3,50,0,0
75081,-90.9090909090909,4,2,4,80,0,1
95291,-100,4,2,3,70,0,0

[Colours]
Combo1 : 154,53,255
Combo2 : 250,155,69
Combo3 : 36,135,255
Combo4 : 255,94,94

[HitObjects]
256,192,555,5,0,0:0:0:0:
228,220,3081,5,4,1:2:0:0:
312,252,3238,1,0,0:0:0:0:
144,188,3396,2,0,P|144:248|168:288,1,88,8|0,0:0|1:0,0:0:0:0:
244,312,3712,1,0,0:0:0:0:
300,160,3870,1,8,0:0:0:0:
300,160,4975,5,2,0:0:0:0:
300,160,5607,5,0,1:0:0:0:
392,144,5765,1,0,0:0:0:0:
208,176,5923,2,0,L|224:68,1,88,8|0,0:0|1:0,0:0:0:0:
364,224,6238,1,0,0:0:0:0:
221,89,6396,1,8,0:0:0:0:
221,89,6870,5,2,0:0:0:0:
76,252,7344,1,8,0:0:0:0:
212,180,7502,5,8,0:3:0:0:
216,148,7659,1,4,0:3:0:0:
220,116,7817,1,4,0:3:0:0:
300,156,7975,1,8,0:1:0:0:
280,244,8133,5,0,1:0:0:0:
136,128,8291,1,0,0:0:0:0:
310,68,8449,2,0,L|294:196,1,88,8|0,0:0|1:0,0:0:0:0:
192,268,8765,1,0,0:0:0:0:
372,216,8923,1,8,0:0:0:0:
372,216,9870,5,0,0:0:0:0:
339,298,10028,2,0,P|415:294|431:282,1,88,2|0,0:0|0:0,0:0:0:0:
404,134,10344,2,0,P|328:138|312:150,1,88,0|8,0:0|0:1,0:0:0:0:
320,143,10581,1,8,0:1:0:0:
320,143,10659,5,0,1:0:0:0:
254,208,10817,1,0,0:0:0:0:
214,32,10975,2,0,L|236:142,1,88,8|0,0:0|1:0,0:0:0:0:
277,298,11291,1,0,0:0:0:0:
108,262,11449,1,8,0:0:0:0:
108,262,11923,6,0,L|74:349,2,58.6666666666667,0|0|8,1:0|0:0|0:1,0:0:0:0:
43,198,12238,2,0,L|-4:153,2,58.6666666666667,0|8|0,0:0|0:1|0:0,0:0:0:0:
134,177,12554,2,0,L|212:157,3,44,8|0|8|0,0:1|0:0|0:3|0:0,0:0:0:0:
260,208,12870,2,0,L|268:257,1,44,8|0,0:3|0:0,0:0:0:0:
344,160,13028,2,0,L|332:100,1,44,4|0,0:3|0:0,0:0:0:0:
428,208,13186,6,0,P|492:210|519:191,1,88,6|0,1:2|0:0,0:0:0:0:
428,40,13502,2,0,L|453:125,1,88,8|0,0:0|0:0,0:0:0:0:
344,252,13817,1,0,0:0:0:0:
436,292,13975,1,0,0:0:0:0:
436,292,14054,1,0,0:0:0:0:
436,292,14133,2,0,P|445:247|425:193,1,88,8|0,0:0|0:0,0:0:0:0:
236,160,14449,5,0,0:0:0:0:
333,155,14607,1,0,0:0:0:0:
344,252,14765,1,8,0:0:0:0:
242,262,14923,1,0,0:0:0:0:
344,252,15081,2,0,L|438:242,1,88,2|0,0:0|0:0,0:0:0:0:
344,341,15317,1,0,0:0:0:0:
324,344,15396,2,0,L|236:353,1,88,8|0,0:0|0:0,0:0:0:0:
82,190,15712,6,0,P|152:207|173:244,1,88,2|0,1:2|0:0,0:0:0:0:
230,304,16028,1,8,0:0:0:0:
267,202,16186,1,0,0:0:0:0:
108,364,16344,2,0,P|89:309|104:262,1,88,2|0,0:0|0:0,0:0:0:0:
253,118,16659,2,0,P|272:173|257:220,1,88,8|0,0:0|0:0,0:0:0:0:
230,304,16975,5,2,0:0:0:0:
179,176,17133,1,0,0:0:0:0:
240,284,17291,1,8,0:0:0:0:
200,176,17449,1,0,0:0:0:0:
248,264,17607,1,2,0:0:0:0:
224,176,17765,1,0,0:0:0:0:
226,169,17844,1,0,0:0:0:0:
229,162,17923,1,8,0:0:0:0:
320,112,18081,1,0,0:0:0:0:
317,119,18160,1,0,0:0:0:0:
315,126,18239,1,6,1:2:0:0:
206,62,18396,5,0,0:0:0:0:
88,105,18554,2,0,P|48:153|32:193,1,88,8|0,0:0|0:0,0:0:0:0:
128,288,18870,2,0,L|244:272,1,88,0|0,0:0|0:0,0:0:0:0:
376,372,19186,2,0,L|288:359,1,88,8|0,0:0|0:0,0:0:0:0:
156,192,19502,5,0,0:0:0:0:
220,280,19659,1,0,0:0:0:0:
268,185,19817,1,8,0:0:0:0:
204,97,19974,1,2,0:0:0:0:
71,205,20133,6,0,P|159:189|183:165,1,88,2|2,0:0|0:0,0:0:0:0:
328,316,20449,2,0,P|298:231|307:199,1,88,10|2,0:0|0:0,0:0:0:0:
421,86,20765,5,2,0:0:0:0:
485,158,20923,1,2,0:0:0:0:
389,174,21081,1,10,0:0:0:0:
232,48,21238,5,0,0:0:0:0:
336,64,21396,1,0,0:0:0:0:
272,148,21554,1,0,0:0:0:0:
89,205,21712,5,8,0:0:0:0:
69,84,21870,1,0,0:0:0:0:
189,122,22028,1,0,0:0:0:0:
284,308,22975,6,0,P|356:304|384:276,1,99.0000037765504,2|0,0:0|0:0,0:0:0:0:
444,235,23291,6,0,P|492:279|508:299,1,88,6|0,1:2|0:0,0:0:0:0:
308,216,23607,2,0,P|284:152|300:84,1,132,8|0,0:0|0:0,0:0:0:0:
316,64,23923,1,0,0:0:0:0:
392,144,24081,1,0,1:0:0:0:
208,184,24238,2,0,L|104:204,1,88,10|0,0:0|0:0,0:0:0:0:
280,64,24554,6,0,L|164:48,1,88,2|0,1:2|0:0,0:0:0:0:
172,34,24765,2,0,L|132:38,2,29.3333333333333,0|0|10,0:0|0:0|0:0,0:0:0:0:
356,8,25028,1,0,0:0:0:0:
192,132,25186,2,0,P|168:192|164:236,1,88,2|0,0:0|1:0,0:0:0:0:
148,240,25396,2,0,P|154:263|165:281,2,29.3333333333333,0|0|10,0:0|0:0|0:0,0:0:0:0:
48,180,25659,1,0,0:0:0:0:
32,364,25817,6,0,P|112:356|132:336,1,88,2|0,1:2|0:0,0:0:0:0:
272,240,26133,1,8,0:0:0:0:
364,280,26291,1,0,0:0:0:0:
204,312,26449,2,0,P|144:272|108:248,1,88,0|0,0:0|1:0,0:0:0:0:
228,72,26765,2,0,P|237:114|248:160,1,88,10|0,0:0|0:0,0:0:0:0:
364,280,27081,5,2,1:2:0:0:
404,183,27238,1,0,0:0:0:0:
344,96,27396,2,0,P|424:84|464:80,1,88,10|0,0:0|0:0,0:0:0:0:
168,96,27712,2,0,P|88:84|48:80,2,88,2|0|8,0:0|1:0|0:0,0:0:0:0:
148,224,28133,2,0,L|204:176,1,58.6666666666667
288,192,28344,6,0,L|320:400,1,176,2|8,1:2|0:0,0:0:0:0:
204,340,28817,1,0,0:0:0:0:
391,237,28975,2,0,P|436:224|500:204,1,88,0|0,0:0|1:0,0:0:0:0:
288,192,29291,1,8,0:0:0:0:
304,296,29449,5,2,0:0:0:0:
391,237,29607,2,0,P|408:160|351:61,1,176,2|8,1:2|0:0,0:0:0:0:
208,248,30081,5,2,0:0:0:0:
121,193,30239,2,0,P|104:116|161:17,1,176,2|8,0:0|0:0,0:0:0:0:
420,120,30712,5,2,0:0:0:0:
348,32,30870,2,0,P|336:88|304:212,1,176,2|8,1:2|0:0,0:0:0:0:
92,264,31344,5,2,0:0:0:0:
164,352,31502,2,0,P|176:296|208:172,1,176,2|8,0:0|0:0,0:0:0:0:
160,28,31975,1,2,0:0:0:0:
348,32,32133,6,0,P|288:64|248:100,1,88,2|0,1:2|0:0,0:0:0:0:
204,156,32449,1,8,0:0:0:0:
24,48,32607,1,8,0:0:0:0:
112,100,32765,1,2,0:0:0:0:
124,124,32843,1,2,0:0:0:0:
124,152,32922,1,0,1:0:0:0:
116,176,33001,1,0,0:0:0:0:
96,196,33080,1,10,0:0:0:0:
0,252,33238,1,0,0:0:0:0:
204,156,33396,6,0,P|304:168|340:200,1,132,6|0,1:2|0:0,0:0:0:0:
396,216,33712,2,0,P|460:208|496:172,1,88,8|2,0:0|0:0,0:0:0:0:
508,120,34028,1,0,0:0:0:0:
420,296,34186,1,0,1:0:0:0:
326,185,34344,2,0,P|358:129|380:93,1,88,10|0,0:0|0:0,0:0:0:0:
208,248,34659,6,0,P|228:120|232:104,1,132,2|0,1:2|0:0,0:0:0:0:
248,48,34975,2,0,P|312:32|336:32,1,88,10|0,0:0|0:0,0:0:0:0:
216,184,35291,2,0,P|152:168|128:168,1,88,2|0,0:0|0:0,0:0:0:0:
112,148,35502,2,0,L|104:104,2,29.3333333333333,0|0|10,0:0|0:0|0:0,0:0:0:0:
16,328,35765,2,0,L|8:372,2,29.3333333333333,0|0|0,0:0|0:0|0:0,0:0:0:0:
24,300,35923,6,0,P|104:296|136:280,1,88,2|0,1:2|0:0,0:0:0:0:
300,184,36238,1,8,0:0:0:0:
224,336,36396,2,0,P|196:309|204:181,1,176,0|0,0:0|1:0,0:0:0:0:
215,174,36791,1,0,0:0:0:0:
227,168,36870,1,8,0:0:0:0:
349,101,37028,1,2,0:0:0:0:
480,196,37186,6,0,P|400:176|360:180,1,88,2|0,1:2|0:0,0:0:0:0:
216,264,37502,2,0,P|259:259|300:244,1,88,10|0,0:0|0:0,0:0:0:0:
395,176,37817,2,0,B|376:120|356:56,1,88,2|0,0:0|1:0,0:0:0:0:
232,68,38133,1,8,0:0:0:0:
162,149,38238,2,0,L|182:221,1,58.6666666666667,0|0,0:0|0:0,0:0:0:0:
316,280,38449,6,0,P|360:263|412:267,2,88,2|0|8,1:2|0:0|0:0,0:0:0:0:
230,354,38923,2,0,P|134:386|62:350,1,176,0|0,0:0|1:0,0:0:0:0:
0,277,39396,1,8,0:0:0:0:
156,200,39554,5,2,0:0:0:0:
256,232,39712,2,0,P|340:232|452:216,1,176,2|8,1:2|0:0,0:0:0:0:
356,360,40186,5,2,0:0:0:0:
256,328,40344,2,0,P|172:328|60:344,1,176,2|8,0:0|0:0,0:0:0:0:
256,184,40817,5,2,0:0:0:0:
196,108,40975,2,0,P|72:124|52:184,1,176,2|8,1:2|0:0,0:0:0:0:
256,168,41449,5,0,0:0:0:0:
316,84,41607,2,0,P|440:100|460:160,1,176,2|8,0:0|0:0,0:0:0:0:
256,152,42081,1,0,0:0:0:0:
172,20,42238,5,2,0:0:0:0:
340,20,42396,1,0,0:0:0:0:
256,168,42554,1,10,0:0:0:0:
256,184,42632,1,0,0:0:0:0:
256,200,42711,1,0,0:0:0:0:
256,216,42790,1,8,0:1:0:0:
256,232,42870,2,0,L|256:352,1,88,8|0,0:1|1:0,0:0:0:0:
156,264,43186,5,8,0:1:0:0:
352,168,43344,1,8,0:1:0:0:
256,72,43502,6,0,L|372:64,1,88,4|0,1:2|0:0,0:0:0:0:
436,24,43817,1,8,0:1:0:0:
256,208,43975,6,0,L|140:200,1,88,2|0,1:2|0:0,0:0:0:0:
80,160,44290,1,8,0:1:0:0:
256,332,44449,6,0,L|372:324,1,88,2|0,1:2|1:0,1:0:0:0:
436,300,44764,1,8,1:1:0:0:
332,220,44923,5,0,1:0:0:0:
332,220,45002,1,0,0:0:0:0:
332,220,45081,2,0,P|328:160|352:108,1,88,8|8,0:1|0:1,0:0:0:0:
390,44,45396,1,0,0:0:0:0:
256,100,45554,2,0,L|256:148,3,29.3333333333333,0|0|0|8,0:0|0:0|0:0|0:1,0:0:0:0:
122,44,45870,1,0,0:0:0:0:
79,243,46028,6,0,P|95:179|107:131,1,88,4|0,1:2|0:0,0:0:0:0:
122,44,46344,1,8,0:1:0:0:
256,304,46502,6,0,L|256:196,1,88,4|0,1:2|0:0,0:0:0:0:
256,100,46818,1,8,0:1:0:0:
436,244,46975,6,0,P|420:180|408:132,1,88,4|0,1:2|0:0,0:0:0:0:
390,44,47291,1,0,0:0:0:0:
306,184,47449,2,0,L|334:140,2,44,0|0|8,1:0|0:0|0:1,0:0:0:0:
241,279,47765,1,8,0:1:0:0:
80,209,47923,2,0,P|156:193|200:193,1,88,2|0,0:0|1:0,0:0:0:0:
425,106,48238,2,0,P|349:122|305:122,1,88,8|0,0:1|0:0,0:0:0:0:
244,176,48475,1,0,0:0:0:0:
244,176,48554,6,0,P|200:112|220:8,1,176,4|8,1:2|0:1,0:0:0:0:
499,142,49028,2,0,P|514:227|468:300,1,176,2|8,1:2|0:1,0:0:0:0:
224,340,49502,2,0,P|284:320|316:312,1,88,4|0,1:2|0:0,0:0:0:0:
404,200,49817,5,8,0:1:0:0:
332,112,49975,1,0,1:0:0:0:
330,133,50054,1,0,0:0:0:0:
327,154,50133,1,8,0:1:0:0:
307,313,50291,1,8,0:1:0:0:
145,257,50449,2,0,P|229:245|254:241,1,88,0|0,0:0|1:0,0:0:0:0:
491,212,50765,2,0,P|407:200|382:196,1,88,8|0,0:1|0:0,0:0:0:0:
128,95,51081,6,0,B|164:127|205:142|205:142|291:132|317:99,1,176,4|8,1:2|0:1,0:0:0:0:
104,356,51554,2,0,B|113:308|106:265|106:265|54:196|12:190,1,176,4|8,1:2|0:1,0:0:0:0:
360,244,52028,2,0,B|314:259|280:287|280:287|246:366|262:405,1,176,4|8,1:2|0:1,0:0:0:0:
414,317,52502,6,0,P|408:376|408:400,2,44,0|0|8,1:0|0:0|0:1,0:0:0:0:
491,254,52817,1,8,0:1:0:0:
304,116,52975,2,0,P|309:160|312:204,1,88,0|0,0:0|1:0,0:0:0:0:
311,217,53212,1,0,0:0:0:0:
309,231,53291,1,8,0:1:0:0:
448,188,53449,1,0,0:0:0:0:
234,342,53607,6,0,B|190:361|144:349|144:349|106:314|102:244,1,176,4|8,1:2|0:1,0:0:0:0:
264,63,54081,2,0,B|283:107|271:153|271:153|236:191|166:195,1,176,4|0,1:2|0:0,0:0:0:0:
75,156,54554,1,0,0:0:0:0:
75,156,55028,1,0,0:0:0:0:
156,95,55186,2,0,P|175:163|159:210,1,88,2|0,0:0|0:0,0:0:0:0:
117,264,55502,2,0,L|69:271,3,29.3333333333333,0|0|0|8,1:0|1:0|1:0|1:0,0:0:0:0:
23,384,55817,2,0,L|118:368,1,88,0|8,1:0|0:1,0:0:0:0:
334,191,56133,6,0,P|347:242|332:287,1,88,4|0,1:2|0:0,0:0:0:0:
256,362,56449,1,8,0:1:0:0:
176,68,56607,6,0,P|163:119|178:164,1,88,4|0,1:2|0:0,0:0:0:0:
254,239,56923,1,0,0:0:0:0:
490,151,57081,2,0,P|402:203|310:175,1,176,2|2,0:0|0:0,0:0:0:0:
96,4,57554,5,0,0:0:0:0:
176,68,57712,2,0,P|188:132|164:188,1,88,2|0,0:0|0:0,0:0:0:0:
68,296,58028,2,0,B|60:348,4,29.3333333333333
140,324,58344,1,0,0:0:0:0:
146,281,58422,1,0,0:0:0:0:
129,241,58501,1,0,0:0:0:0:
93,217,58580,1,0,0:0:0:0:
50,216,58659,5,4,1:2:0:0:
248,156,58817,1,0,0:0:0:0:
80,100,58975,1,8,0:1:0:0:
156,40,59133,2,0,B|174:75|174:75|153:182|153:182|104:225,1,176,0|0,1:0|0:0,0:0:0:0:
136,308,59607,2,0,B|228:252|228:252|264:84,1,264,2|0,0:0|0:0,0:0:0:0:
348,8,60238,6,0,L|363:94,1,88,2|0,0:0|0:0,0:0:0:0:
392,216,60554,2,0,L|384:256,3,29.3333333333333,0|0|0|0,1:0|1:0|1:0|1:0,0:0:0:0:
292,208,60870,1,0,1:0:0:0:
364,328,61028,1,0,1:0:0:0:
468,168,61186,6,0,B|400:178|400:178|365:212|365:212|278:226,1,176,4|8,1:2|0:1,0:0:0:0:
48,72,61659,2,0,B|115:82|115:82|150:116|150:116|237:130,1,176,4|8,1:2|0:1,0:0:0:0:
464,52,62133,1,4,1:2:0:0:
256,192,62212,12,0,63607,0:0:0:0:
88,144,64344,5,8,0:3:0:0:
96,156,64423,1,0,0:0:0:0:
104,168,64502,1,8,0:1:0:0:
112,184,64581,1,8,0:1:0:0:
120,196,64659,2,0,P|188:188|248:180,1,88,8|4,0:1|0:3,0:0:0:0:
384,244,64975,6,0,B|350:263|316:269|316:269|250:248|235:218,1,132,4|0,1:2|0:0,0:0:0:0:
207,185,65291,2,0,P|199:121|191:73,1,88,8|0,0:0|0:0,0:0:0:0:
308,0,65607,2,0,P|324:108|332:160,1,132,2|0,0:0|0:0,0:0:0:0:
400,172,65923,2,0,P|436:144|500:136,1,88,8|0,0:0|0:0,0:0:0:0:
248,268,66238,6,0,P|200:256|144:188,1,132,2|0,0:0|0:0,0:0:0:0:
112,96,66554,2,0,P|92:136|64:184,1,88,8|0,0:0|0:0,0:0:0:0:
220,127,66870,2,0,P|249:69|282:12,1,132,2|0,0:0|0:0,0:0:0:0:
364,28,67186,2,0,P|384:92|408:136,1,88,8|0,0:0|0:0,0:0:0:0:
488,260,67502,6,0,P|504:200|440:228,1,132,2|0,1:2|0:0,0:0:0:0:
412,296,67817,2,0,P|432:348|460:380,1,88,8|0,0:0|0:0,0:0:0:0:
320,288,68133,2,0,P|272:284|192:328,1,132,2|0,0:0|0:0,0:0:0:0:
180,348,68449,1,8,0:0:0:0:
80,368,68607,1,0,0:0:0:0:
44,172,68765,6,0,P|16:272|0:324,1,132,2|0,0:0|0:0,0:0:0:0:
80,368,69081,2,0,P|104:296|116:256,1,88,8|0,0:0|0:0,0:0:0:0:
156,112,69396,1,2,0:0:0:0:
44,172,69554,1,0,0:0:0:0:
44,172,69633,1,0,0:0:0:0:
44,172,69712,1,8,0:0:0:0:
195,195,69870,2,0,L|247:187,1,44,0|0,0:0|0:0,0:0:0:0:
304,236,70028,6,0,P|352:264|448:232,1,132,4|0,1:2|0:0,0:0:0:0:
480,200,70344,2,0,B|472:132|468:88,1,88,8|0,0:0|0:0,0:0:0:0:
413,40,70659,1,2,0:0:0:0:
377,124,70817,1,2,0:0:0:0:
379,140,70896,1,0,0:0:0:0:
381,160,70975,1,8,0:0:0:0:
480,200,71133,1,0,0:0:0:0:
372,360,71291,5,2,0:0:0:0:
280,213,71449,1,2,0:0:0:0:
392,275,71607,2,0,P|467:310|505:324,1,88,8|2,0:0|0:0,0:0:0:0:
280,213,71923,2,0,P|206:258|177:278,1,88,2|2,0:0|0:0,0:0:0:0:
171,240,72133,2,0,P|184:232|196:224,2,29.3333333333333,0|0|8,0:3|0:3|0:3,0:3:0:0:
110,338,72396,1,2,0:0:0:0:
0,185,72554,6,0,P|7:133|20:80,1,88,2|2,0:0|0:0,0:0:0:0:
177,27,72870,2,0,P|169:70|159:113,1,88,8|2,0:0|0:0,0:0:0:0:
320,199,73186,2,0,P|329:156|335:113,1,88,0|2,0:0|0:0,0:0:0:0:
508,30,73502,2,0,P|499:73|494:117,1,88,8|0,0:0|0:0,0:0:0:0:
396,228,73817,5,8,0:1:0:0:
383,251,73896,1,8,0:1:0:0:
379,277,73975,1,8,0:1:0:0:
386,302,74054,1,8,0:1:0:0:
401,323,74133,2,0,P|398:371|397:377,1,44,8|8,0:0|0:1,0:0:0:0:
295,384,74291,2,0,P|301:334|303:326,1,44,8|8,0:1|0:1,0:0:0:0:
409,213,74449,2,0,P|466:206|483:203,3,44,8|8|8|8,0:1|0:1|0:1|0:1,0:0:0:0:
488,200,74765,1,8,0:1:0:0:
508,92,74923,1,8,0:1:0:0:
320,183,75081,6,0,P|323:252|346:284,1,96.8000029541017,6|0,1:2|0:0,0:0:0:0:
508,92,75396,2,0,P|505:23|482:-9,1,96.8000029541017,10|0,0:0|0:0,0:0:0:0:
158,110,75712,2,0,P|226:90|282:70,1,96.8000029541017,2|0,0:0|1:0,0:0:0:0:
250,81,75949,1,0,0:0:0:0:
250,81,76028,1,10,0:0:0:0:
352,72,76186,1,0,0:0:0:0:
396,242,76344,6,0,P|345:235|301:220,1,96.8000029541017,0|0,1:0|0:0,0:0:0:0:
224,171,76659,1,10,0:0:0:0:
110,338,76817,2,0,L|112:370,2,32.2666676513672
64,268,76975,2,0,P|28:204|56:128,1,129.066670605469,2|0,0:0|0:0,0:0:0:0:
92,76,77291,2,0,P|128:140|100:216,1,129.066670605469,10|0,0:0|0:0,0:0:0:0:
208,304,77607,6,0,B|248:344|300:340|300:340|344:300,1,145.200004431152,2|0,1:2|0:0,0:0:0:0:
392,264,77923,2,0,P|452:252|496:236,1,96.8000029541017,10|2,0:0|0:0,0:0:0:0:
324,208,78238,1,2,0:0:0:0:
459,336,78396,2,0,P|455:384|455:392,2,48.4000014770508,2|0|10,1:2|0:0|0:0,0:0:0:0:
512,137,78712,1,0,0:0:0:0:
419,190,78870,6,0,P|363:202|299:210,1,96.8000029541017,0|0,1:0|0:0,0:0:0:0:
132,176,79186,1,8,0:0:0:0:
100,88,79344,1,2,0:0:0:0:
224,12,79502,2,0,B|222:58|222:58|198:118|180:112,1,96.8000029541017,2|2,0:0|1:2,0:0:0:0:
0,252,79817,2,0,B|1:205|1:205|25:145|44:152,1,96.8000029541017,10|2,0:0|0:0,0:0:0:0:
320,220,80133,6,0,B|306:266|267:294|267:294|215:300|158:258,1,193.600005908203,6|10,1:2|0:0,0:0:0:0:
100,84,80607,1,0,0:0:0:0:
272,0,80765,2,0,P|220:16|148:48,1,96.8000029541017,2|0,0:0|1:0,0:0:0:0:
4,100,81081,2,0,P|62:172|154:162,1,193.600005908203,10|0,0:0|1:0,0:0:0:0:
272,0,81554,5,0,0:0:0:0:
360,56,81712,2,0,P|396:132|396:180,1,96.8000029541017,10|0,0:0|0:0,0:0:0:0:
304,308,82028,1,2,0:0:0:0:
244,228,82186,1,0,1:0:0:0:
360,56,82344,2,0,P|316:120|296:152,1,96.8000029541017,10|0,0:0|0:0,0:0:0:0:
144,336,82659,6,0,P|112:280|120:176,1,145.200004431152,6|0,1:2|0:0,0:0:0:0:
189,151,82975,2,0,P|241:164|255:167,2,48.4000014770508,8|0|2,0:0|0:0|0:0,0:0:0:0:
42,119,83291,1,0,0:0:0:0:
190,31,83449,1,0,1:0:0:0:
190,31,83528,1,0,0:0:0:0:
190,31,83607,2,0,P|98:55|84:58,1,96.8000029541017,14|0,0:0|0:0,0:0:0:0:
322,31,83923,6,0,P|414:55|428:58,1,96.8000029541017,0|0,1:0|0:0,0:0:0:0:
312,152,84238,2,0,P|374:213|403:240,1,96.8000029541017,8|8,0:0|0:0,0:0:0:0:
222,334,84554,1,2,0:0:0:0:
241,308,84633,1,2,0:0:0:0:
270,294,84712,1,0,1:0:0:0:
305,290,84791,1,0,0:0:0:0:
334,303,84870,2,0,P|420:308|468:258,1,145.200004431152,10|0,0:0|0:0,0:0:0:0:
381,219,85186,6,0,P|359:138|374:96,1,96.8000029541017,6|0,1:2|0:0,0:0:0:0:
512,26,85502,2,0,P|431:48|389:33,1,96.8000029541017,10|0,0:0|0:0,0:0:0:0:
267,38,85817,2,0,B|217:34|191:42|191:42|150:83|150:118,1,145.200004431152,2|0,0:0|0:0,0:0:0:0:
208,156,86133,2,0,P|260:140|308:132,1,96.8000029541017,10|0,0:0|0:0,0:0:0:0:
96,196,86449,5,0,1:0:0:0:
64,288,86607,1,0,0:0:0:0:
208,369,86765,2,0,P|295:351|357:327,1,129.066670605469,10|0,0:0|0:0,0:0:0:0:
423,364,87081,2,0,P|424:310|391:263,1,96.8000029541017,2|0,0:0|0:0,0:0:0:0:
250,164,87396,2,0,P|287:202|344:212,1,96.8000029541017,10|0,0:0|0:0,0:0:0:0:
489,112,87712,6,0,P|441:138|417:190,1,96.8000029541017,2|0,1:2|0:0,0:0:0:0:
512,208,88028,1,10,0:0:0:0:
400,48,88186,1,2,0:0:0:0:
318,135,88344,2,0,P|328:204|336:248,1,96.8000029541017,2|2,0:0|1:2,0:0:0:0:
336,248,88581,1,0,0:0:0:0:
340,264,88659,1,10,0:0:0:0:
424,312,88817,1,0,0:0:0:0:
212,352,88975,6,0,P|222:267|228:232,1,96.8000029541017,0|0,1:0|0:0,0:0:0:0:
228,240,89212,1,0,0:0:0:0:
236,224,89291,1,8,0:0:0:0:
80,236,89449,1,2,0:0:0:0:
16,64,89607,2,0,P|84:36|143:52,1,96.8000029541017,2|2,0:0|1:2,0:0:0:0:
279,162,89923,2,0,P|231:159|189:135,1,96.8000029541017,10|2,0:0|0:0,0:0:0:0:
379,75,90238,6,0,P|420:161|387:233,1,145.200004431152,6|0,1:2|0:0,0:0:0:0:
363,281,90554,2,0,P|416:358|443:378,1,96.8000029541017,10|0,0:0|0:0,0:0:0:0:
192,251,90870,2,0,P|125:213|92:206,1,96.8000029541017,2|0,0:0|1:0,0:0:0:0:
2,96,91186,2,0,P|72:109|152:41,1,145.200004431152,10|0,0:0|0:0,0:0:0:0:
175,2,91502,5,0,1:0:0:0:
120,209,91659,1,0,0:0:0:0:
207,140,91817,2,0,P|275:120|315:87,1,96.8000029541017,10|0,0:0|0:0,0:0:0:0:
341,211,92133,2,0,P|311:282|305:309,1,96.8000029541017,2|0,0:0|1:0,0:0:0:0:
366,356,92370,1,0,0:0:0:0:
366,356,92449,2,0,P|446:353|464:340,1,96.8000029541017,10|0,0:0|0:0,0:0:0:0:
375,82,92765,6,0,B|331:140|331:140|324:182|347:225,1,145.200004431152,6|0,1:2|0:0,0:0:0:0:
402,257,93081,1,8,0:0:0:0:
270,300,93238,6,0,B|199:317|199:317|158:307|127:269,1,145.200004431152,6|0,1:2|0:0,0:0:0:0:
89,217,93554,1,8,0:0:0:0:
270,52,93712,6,0,B|287:123|287:123|277:164|239:195,1,145.200004431152,6|0,1:2|0:0,0:0:0:0:
182,237,94028,2,0,P|101:222|50:192,1,96.8000029541017,0|0,0:0|1:0,0:0:0:0:
102,85,94344,2,0,P|68:50|44:8,1,96.8000029541017,8|8,0:0|0:0,0:0:0:0:
184,136,94659,1,2,0:0:0:0:
159,162,94737,1,2,0:0:0:0:
127,177,94816,1,0,1:0:0:0:
92,180,94895,1,0,0:0:0:0:
58,169,94974,1,10,0:0:0:0:
102,85,95133,1,0,0:0:0:0:
340,106,95291,6,0,B|289:116|267:152|267:152|228:126|171:138,1,176
18,318,95765,1,0,0:0:0:0:
95,264,95923,2,0,P|102:208|79:162,1,88,2|0,0:0|0:0,0:0:0:0:
91,179,96159,1,0,0:0:0:0:
91,179,96238,1,8,0:0:0:0:
7,228,96396,1,0,0:0:0:0:
108,357,96554,6,0,P|158:379|220:359,1,88,2|0,0:0|0:0,0:0:0:0:
266,215,96870,2,0,P|258:290|254:334,1,88,8|0,0:0|0:0,0:0:0:0:
347,347,97186,2,0,P|355:272|359:228,1,88,2|0,0:0|0:0,0:0:0:0:
360,226,97423,1,0,0:0:0:0:
360,226,97502,2,0,P|368:151|372:107,1,88,8|0,0:0|0:0,0:0:0:0:
451,19,97817,6,0,P|476:79|499:108,1,88,2|0,0:0|0:0,0:0:0:0:
346,53,98133,2,0,P|299:41|240:51,1,88,8|0,0:0|0:0,0:0:0:0:
148,208,98449,2,0,P|171:122|165:94,1,88,2|0,0:0|0:0,0:0:0:0:
165,100,98686,1,0,0:0:0:0:
165,100,98765,2,0,P|169:56|188:16,1,88,8|0,0:0|0:0,0:0:0:0:
428,124,99081,5,2,0:0:0:0:
354,182,99238,1,0,0:0:0:0:
269,146,99396,1,8,0:0:0:0:
342,90,99554,1,0,0:0:0:0:
441,169,99712,2,0,P|389:177|329:185,1,88
353,181,99949,1,0,0:0:0:0:
353,181,100028,1,8,0:0:0:0:
416,40,100186,1,0,0:0:0:0:
172,120,100344,6,0,P|160:195|203:165,1,176,2|8,0:0|0:0,0:0:0:0:
238,14,100817,1,0,0:0:0:0:
56,68,100975,2,0,P|131:44|156:35,1,88,2|0,0:0|0:0,0:0:0:0:
140,41,101212,1,0,0:0:0:0:
140,41,101291,1,8,0:0:0:0:
238,14,101449,1,0,0:0:0:0:
339,28,101607,6,0,P|400:36|469:39,1,88,2|0,0:0|0:0,0:0:0:0:
280,141,101923,2,0,P|341:133|410:130,1,88,8|0,0:0|0:0,0:0:0:0:
230,257,102238,2,0,P|288:239|356:225,1,88,2|0,0:0|0:0,0:0:0:0:
314,233,102475,1,0,0:0:0:0:
314,233,102554,1,8,0:0:0:0:
416,211,102712,1,0,0:0:0:0:
280,330,102870,6,0,P|171:330|143:257,1,176,2|8,0:0|0:0,0:0:0:0:
143,281,103344,1,0,0:0:0:0:
107,115,103502,2,0,P|92:179|72:208,1,88,2|0,0:0|0:0,0:0:0:0:
80,197,103738,1,0,0:0:0:0:
80,197,103817,1,8,0:0:0:0:
0,240,103975,1,0,0:0:0:0:
107,115,104133,6,0,P|169:88|229:82,1,88,2|0,0:0|0:0,0:0:0:0:
391,81,104449,2,0,P|329:54|269:48,1,88,8|0,0:0|0:0,0:0:0:0:
125,60,104765,2,0,P|188:36|211:12,1,88,10|0,0:0|0:0,0:0:0:0:
388,37,105081,2,0,P|325:13|302:-11,1,88,8|0,0:0|0:0,0:0:0:0:
