osu file format v14

[General]
AudioFilename: nightbird lost wing.mp3
AudioLeadIn: 0
PreviewTime: 75002
Countdown: 0
SampleSet: Soft
StackLeniency: 0.7
Mode: 0
LetterboxInBreaks: 1
WidescreenStoryboard: 1

[Editor]
DistanceSpacing: 1.4
BeatDivisor: 4
GridSize: 4
TimelineZoom: 2.599999

[Metadata]
Title:nightbird lost wing
TitleUnicode:nightbird lost wing
Artist:Nekomata Master+
ArtistUnicode:猫叉Master+
Creator:captin1
Version:Hyper
Source:DanceDanceRevolution
Tags:apaffy trust hootowlstar reflec beat colette dance dance revolution -Autumn- plus naoyuki sato
BeatmapID:631143
BeatmapSetID:241892

[Difficulty]
HPDrainRate:5
CircleSize:4
OverallDifficulty:7
ApproachRate:8
SliderMultiplier:1.5
SliderTickRate:1

[Events]
//Background and Video events
0,0,"bg.png",0,0
//Break Periods
//Storyboard Layer 0 (Background)
//Storyboard Layer 1 (Fail)
//Storyboard Layer 2 (Pass)
//Storyboard Layer 3 (Foreground)
//Storyboard Sound Samples

[TimingPoints]
555,315.789473684211,4,2,2,60,1,0
3081,315.789473684211,4,2,2,60,1,0
6870,-133.333333333333,4,2,2,60,0,0
7501,-133.333333333333,4,2,2,30,0,0
7975,-133.333333333333,4,2,2,40,0,0
8133,-100,4,2,2,60,0,0
9870,-133.333333333333,4,2,2,60,0,0
10501,-133.333333333333,4,2,2,40,0,0
10659,-100,4,2,2,60,0,0
11923,-100,4,2,2,50,0,0
13186,-100,4,2,3,70,0,0
19501,-100,4,2,3,80,0,0
20765,-100,4,2,3,90,0,0
21396,-100,4,2,3,100,0,0
22186,-133.333333333333,4,2,3,60,0,0
22975,-100,4,2,3,60,0,0
23291,-100,4,2,3,70,0,0
33317,-100,4,2,3,50,0,0
33396,-100,4,2,3,70,0,0
43501,-100,4,2,3,80,0,0
54554,-100,4,2,3,60,0,0
56133,-100,4,2,3,80,0,0
57080,-100,4,2,3,60,0,0
58028,-100,4,1,1,40,0,0
58344,-100,4,1,1,60,0,0
58659,-100,4,2,3,80,0,0
59607,-100,4,2,3,60,0,0
61186,-100,4,2,3,80,0,0
64975,-100,4,2,3,70,0,0
72554,-100,4,2,3,80,0,0
73817,-100,4,2,3,50,0,0
75081,-100,4,2,4,80,0,1
95291,-100,4,2,3,70,0,0

[Colours]
Combo1 : 154,53,255
Combo2 : 250,155,69
Combo3 : 36,135,255
Combo4 : 255,94,94

[HitObjects]
154,83,3081,6,0,L|53:85,1,75,4|0,1:2|0:0,0:0:0:0:
226,41,3397,2,0,L|327:43,1,75,8|0,0:0|1:0,0:0:0:0:
396,30,3713,1,0,0:0:0:0:
464,97,3871,1,8,0:0:0:0:
140,201,4976,5,2,0:0:0:0:
305,151,5608,6,0,P|346:160|385:162,1,75,0|0,1:0|0:0,0:0:0:0:
228,106,5924,2,0,P|190:108|154:117,1,75,8|0,0:0|1:0,0:0:0:0:
83,182,6239,1,0,0:0:0:0:
97,276,6397,1,8,0:0:0:0:
355,361,6871,6,0,B|362:325|362:325|350:308|350:308|368:249|358:193,1,168.750006437302,2|8,0:0|0:0,0:0:0:0:
299,126,7502,2,0,P|295:93|293:66,2,56.2500021457673,8|4|8,0:3|0:3|0:3,0:0:0:0:
273,246,7976,1,8,0:1:0:0:
183,285,8134,6,0,L|103:278,1,75,0|0,1:0|0:0,0:0:0:0:
30,181,8450,2,0,L|110:174,1,75,8|0,0:0|1:0,0:0:0:0:
196,206,8766,1,0,0:0:0:0:
277,155,8924,1,8,0:0:0:0:
427,322,9871,6,0,L|487:315,2,56.2500021457673,0|2|0,0:0|0:0|0:0,0:0:0:0:
356,281,10345,2,0,L|303:307,1,56.2500021457673,0|8,0:0|0:1,0:0:0:0:
295,322,10581,1,8,0:1:0:0:
284,338,10660,6,0,P|247:343|191:338,1,75,0|0,1:0|0:0,0:0:0:0:
49,301,10976,2,0,P|86:299|123:304,1,75,8|0,0:0|1:0,0:0:0:0:
205,253,11292,1,0,0:0:0:0:
205,158,11450,1,8,0:0:0:0:
452,117,11924,6,0,P|402:123|343:107,1,100,0|8,1:0|0:1,0:0:0:0:
268,18,12318,1,8,0:3:0:0:
153,73,12555,2,0,L|112:68,3,37.5,0|0|8|0,0:0|0:0|0:3|0:0,0:0:0:0:
82,104,12871,2,0,L|41:99,3,37.5,8|0|4|0,0:3|0:0|0:3|0:0,0:0:0:0:
14,138,13187,6,0,P|6:192|13:233,1,75,6|0,1:2|0:0,0:0:0:0:
76,293,13502,2,0,L|154:282,1,75,8|0,0:0|0:0,0:0:0:0:
251,249,13818,2,0,L|335:268,1,75,0|0,0:0|0:0,0:0:0:0:
449,351,14134,2,0,P|437:316|428:280,1,75,8|0,0:0|0:0,0:0:0:0:
458,149,14450,2,0,P|474:104|480:69,2,75,0|0|8,0:0|0:0|0:0,0:0:0:0:
364,198,14924,1,0,0:0:0:0:
279,137,15081,2,0,P|244:124|117:133,1,150,2|8,0:0|0:0,0:0:0:0:
55,198,15555,1,0,0:0:0:0:
106,292,15713,6,0,L|110:371,1,75,2|0,1:2|0:0,0:0:0:0:
198,275,16029,2,0,L|202:196,1,75,8|0,0:0|0:0,0:0:0:0:
283,308,16345,1,2,0:0:0:0:
283,308,16502,2,0,P|326:319|368:323,1,75,0|8,0:0|0:0,0:0:0:0:
459,306,16818,1,0,0:0:0:0:
459,306,16976,2,0,P|439:238|438:158,1,150,2|8,0:0|0:0,0:0:0:0:
224,158,17608,2,0,P|232:119|235:76,1,75,2|0,0:0|0:0,0:0:0:0:
137,40,17924,1,8,0:0:0:0:
63,116,18081,1,0,0:0:0:0:
63,116,18160,1,0,0:0:0:0:
63,116,18239,6,0,L|68:206,1,75,6|0,1:2|0:0,0:0:0:0:
171,235,18555,2,0,L|166:309,1,75,8|0,0:0|0:0,0:0:0:0:
283,217,18871,2,0,L|288:307,1,75,0|0,0:0|0:0,0:0:0:0:
402,290,19187,2,0,L|397:380,1,75,8|0,0:0|0:0,0:0:0:0:
502,271,19502,2,0,P|493:234|490:197,2,75,0|0|8,0:0|0:0|0:0,0:0:0:0:
401,208,19976,1,2,0:0:0:0:
316,175,20134,2,0,P|278:175|241:180,1,75,2|2,0:0|0:0,0:0:0:0:
193,286,20450,2,0,P|230:291|267:291,1,75,10|2,0:0|0:0,0:0:0:0:
401,208,20766,6,0,L|405:129,1,75,2|2,0:0|0:0,0:0:0:0:
285,23,21081,2,0,L|289:102,1,75,10|0,0:0|0:0,0:0:0:0:
169,195,21397,1,0,0:0:0:0:
97,171,21555,1,0,0:0:0:0:
97,96,21713,1,8,0:0:0:0:
169,73,21871,1,0,0:0:0:0:
213,134,22029,1,0,0:0:0:0:
229,247,22187,6,0,P|230:291|234:323,1,56.2500021457673,2|2,0:0|0:0,0:0:0:0:
318,199,22502,2,0,L|316:180,3,18.7500007152558,0|0|0|2,0:0|0:0|0:0|0:0,0:0:0:0:
405,257,22818,1,0,0:0:0:0:
490,199,22976,2,0,L|487:121,1,75,2|0,0:0|0:0,0:0:0:0:
490,19,23292,6,0,P|444:42|394:48,1,75,6|0,1:2|0:0,0:0:0:0:
279,33,23608,1,8,0:0:0:0:
329,115,23766,2,0,P|268:104|176:113,1,150,0|0,0:0|1:0,0:0:0:0:
49,145,24239,2,0,P|36:106|33:68,1,75,10|0,0:0|0:0,0:0:0:0:
132,188,24555,2,0,P|134:233|129:303,1,100,2|0,1:2|0:0,0:0:0:0:
122,338,24871,2,0,P|166:351|195:356,1,75,8|0,0:0|0:0,0:0:0:0:
287,280,25187,2,0,P|335:276|410:285,1,100,2|0,0:0|0:0,0:0:0:0:
434,298,25502,2,0,P|451:255|458:223,1,75,8|0,0:0|0:0,0:0:0:0:
427,103,25818,6,0,P|381:115|275:118,1,150,2|8,1:2|0:0,0:0:0:0:
206,44,26292,2,0,P|162:52|128:54,1,75,0|0,0:0|0:0,0:0:0:0:
33,84,26608,1,0,1:0:0:0:
33,84,26766,2,0,P|32:144|36:168,1,75,10|0,0:0|0:0,0:0:0:0:
147,283,27081,2,0,L|221:294,1,75,2|0,1:2|0:0,0:0:0:0:
317,179,27397,2,0,L|270:237,1,75,8|0,0:0|0:0,0:0:0:0:
325,378,27713,2,0,L|297:308,1,75,2|0,0:0|1:0,0:0:0:0:
186,206,28029,2,0,L|177:151,2,50,8|0|0,0:0|0:0|0:0,0:0:0:0:
260,166,28345,6,0,P|311:178|334:179,1,75,2|0,1:2|0:0,0:0:0:0:
465,164,28660,1,8,0:0:0:0:
404,240,28818,2,0,P|425:186|434:87,1,150,0|0,0:0|1:0,0:0:0:0:
318,49,29292,2,0,L|237:46,1,75,8|2,0:0|0:0,0:0:0:0:
120,20,29608,2,0,P|125:94|150:165,1,150,2|8,1:2|0:0,0:0:0:0:
241,179,30081,1,2,0:0:0:0:
165,255,30239,2,0,B|236:275|236:275|316:261,1,150,2|8,0:0|0:0,0:0:0:0:
391,332,30713,1,2,0:0:0:0:
478,273,30871,6,0,P|471:228|467:190,1,75,2|0,1:2|0:0,0:0:0:0:
354,92,31187,1,8,0:0:0:0:
387,178,31345,1,2,0:0:0:0:
387,178,31502,2,0,P|340:199|228:193,1,150,2|8,0:0|0:0,0:0:0:0:
156,130,31976,1,2,0:0:0:0:
156,130,32134,2,0,L|72:137,1,75,2|0,1:2|0:0,0:0:0:0:
100,242,32450,2,0,L|26:236,1,75,8|8,0:0|0:0,0:0:0:0:
206,201,32766,2,0,L|249:198,4,37.5,2|2|0|0|10,0:0|0:0|1:0|0:0|0:0,0:0:0:0:
249,304,33239,1,0,0:0:0:0:
249,304,33318,1,8,0:1:0:0:
249,304,33397,6,0,P|291:320|341:328,1,75,6|0,1:2|0:0,0:0:0:0:
417,287,33713,1,8,0:0:0:0:
498,352,33871,2,0,P|489:288|486:194,1,150,0|0,0:0|1:0,0:0:0:0:
372,183,34345,2,0,P|385:131|389:101,1,75,10|0,0:0|0:0,0:0:0:0:
279,43,34660,2,0,P|285:79|295:116,1,75,2|0,1:2|0:0,0:0:0:0:
307,246,34976,2,0,P|255:259|225:263,1,75,10|0,0:0|0:0,0:0:0:0:
142,331,35292,2,0,P|115:286|123:227,1,100,2|0,0:0|0:0,0:0:0:0:
156,211,35608,2,0,P|183:166|173:106,1,100,10|0,0:0|0:0,0:0:0:0:
124,48,35924,6,0,P|179:95|245:67,1,150,2|8,1:2|0:0,0:0:0:0:
348,98,36397,2,0,P|353:139|353:174,1,75,0|0,0:0|0:0,0:0:0:0:
318,273,36713,1,0,1:0:0:0:
405,332,36871,2,0,L|486:340,1,75,8|2,0:0|0:0,0:0:0:0:
490,211,37187,2,0,P|484:169|484:131,1,75,2|0,1:2|0:0,0:0:0:0:
359,173,37502,2,0,P|365:131|365:93,1,75,10|0,0:0|0:0,0:0:0:0:
244,202,37818,2,0,P|238:160|238:122,1,75,2|0,0:0|1:0,0:0:0:0:
131,61,38134,2,0,L|182:48,2,50,8|0|0,0:0|0:0|0:0,0:0:0:0:
62,103,38450,6,0,P|59:155|62:200,1,75,2|0,1:2|0:0,0:0:0:0:
74,308,38766,1,8,0:0:0:0:
123,228,38924,2,0,P|167:246|282:249,1,150,0|0,0:0|1:0,0:0:0:0:
408,224,39397,2,0,P|371:217|334:207,1,75,8|2,0:0|0:0,0:0:0:0:
212,117,39713,2,0,L|34:133,1,150,2|8,1:2|0:0,0:0:0:0:
92,38,40187,1,2,0:0:0:0:
190,28,40345,2,0,P|228:48|338:64,1,150,2|8,0:0|0:0,0:0:0:0:
425,40,40818,1,2,0:0:0:0:
425,40,40976,6,0,B|436:114|436:114|414:196,1,150,2|8,1:2|0:0,0:0:0:0:
320,207,41450,1,0,0:0:0:0:
320,207,41608,2,0,P|311:256|316:311,2,75,2|0|8,0:0|1:0|0:0,0:0:0:0:
236,160,42081,1,0,0:0:0:0:
236,160,42239,2,0,P|227:111|232:56,2,75,2|0|10,0:0|0:0|0:0,0:0:0:0:
195,251,42713,1,0,0:0:0:0:
199,276,42792,1,8,0:1:0:0:
203,301,42871,1,8,0:1:0:0:
125,364,43029,1,0,1:0:0:0:
43,311,43187,2,0,P|32:265|30:220,1,75,8|8,0:1|0:1,0:0:0:0:
152,219,43502,6,0,P|182:182|223:74,1,150,4|8,1:2|0:1,0:0:0:0:
282,193,43976,2,0,P|252:156|211:48,1,150,0|8,1:0|0:1,0:0:0:0:
151,165,44450,2,0,P|181:128|222:20,1,150,0|8,1:0|0:1,0:0:0:0:
337,61,44924,2,0,L|418:53,2,75,0|8|8,1:0|0:1|0:1,0:0:0:0:
321,157,45397,1,0,0:0:0:0:
408,201,45555,1,0,1:0:0:0:
426,297,45713,2,0,P|395:313|348:320,1,75,8|0,0:1|0:0,0:0:0:0:
256,274,46029,6,0,P|209:263|96:298,1,150,4|8,1:2|0:1,0:0:0:0:
196,234,46502,2,0,P|147:233|44:290,1,150,4|8,1:2|0:1,0:0:0:0:
128,207,46976,2,0,P|80:216|-8:294,1,150,4|0,1:2|0:0,0:0:0:0:
89,359,47450,1,0,1:0:0:0:
89,359,47608,2,0,L|180:355,1,75,8|8,0:1|0:1,0:0:0:0:
319,338,47924,2,0,P|276:316|247:297,1,75,2|0,0:0|1:0,0:0:0:0:
101,223,48239,2,0,P|157:216|194:217,1,75,8|0,0:1|0:0,0:0:0:0:
270,170,48555,6,0,P|318:159|404:212,1,150,4|8,1:2|0:1,0:0:0:0:
254,258,49029,2,0,P|239:305|150:353,1,150,0|8,1:0|0:1,0:0:0:0:
189,204,49502,2,0,P|155:167|158:66,1,150,4|8,1:2|0:1,0:0:0:0:
246,33,49976,1,0,1:0:0:0:
327,87,50134,2,0,L|411:84,1,75,8|8,0:1|0:1,0:0:0:0:
452,209,50450,1,0,0:0:0:0:
417,300,50608,1,0,1:0:0:0:
324,271,50766,2,0,L|242:274,1,75,8|0,0:1|0:0,0:0:0:0:
129,346,51081,6,0,B|53:343|53:343|5:278,1,150,4|8,1:2|0:1,0:0:0:0:
97,126,51555,2,0,B|131:192|131:192|99:266,1,150,4|8,1:2|0:1,0:0:0:0:
9,101,52029,2,0,B|53:40|53:40|129:38,1,150,4|8,1:2|0:1,0:0:0:0:
202,111,52502,1,0,1:0:0:0:
305,102,52660,2,0,L|388:105,1,75,8|8,0:1|0:1,0:0:0:0:
485,224,52976,2,0,P|445:221|410:210,1,75,0|0,0:0|1:0,0:0:0:0:
255,282,53292,2,0,P|295:279|330:268,1,75,8|0,0:1|0:0,0:0:0:0:
180,218,53608,6,0,L|29:230,1,150,4|8,1:2|0:1,0:0:0:0:
5,135,54081,1,4,1:2:0:0:
167,331,54555,2,0,L|220:324,3,37.5,0|0|0|0,0:0|0:0|0:0|0:0,0:0:0:0:
243,305,54871,2,0,P|283:314|321:318,1,75,2|0,0:0|0:0,0:0:0:0:
386,248,55187,2,0,P|422:270|463:283,1,75,2|0,0:0|0:0,0:0:0:0:
478,162,55502,2,0,L|470:132,3,25,0|0|0|8,1:0|1:0|1:0|1:0,0:0:0:0:
344,172,55818,2,0,L|263:183,1,75,0|8,1:0|0:1,0:0:0:0:
138,254,56134,6,0,P|101:220|89:122,1,150,4|8,1:2|0:1,0:0:0:0:
156,52,56608,1,4,1:2:0:0:
360,47,57081,2,0,L|451:56,1,75,2|0,0:0|0:0,0:0:0:0:
388,173,57397,2,0,L|479:164,1,75,2|0,0:0|0:0,0:0:0:0:
357,292,57713,2,0,L|448:301,1,75,2|0,0:0|0:0,0:0:0:0:
273,347,58029,2,0,L|232:333,6,25,0|0|0|0|0|0|0,0:0|0:0|0:0|0:0|0:0|0:0|0:0,0:0:0:0:
185,269,58502,1,0,0:0:0:0:
185,269,58581,1,0,0:0:0:0:
185,268,58660,6,0,P|125:310|54:293,1,150,4|8,1:2|0:1,0:0:0:0:
105,207,59134,1,0,1:0:0:0:
291,279,59450,1,0,0:0:0:0:
291,279,59608,2,0,L|453:275,1,150,2|0,0:0|0:0,0:0:0:0:
500,121,60239,1,2,0:0:0:0:
359,33,60555,2,0,L|318:42,3,25,0|0|0|0,1:0|1:0|1:0|1:0,0:0:0:0:
283,129,60871,1,0,1:0:0:0:
177,133,61029,1,0,1:0:0:0:
99,64,61187,6,0,P|61:66|21:77,1,75,4|0,1:2|0:0,0:0:0:0:
2,207,61502,1,8,0:1:0:0:
75,324,61660,2,0,P|112:321|153:311,1,75,4|0,1:2|0:0,0:0:0:0:
172,181,61976,1,8,0:1:0:0:
126,45,62134,5,4,1:2:0:0:
256,192,62292,12,0,63923,0:0:0:0:
111,187,64345,5,8,0:3:0:0:
186,270,64502,2,0,L|223:268,2,37.5,8|0|8,0:1|0:0|0:1,0:0:0:0:
108,352,64818,1,4,0:3:0:0:
235,340,64976,6,0,P|299:344|376:360,1,112.5,4|0,1:2|0:0,0:0:0:0:
383,367,65292,1,8,0:0:0:0:
474,230,65608,1,2,0:0:0:0:
411,155,65766,2,0,L|414:111,2,37.5,0|0|8,0:0|0:0|0:0,0:0:0:0:
231,224,66239,2,0,P|185:225|150:222,1,75,2|0,0:0|0:0,0:0:0:0:
77,165,66555,1,8,0:0:0:0:
58,331,66871,2,0,P|102:322|183:325,1,112.5,2|0,0:0|0:0,0:0:0:0:
206,339,67187,1,8,0:0:0:0:
335,247,67502,6,0,L|341:113,1,112.5,0|0,1:0|0:0,0:0:0:0:
363,102,67818,1,8,0:0:0:0:
395,319,68134,1,2,0:0:0:0:
270,312,68292,2,0,P|250:276|245:262,2,37.5,0|0|8,0:0|0:0|0:0,0:0:0:0:
105,339,68766,2,0,P|118:298|126:243,1,75,2|0,0:0|0:0,0:0:0:0:
111,170,69081,1,8,0:0:0:0:
279,147,69397,2,0,P|330:160|396:162,1,112.5,2|0,0:0|0:0,0:0:0:0:
428,154,69713,1,8,0:0:0:0:
454,58,69871,5,0,0:0:0:0:
454,58,69950,1,0,0:0:0:0:
454,58,70029,2,0,L|374:46,2,75,4|0|8,1:2|0:0|0:0,0:0:0:0:
504,175,70502,2,0,P|505:224|503:260,1,75,0|2,0:0|0:0,0:0:0:0:
412,341,70818,2,0,L|325:333,1,75,2|8,0:0|0:0,0:0:0:0:
216,275,71134,5,0,0:0:0:0:
216,275,71292,2,0,L|130:286,2,75,2|2|8,0:0|0:0|0:0,0:0:0:0:
322,199,71766,1,2,0:0:0:0:
322,199,71924,2,0,L|408:210,2,75,2|2|8,0:0|0:0|0:0,0:0:0:0:
197,138,72397,1,2,0:0:0:0:
197,138,72555,2,0,P|144:141|108:141,1,75,2|2,0:0|0:0,0:0:0:0:
23,40,72871,2,0,P|60:40|97:43,1,75,8|2,0:0|0:0,0:0:0:0:
308,60,73187,2,0,P|255:63|219:63,1,75,0|2,0:0|0:0,0:0:0:0:
90,234,73502,2,0,P|127:233|164:230,1,75,8|0,0:0|0:0,0:0:0:0:
313,147,73818,5,8,0:1:0:0:
326,272,73976,1,8,0:1:0:0:
253,211,74134,1,8,0:0:0:0:
390,166,74292,1,8,0:1:0:0:
405,310,74450,2,0,P|403:351|398:387,1,75,8|8,0:1|0:1,0:0:0:0:
268,341,74766,1,8,0:1:0:0:
163,314,74924,1,8,0:1:0:0:
63,348,75081,6,0,P|34:298|24:260,1,75,6|0,1:2|0:0,0:0:0:0:
100,159,75397,2,0,L|90:237,1,75,10|0,0:0|0:0,0:0:0:0:
14,107,75713,2,0,P|10:66|8:27,1,75,2|0,0:0|1:0,0:0:0:0:
141,65,76029,2,0,P|194:77|309:76,1,150,10|0,0:0|1:0,0:0:0:0:
389,45,76502,1,0,0:0:0:0:
451,131,76660,2,0,L|452:207,1,75,10|0,0:0|0:0,0:0:0:0:
377,311,76976,1,2,0:0:0:0:
273,294,77134,1,0,1:0:0:0:
169,278,77292,2,0,P|123:280|84:288,1,75,10|0,0:0|0:0,0:0:0:0:
223,171,77608,6,0,P|270:181|306:183,1,75,2|0,1:2|0:0,0:0:0:0:
388,117,77924,1,10,0:0:0:0:
262,94,78081,1,2,0:0:0:0:
145,149,78239,2,0,P|92:149|59:144,1,75,2|2,0:0|1:2,0:0:0:0:
1,280,78555,2,0,P|65:260|150:264,1,150,10|0,0:0|1:0,0:0:0:0:
218,343,79029,1,0,0:0:0:0:
313,295,79187,2,0,L|316:220,1,75,8|2,0:0|0:0,0:0:0:0:
244,109,79502,2,0,P|281:114|318:113,1,75,2|2,0:0|1:2,0:0:0:0:
461,164,79818,2,0,P|423:163|386:168,1,75,10|2,0:0|0:0,0:0:0:0:
228,247,80134,6,0,P|181:259|146:263,1,75,6|0,1:2|0:0,0:0:0:0:
21,176,80450,2,0,L|103:182,1,75,10|0,0:0|0:0,0:0:0:0:
247,142,80766,2,0,P|200:130|165:126,1,75,2|0,0:0|1:0,0:0:0:0:
71,311,81081,2,0,B|109:345|109:345|214:359,1,150,10|0,0:0|1:0,0:0:0:0:
376,189,81713,2,0,L|456:198,1,75,10|0,0:0|0:0,0:0:0:0:
377,104,82029,2,0,L|299:109,1,75,2|0,0:0|1:0,0:0:0:0:
211,166,82345,1,10,0:0:0:0:
211,166,82502,1,0,0:0:0:0:
124,113,82660,6,0,L|106:277,1,150,6|8,1:2|0:0,0:0:0:0:
230,343,83134,2,0,L|212:179,1,150,2|0,0:0|1:0,0:0:0:0:
333,94,83608,2,0,L|315:258,1,150,14|0,0:0|1:0,0:0:0:0:
249,358,84081,1,0,0:0:0:0:
126,309,84239,2,0,P|84:307|43:310,1,75,8|8,0:0|0:0,0:0:0:0:
225,266,84555,1,2,0:0:0:0:
322,321,84713,1,0,1:0:0:0:
322,321,84792,1,0,0:0:0:0:
322,321,84871,2,0,L|404:321,1,75,10|0,0:0|0:0,0:0:0:0:
476,228,85187,6,0,P|482:181|485:143,1,75,6|0,1:2|0:0,0:0:0:0:
357,65,85502,2,0,P|360:102|365:139,1,75,10|0,0:0|0:0,0:0:0:0:
261,255,85818,2,0,P|267:208|270:170,1,75,2|0,0:0|1:0,0:0:0:0:
53,151,86134,2,0,P|95:187|186:207,1,150,10|0,0:0|1:0,0:0:0:0:
280,157,86608,1,0,0:0:0:0:
349,236,86766,2,0,L|355:319,1,75,10|0,0:0|0:0,0:0:0:0:
474,353,87081,1,2,0:0:0:0:
481,248,87239,1,0,0:0:0:0:
488,143,87397,2,0,P|485:88|486:64,1,75,10|0,0:0|0:0,0:0:0:0:
383,158,87713,6,0,P|336:164|289:164,1,75,2|0,1:2|0:0,0:0:0:0:
219,120,88029,1,10,0:0:0:0:
214,257,88187,1,2,0:0:0:0:
336,318,88345,2,0,P|381:320|417:317,1,75,2|2,0:0|1:2,0:0:0:0:
287,235,88660,2,0,L|134:246,1,150,10|0,0:0|1:0,0:0:0:0:
39,209,89134,1,0,0:0:0:0:
96,121,89292,2,0,L|173:126,1,75,8|2,0:0|0:0,0:0:0:0:
323,61,89608,2,0,P|272:67|244:74,1,75,2|2,0:0|1:2,0:0:0:0:
218,200,89924,2,0,P|254:207|291:211,1,75,10|2,0:0|0:0,0:0:0:0:
399,145,90239,6,0,L|486:142,1,75,6|0,1:2|0:0,0:0:0:0:
481,293,90555,2,0,L|394:290,1,75,10|0,0:0|0:0,0:0:0:0:
272,212,90871,2,0,P|314:209|356:211,1,75,2|0,0:0|1:0,0:0:0:0:
308,361,91187,2,0,B|263:372|263:372|140:348,1,150,10|0,0:0|1:0,0:0:0:0:
19,191,91818,2,0,L|16:116,1,75,10|0,0:0|0:0,0:0:0:0:
116,102,92134,2,0,L|119:27,1,75,2|0,0:0|1:0,0:0:0:0:
214,132,92450,1,10,0:0:0:0:
214,132,92608,1,0,0:0:0:0:
137,203,92766,6,0,P|202:236|274:219,1,150,6|8,1:2|0:0,0:0:0:0:
459,271,93239,2,0,P|393:303|321:286,1,150,6|8,1:2|0:0,0:0:0:0:
123,325,93713,2,0,P|188:357|260:340,1,150,6|0,1:2|0:0,0:0:0:0:
201,254,94187,1,0,1:0:0:0:
100,224,94345,2,0,L|26:233,1,75,8|8,0:0|0:0,0:0:0:0:
123,121,94660,1,2,0:0:0:0:
225,158,94818,1,0,1:0:0:0:
225,158,94897,1,0,0:0:0:0:
225,158,94976,2,0,L|312:155,1,75,10|0,0:0|0:0,0:0:0:0:
382,213,95292,6,0,P|387:253|405:364,2,150,6|8|2,1:2|0:0|0:0,0:0:0:0:
457,140,96081,2,0,L|454:100,2,37.5,0|0|8,0:0|0:0|0:0,0:0:0:0:
310,297,96555,2,0,P|254:309|205:306,1,75,2|0,0:0|0:0,0:0:0:0:
143,278,96871,1,8,0:0:0:0:
53,133,97187,2,0,L|60:46,2,75,2|0|8,0:0|0:0|0:0,0:0:0:0:
206,230,97818,5,2,0:0:0:0:
218,326,97976,1,0,0:0:0:0:
218,326,98055,1,0,0:0:0:0:
218,326,98134,1,8,0:0:0:0:
436,338,98450,2,0,L|441:239,1,75,2|0,0:0|0:0,0:0:0:0:
421,165,98766,1,8,0:0:0:0:
289,99,99081,2,0,P|215:106|132:91,1,150,2|8,0:0|0:0,0:0:0:0:
47,42,99555,1,0,0:0:0:0:
19,133,99713,2,0,L|27:284,1,150,2|8,0:0|0:0,0:0:0:0:
212,160,100345,6,0,P|260:134|360:169,2,150,2|8|2,0:0|0:0|0:0,0:0:0:0:
171,265,101134,2,0,L|176:306,2,37.5,0|0|8,0:0|0:0|0:0,0:0:0:0:
10,122,101608,2,0,L|18:39,1,75,2|0,0:0|0:0,0:0:0:0:
120,29,101924,1,8,0:0:0:0:
268,178,102239,2,0,L|348:180,2,75,2|0|8,0:0|0:0|0:0,0:0:0:0:
143,288,102871,5,2,0:0:0:0:
226,342,103029,1,0,0:0:0:0:
226,342,103108,1,0,0:0:0:0:
226,342,103187,1,8,0:0:0:0:
396,217,103502,2,0,L|307:220,1,75,2|0,0:0|0:0,0:0:0:0:
231,179,103818,1,8,0:0:0:0:
62,63,104134,6,0,L|66:157,2,75,2|0|8,0:0|0:0|0:0,0:0:0:0:
256,192,104766,1,10,0:0:0:0:
450,63,105081,1,8,0:0:0:0:
