osu file format v14

[General]
AudioFilename: nightbird lost wing.mp3
AudioLeadIn: 0
PreviewTime: 75002
Countdown: 0
SampleSet: Soft
StackLeniency: 0.7
Mode: 0
LetterboxInBreaks: 1
WidescreenStoryboard: 1

[Editor]
DistanceSpacing: 1.2
BeatDivisor: 4
GridSize: 4
TimelineZoom: 1.799999

[Metadata]
Title:nightbird lost wing
TitleUnicode:nightbird lost wing
Artist:Nekomata Master+
ArtistUnicode:猫叉Master+
Creator:captin1
Version:HOS' Easy
Source:DanceDanceRevolution
Tags:apaffy trust hootowlstar reflec beat colette dance dance revolution -Autumn- plus naoyuki sato
BeatmapID:694317
BeatmapSetID:241892

[Difficulty]
HPDrainRate:2
CircleSize:2.7
OverallDifficulty:2
ApproachRate:3
SliderMultiplier:0.699999999999999
SliderTickRate:1

[Events]
//Background and Video events
0,0,"bg.png",0,0
//Break Periods
//Storyboard Layer 0 (Background)
//Storyboard Layer 1 (Fail)
//Storyboard Layer 2 (Pass)
//Storyboard Layer 3 (Foreground)
//Storyboard Sound Samples

[TimingPoints]
555,315.789473684211,4,2,2,60,1,0
3081,315.789473684211,4,2,2,60,1,0
13186,-100,4,2,3,70,0,0
19502,-100,4,2,3,80,0,0
20765,-100,4,2,3,90,0,0
21397,-100,4,2,3,100,0,0
22976,-100,4,2,3,60,0,0
23291,-100,4,2,3,70,0,0
33318,-100,4,2,3,50,0,0
33397,-100,4,2,3,70,0,0
43502,-100,4,2,3,80,0,0
54555,-100,4,2,3,60,0,0
56133,-100,4,2,3,80,0,0
57081,-100,4,2,3,60,0,0
58028,-100,4,1,1,40,0,0
58344,-100,4,1,1,60,0,0
58660,-100,4,2,3,80,0,0
59607,-100,4,2,3,60,0,0
61186,-100,4,2,3,80,0,0
64976,-100,4,2,3,70,0,0
72555,-100,4,2,3,80,0,0
73818,-100,4,2,3,50,0,0
75081,-100,4,2,4,80,0,1
95291,-100,4,2,3,70,0,0

[Colours]
Combo1 : 154,53,255
Combo2 : 250,155,69
Combo3 : 36,135,255
Combo4 : 255,94,94

[HitObjects]
124,120,3081,5,2,0:0:0:0:
204,152,3397,2,0,L|308:144,1,105
308,143,4976,2,0,P|336:216|324:288,1,140,0|2,0:0|0:0,0:0:0:0:
260,324,5923,6,0,B|208:340|208:340|157:331,1,105
64,248,6870,2,0,P|68:184|180:212,1,210
144,284,8133,5,2,0:0:0:0:
208,340,8449,2,0,L|312:324,1,105
311,324,10028,2,0,P|312:280|300:248,1,69.9999999999999
252,188,10660,5,2,0:0:0:0:
168,168,10976,2,0,L|64:184,1,105
28,304,11923,2,0,B|88:328|88:328|160:296|244:312,1,210
312,336,13186,6,0,P|376:348|400:224,1,210,4|8,0:0|0:0,0:0:0:0:
344,180,14449,2,0,P|337:115|384:48,2,140,2|0|2,0:0|0:0|0:0,0:0:0:0:
409,232,16028,6,0,L|256:224,1,140,8|8,0:0|0:0,0:0:0:0:
204,172,16976,2,0,P|152:156|56:268,1,210,2|8,0:0|0:0,0:0:0:0:
88,332,18239,6,0,B|156:352|156:352|296:328,1,210,2|8,0:0|0:0,0:0:0:0:
364,280,19502,2,0,B|372:232|340:176|340:176|340:132|388:80,1,210,2|8,0:0|0:0,0:0:0:0:
456,44,20765,6,0,L|240:60,1,210,2|8,0:0|0:0,0:0:0:0:
172,96,22028,1,0,0:0:0:0:
172,96,23291,6,0,P|200:164|124:272,1,210,4|8,0:0|0:0,0:0:0:0:
56,304,24555,2,0,L|208:336,1,140,2|0,0:0|0:0,0:0:0:0:
272,304,25502,1,8,0:0:0:0:
344,344,25818,6,0,P|416:352|472:236,1,210,2|8,0:0|0:0,0:0:0:0:
432,172,27081,2,0,P|424:120|432:96,1,69.9999999999999,2|8,0:0|0:0,0:0:0:0:
488,44,27712,1,0,0:0:0:0:
408,24,28028,1,8,0:0:0:0:
344,76,28344,6,0,B|296:88|296:88|248:76|248:76|204:92|136:84,1,210,2|8,0:0|0:0,0:0:0:0:
88,20,29607,2,0,L|104:172,1,140,2|0,0:0|0:0,0:0:0:0:
140,236,30555,1,8,0:0:0:0:
84,300,30870,6,0,P|152:320|224:220,1,210,2|8,0:0|0:0,0:0:0:0:
160,168,32133,2,0,L|308:180,1,140,2|0,0:0|0:0,0:0:0:0:
372,136,33081,1,8,0:0:0:0:
444,180,33397,6,0,P|456:248|432:316,1,140,4|0,0:0|0:0,0:0:0:0:
360,356,34344,1,8,0:0:0:0:
284,320,34660,2,0,L|72:336,1,210,2|8,0:0|0:0,0:0:0:0:
12,280,35923,6,0,P|4:204|32:140,1,140,2|0,0:0|0:0,0:0:0:0:
80,80,36870,1,8,0:0:0:0:
148,132,37186,2,0,B|216:144|216:144|355:124,1,210,2|8,0:0|0:0,0:0:0:0:
396,48,38449,6,0,P|440:104|376:208,1,210,2|8,0:0|0:0,0:0:0:0:
300,244,39712,2,0,P|244:288|224:360,2,140,2|0|2,0:0|0:0|0:0,0:0:0:0:
375,208,41291,6,0,B|396:144|396:144|384:68,1,140,8|8,0:0|0:0,0:0:0:0:
312,28,42239,2,0,B|244:24|244:24|180:44|180:44|92:36,1,210,2|8,0:0|0:0,0:0:0:0:
40,88,43502,6,0,P|20:160|28:200,1,105,4|12,0:0|0:0,0:0:0:0:
68,308,44449,2,0,L|220:296,1,140,4|8,0:0|0:0,0:0:0:0:
284,260,45397,1,0,0:0:0:0:
364,288,45712,1,8,0:0:0:0:
404,364,46028,6,0,P|440:328|448:276,2,105,4|12|4,0:0|0:0|0:0,0:0:0:0:
364,288,47291,2,0,L|348:136,1,140
308,76,48239,1,8,0:0:0:0:
264,148,48555,6,0,P|224:164|148:156,1,105,4|12,0:0|0:0,0:0:0:0:
56,92,49502,2,0,L|44:16,2,69.9999999999999,4|0|8,0:0|0:0|0:0,0:0:0:0:
84,172,50449,2,0,L|73:241,1,69.9999999999999,0|8,0:0|0:0,0:0:0:0:
76,324,51081,6,0,B|124:340|124:340|184:328,1,105,4|12,0:0|0:0,0:0:0:0:
276,251,52028,2,0,P|384:272|294:336,1,280,4|8,0:0|0:0,0:0:0:0:
216,308,53607,6,0,L|104:324,2,105,4|12|0,0:0|0:0|0:0,0:0:0:0:
284,260,54870,2,0,P|356:248|416:288,1,140,0|2,0:0|0:0,0:0:0:0:
460,352,55818,1,2,0:0:0:0:
496,276,56133,6,0,L|504:172,1,105,4|12,0:0|0:0,0:0:0:0:
440,64,57081,2,0,B|364:44|364:84|288:64,1,140
224,40,58028,2,0,L|144:52,1,69.9999999999999,2|2,0:0|0:0,0:0:0:0:
80,92,58660,6,0,P|48:136|48:196,1,105,4|12,0:0|0:0,0:0:0:0:
76,308,59607,2,0,B|140:328|140:328|216:316,1,140
284,272,60555,2,0,P|284:216|280:200,1,69.9999999999999,2|2,0:0|0:0,0:0:0:0:
228,136,61186,6,0,P|224:76|244:32,2,105,4|12|4,0:0|0:0|0:0,0:0:0:0:
256,192,62291,12,4,64976,0:0:0:0:
40,256,66239,6,0,P|32:304|164:332,1,210,2|8,0:0|0:0,0:0:0:0:
216,284,67502,2,0,B|272:276|272:276|327:289|327:289|372:272|424:280,1,210,2|8,0:0|0:0,0:0:0:0:
464,352,68765,2,0,L|480:136,1,210,2|8,0:0|0:0,0:0:0:0:
444,64,70028,6,0,P|360:48|304:152,1,210,4|8,0:0|0:0,0:0:0:0:
372,192,71291,2,0,B|232:172|232:172|152:200,1,210,2|8,0:0|0:0,0:0:0:0:
140,276,72555,6,0,P|156:312|308:316,1,210,2|8,0:0|0:0,0:0:0:0:
328,240,73818,2,0,L|316:96,1,140,2|0,0:0|0:0,0:0:0:0:
264,36,74765,1,8,0:0:0:0:
199,92,75081,6,0,B|131:112|131:112|59:100,1,140,4|0,0:0|0:0,0:0:0:0:
20,28,76028,2,0,L|12:176,1,140,8|8,0:0|0:0,0:0:0:0:
60,236,76976,2,0,P|72:280|68:316,1,69.9999999999999,0|8,0:0|0:0,0:0:0:0:
4,356,77607,6,0,L|156:340,1,140,2|0,0:0|0:0,0:0:0:0:
220,304,78555,2,0,P|284:308|340:360,2,140,8|8|8,0:0|0:0|0:0,0:0:0:0:
143,341,80133,6,0,P|136:288|188:224,1,140,4|0,0:0|0:0,0:0:0:0:
268,252,81081,2,0,B|336:260|336:260|412:232,1,140,8|8,0:0|0:0,0:0:0:0:
452,168,82028,2,0,L|456:88,1,69.9999999999999,0|8,0:0|0:0,0:0:0:0:
408,28,82660,6,0,P|360:28|300:60,1,105,4|4,0:0|0:0,0:0:0:0:
240,156,83607,2,0,B|172:172|172:172|96:152,1,140,4|8,0:0|0:0,0:0:0:0:
52,88,84555,2,0,L|44:8,2,69.9999999999999,0|8|4,0:0|0:0|0:0,0:0:0:0:
20,164,85502,6,0,L|11:305,1,140,8|8,0:0|0:0,0:0:0:0:
68,364,86449,2,0,B|128:368|180:348|180:348|280:360,1,210,0|8,0:0|0:0,0:0:0:0:
356,332,87712,6,0,P|372:264|340:196,1,140,2|0,0:0|0:0,0:0:0:0:
280,148,88660,2,0,P|264:80|296:12,2,140,8|8|8,0:0|0:0|0:0,0:0:0:0:
345,201,90239,6,0,L|420:204,2,69.9999999999999,4|8|0,0:0|0:0|0:0,0:0:0:0:
268,232,91186,2,0,P|204:248|128:248,1,140,8|8,0:0|0:0,0:0:0:0:
60,204,92133,2,0,L|52:128,1,69.9999999999999,0|8,0:0|0:0,0:0:0:0:
72,52,92765,6,0,P|124:48|176:76,2,105,4|4|4,0:0|0:0|0:0,0:0:0:0:
36,128,94028,2,0,B|32:184|32:184|48:232|48:232|32:280|56:336,1,210,0|8,0:0|0:0,0:0:0:0:
132,360,95291,6,0,L|284:348,1,140,4|2,0:0|0:0,0:0:0:0:
432,304,96555,2,0,P|444:216|428:160,1,140,2|2,0:0|0:0,0:0:0:0:
300,60,97818,6,0,B|232:52|232:52|156:80,1,140,2|2,0:0|0:0,0:0:0:0:
84,224,99081,2,0,L|68:368,2,140,2|2|4,0:0|0:0|0:0,0:0:0:0:
164,76,100976,5,2,0:0:0:0:
252,216,101607,2,0,P|316:224|380:188,1,140,2|2,0:0|0:0,0:0:0:0:
348,24,102870,6,0,P|284:16|220:52,2,140,2|2|2,0:0|0:0|0:0,0:0:0:0:
400,92,104449,2,0,L|392:168,1,69.9999999999999,8|8,0:0|0:0,0:0:0:0:
356,240,105081,1,8,0:0:0:0:
