osu file format v14

[General]
AudioFilename: nightbird lost wing.mp3
AudioLeadIn: 0
PreviewTime: 75002
Countdown: 0
SampleSet: Soft
StackLeniency: 0.7
Mode: 0
LetterboxInBreaks: 1
WidescreenStoryboard: 1

[Editor]
DistanceSpacing: 0.8
BeatDivisor: 4
GridSize: 16
TimelineZoom: 2.599999

[Metadata]
Title:nightbird lost wing
TitleUnicode:nightbird lost wing
Artist:Nekomata Master+
ArtistUnicode:猫叉Master+
Creator:captin1
Version:Another
Source:DanceDanceRevolution
Tags:apaffy trust hootowlstar reflec beat colette dance dance revolution -Autumn- plus naoyuki sato
BeatmapID:558509
BeatmapSetID:241892

[Difficulty]
HPDrainRate:7
CircleSize:4.2
OverallDifficulty:8
ApproachRate:9.3
SliderMultiplier:1.8
SliderTickRate:1

[Events]
//Background and Video events
0,0,"bg.png",0,0
//Break Periods
//Storyboard Layer 0 (Background)
//Storyboard Layer 1 (Fail)
//Storyboard Layer 2 (Pass)
//Storyboard Layer 3 (Foreground)
//Storyboard Sound Samples

[TimingPoints]
555,315.789473684211,4,2,2,60,1,0
3081,315.789473684211,4,2,2,60,1,0
6870,-133.333333333333,4,2,2,60,0,0
7502,-100,4,2,2,30,0,0
7976,-100,4,2,2,40,0,0
8133,-100,4,2,2,60,0,0
10502,-100,4,2,2,50,0,0
10660,-100,4,2,2,60,0,0
13186,-100,4,2,3,70,0,0
19502,-100,4,2,3,80,0,0
20765,-100,4,2,3,90,0,0
21397,-100,4,2,3,100,0,0
22186,-100,4,2,3,60,0,0
23291,-100,4,2,3,70,0,0
33318,-100,4,2,3,50,0,0
33397,-100,4,2,3,70,0,0
41528,-100,4,2,3,50,0,0
41607,-100,4,2,3,70,0,0
42160,-100,4,2,3,50,0,0
42239,-100,4,2,3,70,0,0
42791,-100,4,2,3,50,0,0
42870,-100,4,2,3,70,0,0
43502,-100,4,2,3,80,0,0
54555,-100,4,2,3,60,0,0
56133,-100,4,2,3,80,0,0
57081,-100,4,2,3,60,0,0
58028,-100,4,1,1,40,0,0
58344,-100,4,1,1,60,0,0
58660,-100,4,2,3,80,0,0
59607,-100,4,2,3,60,0,0
61186,-100,4,2,3,80,0,0
64344,-100,4,2,3,40,0,0
64976,-100,4,2,3,70,0,0
72555,-100,4,2,3,80,0,0
73818,-100,4,2,3,50,0,0
75081,-100,4,2,4,80,0,1
95291,-133.333333333333,4,2,3,70,0,0

[Colours]
Combo1 : 154,53,255
Combo2 : 250,155,69
Combo3 : 36,135,255
Combo4 : 255,94,94

[HitObjects]
185,287,3080,5,4,1:2:0:0:
149,105,3238,1,0,0:0:0:0:
106,329,3396,2,0,P|113:269|114:230,1,90,8|0,0:0|1:0,0:0:0:0:
170,80,3712,1,0,0:0:0:0:
40,270,3870,1,8,0:0:0:0:
472,114,4975,5,2,0:0:0:0:
472,114,5607,5,0,1:0:0:0:
263,63,5765,1,0,0:0:0:0:
487,33,5923,2,0,P|441:44|400:65,1,90,8|0,0:0|1:0,0:0:0:0:
239,31,6238,1,0,0:0:0:0:
439,139,6396,1,8,0:0:0:0:
46,143,6870,6,0,B|72:156|111:137|111:137|170:178|241:154,1,202.500007724762,2|8,0:0|0:0,0:0:0:0:
163,74,7501,1,8,0:3:0:0:
106,225,7659,1,4,0:3:0:0:
163,74,7817,1,4,0:3:0:0:
291,172,7975,1,8,0:1:0:0:
125,326,8133,5,0,1:0:0:0:
166,157,8291,1,0,0:0:0:0:
326,259,8449,2,0,P|375:260|421:254,1,90,8|0,0:0|1:0,0:0:0:0:
176,181,8765,1,0,0:0:0:0:
135,350,8923,1,8,0:0:0:0:
413,313,9870,5,0,0:0:0:0:
426,227,10028,1,2,0:0:0:0:
413,313,10186,1,0,0:0:0:0:
328,332,10344,1,0,0:0:0:0:
272,258,10501,5,8,0:1:0:0:
272,258,10580,1,8,0:1:0:0:
272,258,10659,1,0,1:0:0:0:
301,87,10817,1,0,0:0:0:0:
357,334,10975,2,0,P|346:282|346:238,1,90,8|0,0:0|1:0,0:0:0:0:
322,52,11291,1,0,0:0:0:0:
208,216,11449,1,8,0:0:0:0:
64,53,11923,6,0,L|68:123,1,60,0|0,1:0|0:0,0:0:0:0:
158,25,12133,2,0,L|162:95,1,60,8|0,0:1|0:0,0:0:0:0:
254,45,12344,2,0,L|258:115,1,60,8|0,0:1|0:0,0:0:0:0:
188,170,12554,5,8,0:1:0:0:
179,200,12633,1,0,0:0:0:0:
188,230,12712,1,8,0:3:0:0:
208,253,12791,1,0,0:0:0:0:
237,263,12870,1,8,0:3:0:0:
268,260,12949,1,0,0:0:0:0:
294,242,13028,1,4,0:3:0:0:
307,213,13107,1,0,0:0:0:0:
307,181,13186,6,0,P|303:124|305:86,1,90,6|0,1:2|0:0,0:0:0:0:
466,25,13501,1,8,0:0:0:0:
441,193,13659,1,0,0:0:0:0:
277,120,13817,1,0,0:0:0:0:
364,318,13975,1,0,0:0:0:0:
364,318,14054,1,0,0:0:0:0:
364,318,14133,2,0,L|373:220,1,90,8|0,0:0|0:0,0:0:0:0:
237,38,14449,6,0,L|335:41,1,90
130,184,14765,2,0,L|228:187,1,90,8|0,0:0|0:0,0:0:0:0:
364,318,15080,2,0,L|274:320,1,90,2|0,0:0|0:0,0:0:0:0:
277,120,15396,2,0,L|375:117,1,90,8|0,0:0|0:0,0:0:0:0:
202,261,15712,5,2,1:2:0:0:
364,227,15870,1,0,0:0:0:0:
128,210,16028,2,0,P|83:212|32:209,1,90,8|0,0:0|0:0,0:0:0:0:
260,194,16344,1,2,0:0:0:0:
83,335,16501,2,0,P|127:332|172:334,1,90,0|8,0:0|0:0,0:0:0:0:
279,357,16817,1,0,0:0:0:0:
332,142,16975,5,2,0:0:0:0:
350,273,17133,1,0,0:0:0:0:
277,190,17291,1,8,0:0:0:0:
404,224,17449,1,0,0:0:0:0:
188,259,17607,2,0,L|278:261,1,90,2|0,0:0|0:0,0:0:0:0:
278,261,17844,1,0,0:0:0:0:
278,261,17923,1,8,0:0:0:0:
91,323,18080,5,0,0:0:0:0:
77,294,18159,1,0,0:0:0:0:
71,262,18238,2,0,P|66:206|66:148,1,90,6|0,1:2|0:0,0:0:0:0:
222,68,18554,1,8,0:0:0:0:
42,89,18712,1,0,0:0:0:0:
314,162,18870,1,0,0:0:0:0:
134,141,19028,1,0,0:0:0:0:
345,37,19186,1,8,0:0:0:0:
366,217,19344,1,0,0:0:0:0:
206,293,19501,5,0,0:0:0:0:
198,192,19659,1,0,0:0:0:0:
289,236,19817,1,8,0:0:0:0:
206,293,19975,1,2,0:0:0:0:
107,148,20133,5,2,0:0:0:0:
190,91,20291,1,2,0:0:0:0:
198,192,20449,1,10,0:0:0:0:
107,148,20607,1,2,0:0:0:0:
281,135,20765,5,2,0:0:0:0:
115,249,20923,1,2,0:0:0:0:
289,236,21080,1,10,0:0:0:0:
107,148,21238,1,0,0:0:0:0:
206,293,21396,5,0,0:0:0:0:
190,91,21554,1,0,0:0:0:0:
115,249,21712,1,8,0:0:0:0:
281,135,21870,1,0,0:0:0:0:
296,335,22028,5,0,0:0:0:0:
374,85,22186,6,0,L|372:38,1,45,2|0,0:0|0:0,0:0:0:0:
452,172,22344,2,0,L|450:125,1,45,2|0,0:0|0:0,0:0:0:0:
362,241,22501,2,0,L|366:275,2,30
356,207,22659,1,2,0:0:0:0:
297,58,22817,1,0,0:0:0:0:
137,226,22975,2,0,B|168:245|168:245|207:243|265:188,1,135,2|0,0:0|0:0,0:0:0:0:
277,167,23291,6,0,L|276:270,1,90,6|0,1:2|0:0,0:0:0:0:
117,152,23607,1,8,0:0:0:0:
139,313,23765,1,0,0:0:0:0:
210,221,23923,1,0,0:0:0:0:
43,312,24080,1,0,1:0:0:0:
201,141,24238,2,0,P|243:137|303:142,1,90,10|0,0:0|0:0,0:0:0:0:
429,273,24554,6,0,P|390:298|300:268,1,120,2|0,1:2|0:0,0:0:0:0:
272,223,24870,2,0,L|172:230,1,90,10|0,0:0|0:0,0:0:0:0:
122,29,25186,2,0,L|129:141,1,90,2|0,0:0|1:0,0:0:0:0:
30,246,25501,2,0,P|30:297|47:338,1,90,10|0,0:0|0:0,0:0:0:0:
279,278,25817,6,0,P|211:249|106:281,1,180,2|8,1:2|0:0,0:0:0:0:
352,336,26291,2,0,L|450:340,1,90
444,193,26607,1,0,1:0:0:0:
444,193,26686,1,0,0:0:0:0:
444,193,26765,2,0,L|354:189,1,90,10|0,0:0|0:0,0:0:0:0:
168,244,27080,6,0,P|168:289|174:335,1,90,2|0,1:2|0:0,0:0:0:0:
35,175,27396,2,0,P|39:130|39:85,1,90,10|0,0:0|0:0,0:0:0:0:
68,271,27712,1,2,0:0:0:0:
223,169,27870,2,0,P|222:124|217:78,1,90,0|8,1:0|0:0,0:0:0:0:
276,30,28133,1,0,0:0:0:0:
351,40,28238,1,0,0:0:0:0:
383,110,28344,6,0,P|377:170|364:217,1,90,2|0,1:2|0:0,0:0:0:0:
211,333,28659,1,8,0:0:0:0:
401,286,28817,2,0,L|289:287,1,90
116,189,29133,1,0,1:0:0:0:
116,189,29212,1,0,0:0:0:0:
116,189,29291,2,0,L|120:286,1,90,8|2,0:0|0:0,0:0:0:0:
256,118,29607,6,0,L|252:215,1,90,2|0,1:2|0:0,0:0:0:0:
211,333,29923,1,8,0:0:0:0:
183,146,30080,1,2,0:0:0:0:
332,226,30238,1,2,0:0:0:0:
170,243,30396,1,0,1:0:0:0:
170,243,30475,1,0,0:0:0:0:
170,243,30554,2,0,L|68:246,1,90,8|2,0:0|0:0,0:0:0:0:
311,322,30870,6,0,L|413:325,1,90,2|0,1:2|0:0,0:0:0:0:
254,256,31186,1,8,0:0:0:0:
449,223,31344,1,2,0:0:0:0:
211,333,31501,2,0,P|162:335|110:328,1,90,2|0,0:0|1:0,0:0:0:0:
72,274,31738,1,0,0:0:0:0:
72,274,31817,1,8,0:0:0:0:
218,175,31975,1,2,0:0:0:0:
283,379,32133,6,0,P|287:329|284:282,1,90,2|0,1:2|0:0,0:0:0:0:
165,106,32449,2,0,L|115:108,1,45,8|0,0:0|0:0,0:0:0:0:
240,60,32607,2,0,L|290:62,1,45,8|0,0:0|0:0,0:0:0:0:
385,31,32765,1,2,0:0:0:0:
394,60,32844,1,2,0:0:0:0:
399,90,32923,1,0,1:0:0:0:
397,121,33001,1,0,0:0:0:0:
388,151,33080,2,0,P|384:200|392:292,1,135,10|8,0:0|0:1,0:0:0:0:
420,356,33396,6,0,P|373:358|326:328,1,90,6|0,1:2|0:0,0:0:0:0:
140,187,33712,1,8,0:0:0:0:
266,326,33870,2,0,P|227:347|182:344,1,90,2|0,0:0|0:0,0:0:0:0:
70,152,34186,1,0,1:0:0:0:
182,344,34344,2,0,P|180:297|183:250,1,90,10|0,0:0|0:0,0:0:0:0:
309,52,34659,6,0,P|311:96|309:141,1,90,2|0,1:2|0:0,0:0:0:0:
159,72,34975,1,10,0:0:0:0:
189,243,35133,1,0,0:0:0:0:
389,125,35291,2,0,P|386:180|312:220,1,120,2|0,0:0|0:0,0:0:0:0:
202,125,35607,2,0,P|259:111|309:142,1,120,10|0,0:0|0:0,0:0:0:0:
266,282,35923,6,0,B|209:291|209:291|76:271,1,180,2|8,1:2|0:0,0:0:0:0:
294,357,36396,2,0,P|345:349|385:349,1,90
483,212,36712,1,0,1:0:0:0:
483,212,36791,1,0,0:0:0:0:
483,212,36870,2,0,P|438:211|393:203,1,90,8|2,0:0|0:0,0:0:0:0:
218,61,37186,6,0,L|222:159,1,90,2|0,1:2|0:0,0:0:0:0:
383,34,37501,2,0,L|379:132,1,90,10|0,0:0|0:0,0:0:0:0:
272,281,37817,1,2,0:0:0:0:
153,124,37975,2,0,P|152:174|157:223,1,90,0|8,1:0|0:0,0:0:0:0:
193,283,38238,1,0,0:0:0:0:
272,281,38344,1,0,0:0:0:0:
326,224,38449,6,0,P|381:217|444:217,1,90,2|0,1:2|0:0,0:0:0:0:
136,345,38765,2,0,P|91:343|46:336,1,90,8|0,0:0|0:0,0:0:0:0:
61,137,39080,1,0,0:0:0:0:
83,256,39238,2,0,L|82:208,1,45,0|0,1:0|0:0,0:0:0:0:
88,64,39396,2,0,P|43:62|3:83,1,90,8|2,0:0|0:0,0:0:0:0:
193,283,39712,6,0,L|300:288,1,90,2|0,1:2|0:0,0:0:0:0:
442,165,40028,1,8,0:0:0:0:
265,186,40186,1,2,0:0:0:0:
475,247,40344,2,0,P|421:242|357:246,1,90,2|0,0:0|1:0,0:0:0:0:
303,264,40580,1,0,0:0:0:0:
303,264,40659,2,0,L|297:356,1,90,8|2,0:0|0:0,0:0:0:0:
363,162,40975,6,0,L|357:72,1,90,2|0,1:2|0:0,0:0:0:0:
125,117,41291,2,0,P|164:141|257:113,1,135,8|8,0:0|0:1,0:0:0:0:
274,100,41607,2,0,L|272:199,1,90,2|0,0:0|1:0,0:0:0:0:
495,325,41923,2,0,P|456:301|363:329,1,135,8|8,0:0|0:1,0:0:0:0:
346,342,42238,6,0,L|247:340,1,90,2|0,0:0|0:0,0:0:0:0:
76,287,42554,1,10,0:0:0:0:
61,259,42633,1,0,0:0:0:0:
55,227,42712,1,0,0:0:0:0:
54,195,42791,1,8,0:1:0:0:
60,164,42870,2,0,L|125:169,1,45,8|0,0:1|0:0,0:0:0:0:
92,95,43028,2,0,L|137:92,1,45,0|0,1:0|0:0,0:0:0:0:
121,20,43186,5,8,0:1:0:0:
134,236,43344,1,8,0:1:0:0:
400,159,43501,5,4,1:2:0:0:
206,167,43659,1,0,0:0:0:0:
339,222,43817,1,8,0:1:0:0:
211,27,43975,5,2,1:2:0:0:
405,35,44133,1,0,0:0:0:0:
272,90,44291,1,8,0:1:0:0:
241,314,44449,6,0,P|258:266|261:223,1,90,2|0,1:2|0:0,0:0:0:0:
206,167,44686,1,0,0:0:0:0:
206,167,44765,1,8,0:1:0:0:
322,341,44923,5,0,1:0:0:0:
177,253,45080,1,8,0:1:0:0:
327,170,45238,1,8,0:1:0:0:
322,341,45396,1,0,0:0:0:0:
130,317,45554,2,0,L|100:319,2,30,0|0|0,1:0|0:0|0:0,0:0:0:0:
99,247,45712,2,0,P|82:203|81:150,1,90,8|0,0:1|0:0,0:0:0:0:
362,249,46028,5,4,1:2:0:0:
257,80,46186,1,0,0:0:0:0:
262,230,46344,1,8,0:1:0:0:
429,16,46501,5,4,1:2:0:0:
324,185,46659,1,0,0:0:0:0:
329,35,46817,1,8,0:1:0:0:
454,307,46975,6,0,P|421:335|299:294,1,180,4|0,1:2|0:0,0:0:0:0:
243,102,47449,5,0,1:0:0:0:
362,249,47607,1,8,0:1:0:0:
158,170,47765,1,8,0:1:0:0:
329,35,47923,1,2,0:0:0:0:
260,209,48080,5,0,1:0:0:0:
243,102,48238,1,8,0:1:0:0:
345,142,48396,2,0,L|396:146,2,30,0|0|0,0:0|0:0|0:0,0:0:0:0:
326,118,48554,5,4,1:2:0:0:
176,36,48712,1,0,0:0:0:0:
24,123,48870,1,8,0:1:0:0:
263,57,49028,5,2,1:2:0:0:
91,60,49186,1,0,0:0:0:0:
2,211,49344,1,8,0:1:0:0:
235,190,49501,6,0,P|185:180|131:182,1,90,4|0,1:2|0:0,0:0:0:0:
87,235,49738,1,0,0:0:0:0:
87,235,49817,1,8,0:1:0:0:
235,340,49975,1,0,1:0:0:0:
312,177,50133,2,0,P|322:127|320:73,1,90,8|8,0:1|0:1,0:0:0:0:
103,66,50449,5,0,0:0:0:0:
250,55,50607,1,0,1:0:0:0:
89,53,50765,1,8,0:1:0:0:
114,212,50923,1,0,0:0:0:0:
321,97,51080,6,0,P|407:91|469:153,1,180,4|8,1:2|0:1,0:0:0:0:
248,191,51554,2,0,P|198:118|222:34,1,180,4|8,1:2|0:1,0:0:0:0:
365,208,52028,2,0,P|327:286|242:308,1,180,4|8,1:2|0:1,0:0:0:0:
81,211,52501,1,0,1:0:0:0:
81,211,52580,1,0,0:0:0:0:
81,211,52659,2,0,L|77:104,1,90,8|8,0:1|0:1,0:0:0:0:
233,34,52975,5,0,0:0:0:0:
166,248,53133,1,0,1:0:0:0:
48,84,53291,2,0,L|114:90,1,45,8|0,0:1|0:0,0:0:0:0:
265,107,53449,2,0,L|266:139,2,30,0|0|0,0:0|0:0|0:0,0:0:0:0:
326,218,53607,5,4,1:2:0:0:
207,282,53765,1,0,0:0:0:0:
181,93,53923,1,8,0:1:0:0:
284,283,54080,2,0,P|259:337|134:318,1,180,4|0,1:2|0:0,0:0:0:0:
53,166,54554,6,0,L|46:118,3,45,0|0|0|0,0:0|0:0|0:0|0:0,0:0:0:0:
128,167,54870,2,0,P|132:214|132:261,1,90,2|0,0:0|0:0,0:0:0:0:
282,356,55186,2,0,P|282:311|286:266,1,90,2|0,0:0|0:0,0:0:0:0:
363,115,55501,6,0,L|358:76,3,30,0|0|0|8,1:0|1:0|1:0|1:0,0:0:0:0:
401,294,55817,1,0,1:0:0:0:
437,84,55975,1,8,0:1:0:0:
219,177,56133,6,0,L|310:180,1,90,4|0,1:2|0:0,0:0:0:0:
469,185,56449,1,8,0:1:0:0:
208,261,56607,2,0,P|155:226|170:111,1,180,4|0,1:2|0:0,0:0:0:0:
366,25,57080,6,0,L|363:114,1,90,2|0,0:0|0:0,0:0:0:0:
453,191,57396,2,0,L|456:280,1,90,2|0,0:0|0:0,0:0:0:0:
311,230,57712,2,0,L|308:319,1,90,2|0,0:0|0:0,0:0:0:0:
155,286,58028,6,0,L|114:288,2,30,0|0|0,0:0|0:0|0:0,0:0:0:0:
200,230,58186,2,0,L|241:232,2,30,0|0|0,0:0|0:0|0:0,0:0:0:0:
151,175,58344,1,0,0:0:0:0:
143,144,58423,1,0,0:0:0:0:
143,112,58501,1,0,0:0:0:0:
152,81,58580,1,0,0:0:0:0:
169,55,58659,6,0,L|272:60,1,90,4|0,1:2|0:0,0:0:0:0:
254,287,58975,1,8,0:1:0:0:
80,201,59133,2,0,P|127:144|238:175,1,180,0|0,1:0|0:0,0:0:0:0:
296,209,59607,6,0,L|481:216,1,180,2|0,0:0|0:0,0:0:0:0:
300,363,60238,2,0,P|246:374|170:307,1,135,2|0,0:0|0:0,0:0:0:0:
130,261,60554,6,0,P|124:236|118:217,2,30,0|0|0,1:0|1:0|1:0,0:0:0:0:
191,194,60712,1,0,1:0:0:0:
142,60,60870,1,0,1:0:0:0:
310,105,61028,1,0,1:0:0:0:
24,80,61186,6,0,P|71:80|114:72,1,90,4|0,1:2|0:0,0:0:0:0:
295,24,61501,1,8,0:1:0:0:
81,157,61659,2,0,P|125:149|170:149,1,90,4|0,1:2|0:0,0:0:0:0:
371,51,61975,1,8,0:1:0:0:
256,273,62133,1,4,1:2:0:0:
256,192,62212,12,0,63923,0:0:0:0:
279,240,64344,6,0,L|281:289,1,45,8|0,0:3|0:0,0:0:0:0:
381,300,64502,1,8,0:1:0:0:
381,300,64581,1,8,0:1:0:0:
381,300,64659,2,0,P|385:247|385:203,1,90,8|4,0:1|0:3,0:0:0:0:
219,136,64975,6,0,P|167:136|117:143,1,90,4|0,1:2|0:0,0:0:0:0:
60,175,65212,1,0,0:0:0:0:
60,175,65291,2,0,L|57:74,1,90,8|0,0:0|0:0,0:0:0:0:
197,53,65607,2,0,P|243:55|289:50,1,90,2|0,0:0|0:0,0:0:0:0:
359,25,65844,1,0,0:0:0:0:
359,25,65923,2,0,P|368:75|373:122,1,90,8|0,0:0|0:0,0:0:0:0:
314,334,66238,6,0,P|319:289|327:245,1,90,2|0,0:0|0:0,0:0:0:0:
383,190,66475,1,0,0:0:0:0:
383,190,66554,2,0,L|479:187,1,90,8|0,0:0|0:0,0:0:0:0:
243,270,66870,2,0,P|191:274|145:273,1,90,2|0,0:0|0:0,0:0:0:0:
78,249,67107,1,0,0:0:0:0:
78,249,67186,2,0,L|75:340,1,90,8|0,0:0|0:0,0:0:0:0:
137,160,67501,5,2,1:2:0:0:
194,46,67659,1,0,0:0:0:0:
194,46,67738,1,0,0:0:0:0:
194,46,67817,2,0,L|287:42,1,90,8|0,0:0|0:0,0:0:0:0:
425,193,68133,1,2,0:0:0:0:
341,109,68291,1,0,0:0:0:0:
341,109,68370,1,0,0:0:0:0:
341,109,68449,2,0,P|346:154|346:217,1,90,8|0,0:0|0:0,0:0:0:0:
264,284,68765,5,2,0:0:0:0:
242,126,68923,1,0,0:0:0:0:
242,126,69001,1,0,0:0:0:0:
242,126,69080,2,0,P|183:124|143:129,1,90,8|0,0:0|0:0,0:0:0:0:
179,326,69396,1,2,0:0:0:0:
296,202,69554,1,0,0:0:0:0:
296,202,69633,1,0,0:0:0:0:
296,202,69712,1,8,0:0:0:0:
418,330,69870,1,0,0:0:0:0:
451,315,69949,1,0,0:0:0:0:
483,298,70028,6,0,P|494:240|494:193,1,90,4|0,1:2|0:0,0:0:0:0:
370,52,70344,1,8,0:0:0:0:
387,213,70501,1,0,0:0:0:0:
461,78,70659,1,2,0:0:0:0:
288,93,70817,2,0,P|236:103|186:118,1,90,2|8,0:0|0:0,0:0:0:0:
334,270,71133,1,0,0:0:0:0:
400,122,71291,6,0,L|398:217,1,90,2|2,0:0|0:0,0:0:0:0:
199,84,71607,2,0,L|201:179,1,90,8|2,0:0|0:0,0:0:0:0:
357,53,71923,1,2,0:0:0:0:
334,270,72080,1,2,0:0:0:0:
115,248,72238,2,0,P|165:241|230:241,1,90,8|2,0:0|0:0,0:0:0:0:
415,308,72554,5,2,0:0:0:0:
214,331,72712,1,2,0:0:0:0:
294,145,72870,2,0,P|298:203|297:244,1,90,8|2,0:0|0:0,0:0:0:0:
115,129,73186,2,0,P|115:84|119:40,1,90,0|2,0:0|0:0,0:0:0:0:
453,38,73501,2,0,P|453:82|449:127,1,90,8|0,0:0|0:0,0:0:0:0:
312,355,73817,5,8,0:1:0:0:
312,355,73896,1,8,0:1:0:0:
312,355,73975,2,8,L|313:291,1,45,8|8,0:1|0:1,0:0:0:0:
211,150,74133,2,8,L|211:194,1,45,8|8,0:0|0:1,0:0:0:0:
390,313,74291,2,8,L|391:249,1,45,8|8,0:1|0:1,0:0:0:0:
233,73,74449,5,8,0:1:0:0:
197,70,74528,1,8,0:1:0:0:
164,83,74607,1,8,0:1:0:0:
140,109,74686,1,8,0:1:0:0:
131,144,74765,1,8,0:1:0:0:
230,309,74923,1,8,0:1:0:0:
352,133,75080,6,0,P|360:82|359:34,1,90,6|0,1:2|0:0,0:0:0:0:
118,282,75396,2,0,P|118:326|125:371,1,90,10|0,0:0|0:0,0:0:0:0:
390,313,75712,1,2,0:0:0:0:
218,157,75870,1,0,1:0:0:0:
218,157,75949,1,0,0:0:0:0:
218,157,76028,2,0,L|113:160,1,90,10|0,0:0|0:0,0:0:0:0:
314,350,76344,6,0,P|374:352|414:347,1,90,0|0,1:0|0:0,0:0:0:0:
428,125,76659,2,0,B|438:209|438:209|426:242,1,120,10|0,0:0|0:0,0:0:0:0:
363,198,76975,1,2,0:0:0:0:
345,34,77133,1,0,1:0:0:0:
345,34,77212,1,0,0:0:0:0:
345,34,77291,1,10,0:0:0:0:
487,202,77449,1,0,0:0:0:0:
294,259,77607,6,0,P|246:268|196:267,1,90,2|0,1:2|0:0,0:0:0:0:
42,180,77923,1,10,0:0:0:0:
213,186,78080,1,2,0:0:0:0:
37,288,78238,1,2,0:0:0:0:
94,94,78396,2,0,L|142:89,1,45,2|0,1:2|0:0,0:0:0:0:
305,142,78554,2,0,P|260:129|217:96,1,90,10|0,0:0|0:0,0:0:0:0:
389,119,78870,6,0,P|399:174|401:226,1,90,0|0,1:0|0:0,0:0:0:0:
166,166,79186,2,0,P|156:221|154:273,1,90,8|2,0:0|0:0,0:0:0:0:
258,88,79501,1,2,0:0:0:0:
316,300,79659,1,2,1:2:0:0:
316,300,79738,1,0,0:0:0:0:
316,300,79817,2,0,L|209:299,1,90,10|2,0:0|0:0,0:0:0:0:
406,353,80133,6,0,P|456:349|497:340,1,90,6|0,1:2|0:0,0:0:0:0:
308,98,80449,2,0,P|263:88|219:85,1,90,10|0,0:0|0:0,0:0:0:0:
68,261,80765,1,2,0:0:0:0:
348,197,80923,1,0,1:0:0:0:
348,197,81001,1,0,0:0:0:0:
348,197,81080,2,0,L|447:194,1,90,10|0,0:0|0:0,0:0:0:0:
252,367,81396,6,0,P|234:320|228:270,1,90,0|0,1:0|0:0,0:0:0:0:
25,148,81712,2,0,L|114:151,1,90,10|0,0:0|0:0,0:0:0:0:
295,250,82028,1,2,0:0:0:0:
130,314,82186,1,0,1:0:0:0:
281,140,82344,2,0,P|289:81|285:45,1,90,10|0,0:0|0:0,0:0:0:0:
50,234,82659,6,0,L|153:236,1,90,6|0,1:2|0:0,0:0:0:0:
370,322,82975,1,8,0:0:0:0:
370,322,83054,1,0,0:0:0:0:
370,322,83133,2,0,L|280:320,1,90,2|0,0:0|0:0,0:0:0:0:
117,147,83449,1,0,1:0:0:0:
117,147,83528,1,0,0:0:0:0:
117,147,83607,2,0,L|206:145,1,90,14|0,0:0|0:0,0:0:0:0:
438,268,83923,6,0,P|450:324|448:360,1,90,0|0,1:0|0:0,0:0:0:0:
145,309,84238,2,0,L|141:254,1,45,8|0,0:0|0:0,0:0:0:0:
37,237,84396,2,0,L|41:182,1,45,8|0,0:0|0:0,0:0:0:0:
112,64,84554,1,2,0:0:0:0:
149,49,84633,1,2,0:0:0:0:
189,47,84712,1,0,1:0:0:0:
228,55,84791,1,0,0:0:0:0:
257,82,84870,2,0,L|262:184,1,90,10|0,0:0|0:0,0:0:0:0:
390,346,85186,6,0,P|401:288|403:246,1,90,6|0,1:2|0:0,0:0:0:0:
325,22,85501,2,0,P|328:66|337:110,1,90,10|0,0:0|0:0,0:0:0:0:
281,348,85817,1,2,0:0:0:0:
461,165,85975,2,0,L|404:166,1,45,0|0,1:0|0:0,0:0:0:0:
237,198,86133,2,0,L|135:191,1,90,10|0,0:0|0:0,0:0:0:0:
357,315,86449,6,0,P|408:310|463:313,1,90,0|0,1:0|0:0,0:0:0:0:
212,120,86765,2,0,P|172:98|90:116,1,120,10|0,0:0|0:0,0:0:0:0:
38,229,87080,2,0,B|48:278|45:328|45:328|36:347,1,120,2|0,0:0|0:0,0:0:0:0:
151,286,87396,2,0,P|201:293|251:289,1,90,10|0,0:0|0:0,0:0:0:0:
453,184,87712,6,0,P|408:182|363:188,1,90,2|0,1:2|0:0,0:0:0:0:
202,206,88028,1,10,0:0:0:0:
365,275,88186,1,2,0:0:0:0:
151,286,88344,1,2,0:0:0:0:
130,73,88501,1,2,1:2:0:0:
130,73,88580,1,0,0:0:0:0:
130,73,88659,2,0,L|126:167,1,90,10|0,0:0|0:0,0:0:0:0:
230,370,88975,6,0,L|226:276,1,90,0|0,1:0|0:0,0:0:0:0:
34,154,89291,2,0,L|30:64,1,90,8|2,0:0|0:0,0:0:0:0:
218,47,89607,1,2,0:0:0:0:
110,203,89765,1,2,1:2:0:0:
110,203,89844,1,0,0:0:0:0:
110,203,89923,2,0,L|109:296,1,90,10|2,0:0|0:0,0:0:0:0:
315,277,90238,6,0,P|365:286|410:287,1,90,6|0,1:2|0:0,0:0:0:0:
476,44,90554,2,0,P|431:45|386:54,1,90,10|0,0:0|0:0,0:0:0:0:
158,146,90870,2,0,P|208:155|253:156,1,90,2|0,0:0|1:0,0:0:0:0:
499,226,91186,2,0,P|449:217|404:216,1,90,10|0,0:0|0:0,0:0:0:0:
195,354,91501,6,0,P|188:306|186:258,1,90,0|0,1:0|0:0,0:0:0:0:
231,77,91817,1,10,0:0:0:0:
266,255,91975,1,0,0:0:0:0:
117,218,92133,1,2,0:0:0:0:
300,135,92291,1,0,1:0:0:0:
300,135,92370,1,0,0:0:0:0:
300,135,92449,2,0,L|399:138,1,90,10|0,0:0|0:0,0:0:0:0:
157,33,92765,6,0,L|58:36,1,90,6|0,1:2|0:0,0:0:0:0:
222,152,93080,1,8,0:0:0:0:
222,152,93159,1,0,0:0:0:0:
222,152,93238,2,0,L|123:155,1,90,6|0,1:2|0:0,0:0:0:0:
287,271,93554,1,8,0:0:0:0:
287,271,93633,1,0,0:0:0:0:
287,271,93712,2,0,L|188:274,1,90,6|0,1:2|0:0,0:0:0:0:
284,89,94028,6,0,P|336:85|380:88,1,90,0|0,0:0|1:0,0:0:0:0:
416,237,94344,2,0,L|412:189,1,45,8|0,0:0|0:0,0:0:0:0:
479,337,94502,2,0,L|482:288,1,45,8|0,0:0|0:0,0:0:0:0:
339,282,94659,1,2,0:0:0:0:
298,280,94738,1,2,0:0:0:0:
260,294,94817,1,0,1:0:0:0:
233,325,94896,1,0,0:0:0:0:
224,364,94975,2,0,L|127:358,1,90,10|0,0:0|0:0,0:0:0:0:
50,189,95291,6,0,L|40:48,2,135.000005149842,6|8|2,1:2|0:0|0:0,0:0:0:0:
36,295,96080,1,0,0:0:0:0:
36,295,96159,1,0,0:0:0:0:
36,295,96238,1,8,0:0:0:0:
221,240,96554,6,0,L|291:243,1,67.5000025749208,2|0,0:0|0:0,0:0:0:0:
346,295,96791,1,0,0:0:0:0:
346,295,96870,1,8,0:0:0:0:
320,99,97186,2,0,L|324:169,2,67.5000025749208,2|0|8,0:0|0:0|0:0,0:0:0:0:
155,193,97817,6,0,P|144:240|162:297,1,101.250003862381,2|0,0:0|0:0,0:0:0:0:
180,322,98133,2,0,L|256:328,1,67.5000025749208,8|0,0:0|0:0,0:0:0:0:
397,268,98449,1,2,0:0:0:0:
372,139,98607,1,0,0:0:0:0:
372,139,98686,1,0,0:0:0:0:
372,139,98765,1,8,0:0:0:0:
129,92,99080,6,0,L|208:96,2,67.5000025749208,2|0|8,0:0|0:0|0:0,0:0:0:0:
45,222,99712,2,0,L|112:218,1,67.5000025749208,2|0,0:0|0:0,0:0:0:0:
184,175,99949,1,0,0:0:0:0:
184,175,100028,1,8,0:0:0:0:
446,319,100344,6,0,P|406:316|330:246,2,135.000005149842,2|8|2,0:0|0:0|0:0,0:0:0:0:
492,244,101133,1,0,0:0:0:0:
492,244,101212,1,0,0:0:0:0:
492,244,101291,1,8,0:0:0:0:
357,78,101607,6,0,L|357:151,1,67.5000025749208,2|0,0:0|0:0,0:0:0:0:
307,195,101844,1,0,0:0:0:0:
307,195,101923,1,8,0:0:0:0:
174,88,102238,2,0,L|96:84,2,67.5000025749208,2|0|8,0:0|0:0|0:0,0:0:0:0:
346,263,102870,6,0,P|306:272|235:238,1,101.250003862381,2|0,0:0|0:0,0:0:0:0:
225,229,103186,2,0,L|143:229,1,67.5000025749208,8|0,0:0|0:0,0:0:0:0:
34,289,103501,1,2,0:0:0:0:
145,370,103659,1,0,0:0:0:0:
145,370,103738,1,0,0:0:0:0:
145,370,103817,1,8,0:0:0:0:
305,186,104133,6,0,L|303:115,1,67.5000025749208,2|0,0:0|0:0,0:0:0:0:
352,56,104370,1,0,0:0:0:0:
352,56,104449,1,8,0:0:0:0:
90,176,104765,1,10,0:0:0:0:
325,343,105080,1,8,0:0:0:0:
