osu file format v14

[General]
AudioFilename: audio.mp3
AudioLeadIn: 0
PreviewTime: 34005
Countdown: 0
SampleSet: Normal
StackLeniency: 0.2
Mode: 1
LetterboxInBreaks: 0
WidescreenStoryboard: 0

[Editor]
Bookmarks: 11505,22799,34093,39740,45387,56681,67975,73622,79269,90563,101858,113152
DistanceSpacing: 1.2
BeatDivisor: 4
GridSize: 32
TimelineZoom: 1.9

[Metadata]
Title:Proof of the existence
TitleUnicode:Proof of the existence
Artist:Nekomata Master+
ArtistUnicode:猫叉Master+
Creator:Alheak
Version:tasuke's Inner Oni
Source:beatmania IIDX 20 tricoro
Tags:SKSalt tasuke912 ORIGINAL SOUNDTRACK Volume 1 konami hard electronica Naoyuki Sato jubeat plus jukebeat saucer REFLEC BEAT colette -Summer- plus
BeatmapID:943251
BeatmapSetID:427864

[Difficulty]
HPDrainRate:6
CircleSize:2
OverallDifficulty:6
ApproachRate:5
SliderMultiplier:1.4
SliderTickRate:1

[Events]
//Background and Video events
0,0,"bg.jpg",0,-10
//Break Periods
//Storyboard Layer 0 (Background)
//Storyboard Layer 1 (Fail)
//Storyboard Layer 2 (Pass)
//Storyboard Layer 3 (Foreground)
//Storyboard Sound Samples

[TimingPoints]
211,352.941176470588,4,1,0,25,1,0
11416,-100,4,1,0,60,0,0
22799,-100,4,1,0,75,0,0
56681,-100,4,1,0,70,0,0
67975,-100,4,1,0,75,0,0
79358,-100,4,1,0,60,0,0
89152,-100,4,1,0,70,0,0
90563,-100,4,1,0,75,0,1
113152,-100,4,1,0,60,0,0
123034,-100,4,1,0,25,0,0

[Colours]
Combo1 : 211,130,105
Combo2 : 255,237,210
Combo3 : 254,196,108
Combo4 : 216,179,255
Combo5 : 176,133,221
Combo6 : 238,202,193

[HitObjects]
256,192,10093,12,0,11152,0:0:0:0:
256,192,11505,5,0,0:0:0:0:
256,192,12034,1,0,0:0:0:0:
256,192,12210,1,2,0:0:0:0:
256,192,12916,1,0,0:0:0:0:
256,192,13269,1,0,0:0:0:0:
256,192,13622,1,2,0:0:0:0:
256,192,13858,1,2,0:0:0:0:
256,192,14328,1,0,0:0:0:0:
256,192,14858,1,0,0:0:0:0:
256,192,15034,1,2,0:0:0:0:
256,192,15563,1,0,0:0:0:0:
256,192,15740,1,0,0:0:0:0:
256,192,16093,1,0,0:0:0:0:
256,192,16446,1,2,0:0:0:0:
256,192,16681,1,2,0:0:0:0:
256,192,16799,1,2,0:0:0:0:
256,192,16916,1,2,0:0:0:0:
256,192,17152,1,4,0:0:0:0:
256,192,17681,1,0,0:0:0:0:
256,192,17858,1,2,0:0:0:0:
256,192,18563,1,0,0:0:0:0:
256,192,18916,1,0,0:0:0:0:
256,192,19269,1,2,0:0:0:0:
256,192,19505,1,2,0:0:0:0:
256,192,19975,1,0,0:0:0:0:
256,192,20210,1,0,0:0:0:0:
256,192,20446,1,0,0:0:0:0:
256,192,20637,1,2,0:0:0:0:
256,192,20681,1,2,0:0:0:0:
256,192,20916,1,2,0:0:0:0:
256,192,21152,1,2,0:0:0:0:
256,192,21387,1,0,0:0:0:0:
256,192,21916,1,2,0:0:0:0:
256,192,22446,1,0,0:0:0:0:
256,192,22534,1,0,0:0:0:0:
256,192,22622,1,2,0:0:0:0:
256,192,22710,1,2,0:0:0:0:
256,192,22799,5,0,0:0:0:0:
256,192,23063,1,2,0:0:0:0:
256,192,23152,1,0,0:0:0:0:
256,192,23328,1,2,0:0:0:0:
256,192,23505,1,0,0:0:0:0:
256,192,23681,1,2,0:0:0:0:
256,192,23769,1,2,0:0:0:0:
256,192,23858,1,0,0:0:0:0:
256,192,24034,1,2,0:0:0:0:
256,192,24210,1,0,0:0:0:0:
256,192,24299,1,2,0:0:0:0:
256,192,24475,1,2,0:0:0:0:
256,192,24563,1,0,0:0:0:0:
256,192,24740,1,2,0:0:0:0:
256,192,24828,1,2,0:0:0:0:
256,192,24916,1,0,0:0:0:0:
256,192,25093,1,2,0:0:0:0:
256,192,25269,1,0,0:0:0:0:
256,192,25358,1,0,0:0:0:0:
256,192,25446,1,2,0:0:0:0:
256,192,25622,1,0,0:0:0:0:
256,192,25887,1,2,0:0:0:0:
256,192,25975,1,0,0:0:0:0:
256,192,26152,1,2,0:0:0:0:
256,192,26328,1,0,0:0:0:0:
256,192,26505,1,2,0:0:0:0:
256,192,26593,1,2,0:0:0:0:
256,192,26681,1,0,0:0:0:0:
256,192,26858,1,2,0:0:0:0:
256,192,27034,1,0,0:0:0:0:
256,192,27122,1,2,0:0:0:0:
256,192,27299,1,2,0:0:0:0:
256,192,27387,1,0,0:0:0:0:
256,192,27563,1,2,0:0:0:0:
256,192,27652,1,2,0:0:0:0:
256,192,27740,1,0,0:0:0:0:
256,192,27916,1,2,0:0:0:0:
256,192,28093,1,0,0:0:0:0:
256,192,28181,1,2,0:0:0:0:
256,192,28269,1,2,0:0:0:0:
256,192,28446,1,0,0:0:0:0:
256,192,28622,1,2,0:0:0:0:
256,192,28710,1,2,0:0:0:0:
256,192,28799,1,0,0:0:0:0:
256,192,28975,1,2,0:0:0:0:
256,192,29152,1,0,0:0:0:0:
256,192,29240,1,0,0:0:0:0:
256,192,29328,1,2,0:0:0:0:
256,192,29416,1,2,0:0:0:0:
256,192,29505,1,0,0:0:0:0:
256,192,29681,1,2,0:0:0:0:
256,192,29858,1,0,0:0:0:0:
256,192,29946,1,2,0:0:0:0:
256,192,30122,1,2,0:0:0:0:
256,192,30210,1,0,0:0:0:0:
256,192,30387,1,2,0:0:0:0:
256,192,30475,1,2,0:0:0:0:
256,192,30563,1,0,0:0:0:0:
256,192,30740,1,2,0:0:0:0:
256,192,30916,1,0,0:0:0:0:
256,192,31005,1,0,0:0:0:0:
256,192,31093,1,2,0:0:0:0:
256,192,31269,1,0,0:0:0:0:
256,192,31446,1,0,0:0:0:0:
256,192,31534,1,2,0:0:0:0:
256,192,31622,1,0,0:0:0:0:
256,192,31799,1,2,0:0:0:0:
256,192,31975,1,0,0:0:0:0:
256,192,32063,1,0,0:0:0:0:
256,192,32152,1,2,0:0:0:0:
256,192,32240,1,2,0:0:0:0:
256,192,32328,1,0,0:0:0:0:
256,192,32505,1,2,0:0:0:0:
256,192,32681,1,0,0:0:0:0:
256,192,32769,1,2,0:0:0:0:
256,192,32858,1,2,0:0:0:0:
256,192,32946,1,2,0:0:0:0:
256,192,33034,1,0,0:0:0:0:
256,192,33122,1,0,0:0:0:0:
256,192,33210,1,2,0:0:0:0:
256,192,33299,1,2,0:0:0:0:
256,192,33387,1,0,0:0:0:0:
256,192,33475,1,0,0:0:0:0:
256,192,33563,1,2,0:0:0:0:
256,192,33916,1,2,0:0:0:0:
256,192,33975,1,2,0:0:0:0:
256,192,34034,1,2,0:0:0:0:
256,192,34093,5,0,0:0:0:0:
256,192,34358,1,2,0:0:0:0:
256,192,34446,1,0,0:0:0:0:
256,192,34622,1,2,0:0:0:0:
256,192,34710,1,2,0:0:0:0:
256,192,34799,1,0,0:0:0:0:
256,192,34975,1,2,0:0:0:0:
256,192,35152,1,0,0:0:0:0:
256,192,35240,1,0,0:0:0:0:
256,192,35328,1,2,0:0:0:0:
256,192,35505,1,0,0:0:0:0:
256,192,35769,1,2,0:0:0:0:
256,192,35858,1,0,0:0:0:0:
256,192,36034,1,2,0:0:0:0:
256,192,36122,1,2,0:0:0:0:
256,192,36210,1,0,0:0:0:0:
256,192,36387,1,2,0:0:0:0:
256,192,36563,1,0,0:0:0:0:
256,192,36622,1,2,0:0:0:0:
256,192,36681,1,2,0:0:0:0:
256,192,36740,1,0,0:0:0:0:
256,192,36916,1,0,0:0:0:0:
256,192,37181,1,2,0:0:0:0:
256,192,37269,1,0,0:0:0:0:
256,192,37446,1,2,0:0:0:0:
256,192,37534,1,2,0:0:0:0:
256,192,37622,1,0,0:0:0:0:
256,192,37799,1,2,0:0:0:0:
256,192,37975,1,0,0:0:0:0:
256,192,38063,1,0,0:0:0:0:
256,192,38152,1,2,0:0:0:0:
256,192,38328,1,0,0:0:0:0:
256,192,38416,1,2,0:0:0:0:
256,192,38593,1,2,0:0:0:0:
256,192,38681,1,0,0:0:0:0:
256,192,38858,1,2,0:0:0:0:
256,192,38946,1,2,0:0:0:0:
256,192,39034,1,0,0:0:0:0:
256,192,39122,1,2,0:0:0:0:
256,192,39210,1,0,0:0:0:0:
256,192,39299,1,0,0:0:0:0:
256,192,39387,1,2,0:0:0:0:
256,192,39446,1,2,0:0:0:0:
256,192,39505,1,2,0:0:0:0:
256,192,39563,1,0,0:0:0:0:
256,192,39740,5,0,0:0:0:0:
256,192,40005,1,2,0:0:0:0:
256,192,40093,1,0,0:0:0:0:
256,192,40269,1,2,0:0:0:0:
256,192,40358,1,2,0:0:0:0:
256,192,40446,1,0,0:0:0:0:
256,192,40622,1,0,0:0:0:0:
256,192,40710,1,2,0:0:0:0:
256,192,40799,1,0,0:0:0:0:
256,192,40887,1,0,0:0:0:0:
256,192,40975,1,2,0:0:0:0:
256,192,41152,1,0,0:0:0:0:
256,192,41240,1,2,0:0:0:0:
256,192,41416,1,2,0:0:0:0:
256,192,41505,1,0,0:0:0:0:
256,192,41681,1,2,0:0:0:0:
256,192,41740,1,0,0:0:0:0:
256,192,41799,1,0,0:0:0:0:
256,192,41858,1,2,0:0:0:0:
256,192,42034,1,0,0:0:0:0:
256,192,42122,1,2,0:0:0:0:
256,192,42210,1,2,0:0:0:0:
256,192,42387,1,2,0:0:0:0:
256,192,42475,1,2,0:0:0:0:
256,192,42563,1,0,0:0:0:0:
256,192,42652,1,2,0:0:0:0:
256,192,42828,1,2,0:0:0:0:
256,192,42916,1,0,0:0:0:0:
256,192,43093,1,2,0:0:0:0:
256,192,43181,1,2,0:0:0:0:
256,192,43269,1,0,0:0:0:0:
256,192,43446,1,2,0:0:0:0:
256,192,43622,1,0,0:0:0:0:
256,192,43710,1,0,0:0:0:0:
256,192,43799,1,2,0:0:0:0:
256,192,43887,1,2,0:0:0:0:
256,192,43975,1,0,0:0:0:0:
256,192,44152,1,2,0:0:0:0:
256,192,44210,1,2,0:0:0:0:
256,192,44269,1,2,0:0:0:0:
256,192,44328,1,0,0:0:0:0:
256,192,44505,1,2,0:0:0:0:
256,192,44681,1,0,0:0:0:0:
256,192,44858,1,2,0:0:0:0:
256,192,44946,1,2,0:0:0:0:
256,192,45034,1,2,0:0:0:0:
256,192,45122,1,2,0:0:0:0:
256,192,45210,1,2,0:0:0:0:
256,192,45299,1,2,0:0:0:0:
256,192,45387,5,0,0:0:0:0:
256,192,45652,1,2,0:0:0:0:
256,192,45740,1,0,0:0:0:0:
256,192,45916,1,2,0:0:0:0:
256,192,46005,1,2,0:0:0:0:
256,192,46093,1,0,0:0:0:0:
256,192,46181,1,0,0:0:0:0:
256,192,46269,1,2,0:0:0:0:
256,192,46446,1,0,0:0:0:0:
256,192,46622,1,2,0:0:0:0:
256,192,46710,1,2,0:0:0:0:
256,192,46799,1,0,0:0:0:0:
256,192,46887,1,2,0:0:0:0:
256,192,47063,1,2,0:0:0:0:
256,192,47152,1,0,0:0:0:0:
256,192,47328,1,2,0:0:0:0:
256,192,47416,1,2,0:0:0:0:
256,192,47505,1,0,0:0:0:0:
256,192,47681,1,2,0:0:0:0:
256,192,47769,1,2,0:0:0:0:
256,192,47858,1,0,0:0:0:0:
256,192,47916,1,2,0:0:0:0:
256,192,47975,1,2,0:0:0:0:
256,192,48034,1,0,0:0:0:0:
256,192,48210,1,0,0:0:0:0:
256,192,48299,1,2,0:0:0:0:
256,192,48475,1,2,0:0:0:0:
256,192,48563,1,0,0:0:0:0:
256,192,48740,1,2,0:0:0:0:
256,192,48828,1,2,0:0:0:0:
256,192,48916,1,0,0:0:0:0:
256,192,49093,1,2,0:0:0:0:
256,192,49269,1,0,0:0:0:0:
256,192,49358,1,0,0:0:0:0:
256,192,49446,1,2,0:0:0:0:
256,192,49534,1,2,0:0:0:0:
256,192,49622,1,0,0:0:0:0:
256,192,49799,1,2,0:0:0:0:
256,192,49887,1,2,0:0:0:0:
256,192,49975,1,0,0:0:0:0:
256,192,50152,1,2,0:0:0:0:
256,192,50240,1,2,0:0:0:0:
256,192,50328,1,0,0:0:0:0:
256,192,50416,1,2,0:0:0:0:
256,192,50505,1,0,0:0:0:0:
256,192,50593,1,0,0:0:0:0:
256,192,50681,1,2,0:0:0:0:
256,192,50740,1,2,0:0:0:0:
256,192,50799,1,2,0:0:0:0:
256,192,50858,1,0,0:0:0:0:
256,192,51034,5,0,0:0:0:0:
256,192,51299,1,2,0:0:0:0:
256,192,51387,1,0,0:0:0:0:
256,192,51563,1,2,0:0:0:0:
256,192,51652,1,2,0:0:0:0:
256,192,51740,1,0,0:0:0:0:
256,192,51916,1,0,0:0:0:0:
256,192,52005,1,2,0:0:0:0:
256,192,52093,1,0,0:0:0:0:
256,192,52181,1,0,0:0:0:0:
256,192,52269,1,2,0:0:0:0:
256,192,52358,1,2,0:0:0:0:
256,192,52446,1,0,0:0:0:0:
256,192,52534,1,2,0:0:0:0:
256,192,52710,1,2,0:0:0:0:
256,192,52799,1,0,0:0:0:0:
256,192,52975,1,2,0:0:0:0:
256,192,53034,1,0,0:0:0:0:
256,192,53093,1,0,0:0:0:0:
256,192,53152,1,2,0:0:0:0:
256,192,53328,1,0,0:0:0:0:
256,192,53416,1,2,0:0:0:0:
256,192,53505,1,2,0:0:0:0:
256,192,53681,1,2,0:0:0:0:
256,192,53769,1,2,0:0:0:0:
256,192,53858,1,0,0:0:0:0:
256,192,53946,1,2,0:0:0:0:
256,192,54122,1,2,0:0:0:0:
256,192,54210,1,0,0:0:0:0:
256,192,54387,1,2,0:0:0:0:
256,192,54475,1,2,0:0:0:0:
256,192,54563,1,0,0:0:0:0:
256,192,54740,1,2,0:0:0:0:
256,192,54916,1,0,0:0:0:0:
256,192,55005,1,0,0:0:0:0:
256,192,55093,1,2,0:0:0:0:
256,192,55181,1,2,0:0:0:0:
256,192,55269,1,0,0:0:0:0:
256,192,55446,1,2,0:0:0:0:
256,192,55505,1,2,0:0:0:0:
256,192,55563,1,2,0:0:0:0:
256,192,55622,1,0,0:0:0:0:
256,192,55799,1,2,0:0:0:0:
256,192,55975,1,0,0:0:0:0:
256,192,56063,1,0,0:0:0:0:
256,192,56152,1,2,0:0:0:0:
256,192,56505,1,2,0:0:0:0:
256,192,56563,1,2,0:0:0:0:
256,192,56622,1,2,0:0:0:0:
256,192,56681,5,0,0:0:0:0:
256,192,56916,1,0,0:0:0:0:
256,192,57152,1,2,0:0:0:0:
256,192,57387,1,2,0:0:0:0:
256,192,57622,1,2,0:0:0:0:
256,192,57858,1,0,0:0:0:0:
256,192,58093,1,0,0:0:0:0:
256,192,58799,1,0,0:0:0:0:
256,192,59034,1,0,0:0:0:0:
256,192,59269,1,2,0:0:0:0:
256,192,59505,1,2,0:0:0:0:
256,192,59740,1,0,0:0:0:0:
256,192,59975,1,2,0:0:0:0:
256,192,60093,1,2,0:0:0:0:
256,192,60152,1,2,0:0:0:0:
256,192,60210,1,2,0:0:0:0:
256,192,60446,1,2,0:0:0:0:
256,192,60681,1,0,0:0:0:0:
256,192,60916,1,2,0:0:0:0:
256,192,61975,1,0,0:0:0:0:
256,192,62093,1,0,0:0:0:0:
256,192,62210,1,2,0:0:0:0:
256,192,62328,1,0,0:0:0:0:
256,192,62563,1,0,0:0:0:0:
256,192,62799,1,2,0:0:0:0:
256,192,63034,1,2,0:0:0:0:
256,192,63269,1,2,0:0:0:0:
256,192,63505,1,0,0:0:0:0:
256,192,63740,1,0,0:0:0:0:
256,192,64446,1,0,0:0:0:0:
256,192,64681,1,0,0:0:0:0:
256,192,64916,1,2,0:0:0:0:
256,192,65152,1,2,0:0:0:0:
256,192,65387,1,0,0:0:0:0:
256,192,65622,1,2,0:0:0:0:
256,192,65858,1,2,0:0:0:0:
256,192,66093,1,0,0:0:0:0:
256,192,66210,1,2,0:0:0:0:
256,192,66269,1,2,0:0:0:0:
256,192,66328,1,0,0:0:0:0:
256,192,66563,1,2,0:0:0:0:
256,192,67269,1,4,0:0:0:0:
256,192,67505,1,6,0:0:0:0:
256,192,67740,1,6,0:0:0:0:
256,192,67975,5,0,0:0:0:0:
256,192,68240,1,2,0:0:0:0:
256,192,68328,1,0,0:0:0:0:
256,192,68505,1,2,0:0:0:0:
256,192,68563,1,2,0:0:0:0:
256,192,68622,1,2,0:0:0:0:
256,192,68681,1,0,0:0:0:0:
256,192,68858,1,2,0:0:0:0:
256,192,69034,1,0,0:0:0:0:
256,192,69122,1,0,0:0:0:0:
256,192,69210,1,2,0:0:0:0:
256,192,69387,1,0,0:0:0:0:
256,192,69475,1,2,0:0:0:0:
256,192,69652,1,2,0:0:0:0:
256,192,69740,1,0,0:0:0:0:
256,192,69916,1,2,0:0:0:0:
256,192,70005,1,2,0:0:0:0:
256,192,70093,1,0,0:0:0:0:
256,192,70181,1,2,0:0:0:0:
256,192,70358,1,0,0:0:0:0:
256,192,70446,1,2,0:0:0:0:
256,192,70622,1,2,0:0:0:0:
256,192,70710,1,2,0:0:0:0:
256,192,70799,1,0,0:0:0:0:
256,192,70975,1,2,0:0:0:0:
256,192,71152,1,0,0:0:0:0:
256,192,71240,1,2,0:0:0:0:
256,192,71416,1,2,0:0:0:0:
256,192,71505,1,0,0:0:0:0:
256,192,71681,1,2,0:0:0:0:
256,192,71769,1,2,0:0:0:0:
256,192,71858,1,0,0:0:0:0:
256,192,72034,1,2,0:0:0:0:
256,192,72210,1,0,0:0:0:0:
256,192,72299,1,2,0:0:0:0:
256,192,72387,1,2,0:0:0:0:
256,192,72475,1,2,0:0:0:0:
256,192,72563,1,0,0:0:0:0:
256,192,72652,1,0,0:0:0:0:
256,192,72740,1,2,0:0:0:0:
256,192,72799,1,2,0:0:0:0:
256,192,72858,1,2,0:0:0:0:
256,192,72916,1,0,0:0:0:0:
256,192,73005,1,2,0:0:0:0:
256,192,73181,1,0,0:0:0:0:
256,192,73269,1,2,0:0:0:0:
256,192,73358,1,2,0:0:0:0:
256,192,73446,1,0,0:0:0:0:
256,192,73534,1,2,0:0:0:0:
256,192,73622,5,0,0:0:0:0:
256,192,73799,1,2,0:0:0:0:
256,192,73887,1,2,0:0:0:0:
256,192,73975,1,0,0:0:0:0:
256,192,74152,1,2,0:0:0:0:
256,192,74328,1,0,0:0:0:0:
256,192,74416,1,2,0:0:0:0:
256,192,74593,1,2,0:0:0:0:
256,192,74681,1,0,0:0:0:0:
256,192,74858,1,2,0:0:0:0:
256,192,75034,1,0,0:0:0:0:
256,192,75122,1,0,0:0:0:0:
256,192,75210,1,2,0:0:0:0:
256,192,75299,1,2,0:0:0:0:
256,192,75387,1,0,0:0:0:0:
256,192,75563,1,2,0:0:0:0:
256,192,75652,1,0,0:0:0:0:
256,192,75740,1,0,0:0:0:0:
256,192,75828,1,2,0:0:0:0:
256,192,76005,1,0,0:0:0:0:
256,192,76093,1,2,0:0:0:0:
256,192,76269,1,2,0:0:0:0:
256,192,76358,1,2,0:0:0:0:
256,192,76446,1,0,0:0:0:0:
256,192,76622,1,2,0:0:0:0:
256,192,76799,1,0,0:0:0:0:
256,192,76887,1,0,0:0:0:0:
256,192,76975,1,2,0:0:0:0:
256,192,77034,1,2,0:0:0:0:
256,192,77093,1,2,0:0:0:0:
256,192,77152,1,0,0:0:0:0:
256,192,77328,1,2,0:0:0:0:
256,192,77416,1,2,0:0:0:0:
256,192,77505,1,0,0:0:0:0:
256,192,77681,1,2,0:0:0:0:
256,192,77858,1,0,0:0:0:0:
256,192,77946,1,2,0:0:0:0:
256,192,78034,1,2,0:0:0:0:
256,192,78122,1,2,0:0:0:0:
256,192,78210,1,0,0:0:0:0:
256,192,78299,1,0,0:0:0:0:
256,192,78387,1,2,0:0:0:0:
256,192,78475,1,2,0:0:0:0:
256,192,78563,1,0,0:0:0:0:
256,192,78652,1,0,0:0:0:0:
256,192,78740,1,0,0:0:0:0:
256,192,78828,1,2,0:0:0:0:
256,192,78916,1,0,0:0:0:0:
256,192,79005,1,2,0:0:0:0:
256,192,79093,1,2,0:0:0:0:
256,192,79181,1,2,0:0:0:0:
256,192,79269,5,0,0:0:0:0:
256,192,79975,1,2,0:0:0:0:
256,192,80681,1,0,0:0:0:0:
256,192,81034,1,0,0:0:0:0:
256,192,81387,1,2,0:0:0:0:
256,192,82093,1,0,0:0:0:0:
256,192,82622,1,0,0:0:0:0:
256,192,82799,1,2,0:0:0:0:
256,192,83505,1,0,0:0:0:0:
256,192,83858,1,0,0:0:0:0:
256,192,84210,1,2,0:0:0:0:
256,192,84916,1,4,0:0:0:0:
256,192,85622,1,2,0:0:0:0:
256,192,86328,1,0,0:0:0:0:
256,192,86681,1,0,0:0:0:0:
256,192,87034,1,2,0:0:0:0:
256,192,87740,1,0,0:0:0:0:
256,192,88269,1,0,0:0:0:0:
256,192,88446,1,2,0:0:0:0:
256,192,88799,1,2,0:0:0:0:
256,192,88887,1,2,0:0:0:0:
256,192,88975,1,2,0:0:0:0:
256,192,89063,1,2,0:0:0:0:
256,192,89152,1,0,0:0:0:0:
256,192,89387,1,0,0:0:0:0:
256,192,89505,1,2,0:0:0:0:
256,192,89622,1,0,0:0:0:0:
256,192,89740,1,2,0:0:0:0:
256,192,89858,1,0,0:0:0:0:
256,192,89975,1,0,0:0:0:0:
256,192,90093,1,2,0:0:0:0:
256,192,90210,1,2,0:0:0:0:
256,192,90328,1,2,0:0:0:0:
256,192,90387,1,2,0:0:0:0:
256,192,90446,1,2,0:0:0:0:
256,192,90505,1,2,0:0:0:0:
256,192,90563,5,0,0:0:0:0:
256,192,90828,1,0,0:0:0:0:
256,192,90916,1,2,0:0:0:0:
256,192,91093,1,0,0:0:0:0:
256,192,91181,1,0,0:0:0:0:
256,192,91269,1,2,0:0:0:0:
256,192,91446,1,0,0:0:0:0:
256,192,91622,1,2,0:0:0:0:
256,192,91710,1,2,0:0:0:0:
256,192,91887,1,2,0:0:0:0:
256,192,91975,1,0,0:0:0:0:
256,192,92152,1,2,0:0:0:0:
256,192,92240,1,2,0:0:0:0:
256,192,92328,1,0,0:0:0:0:
256,192,92505,1,2,0:0:0:0:
256,192,92681,1,0,0:0:0:0:
256,192,92769,1,0,0:0:0:0:
256,192,92858,1,2,0:0:0:0:
256,192,92946,1,2,0:0:0:0:
256,192,93034,1,0,0:0:0:0:
256,192,93210,1,0,0:0:0:0:
256,192,93299,1,0,0:0:0:0:
256,192,93387,1,0,0:0:0:0:
256,192,93563,1,0,0:0:0:0:
256,192,93652,1,0,0:0:0:0:
256,192,93740,1,2,0:0:0:0:
256,192,93916,1,0,0:0:0:0:
256,192,94093,1,2,0:0:0:0:
256,192,94181,1,2,0:0:0:0:
256,192,94269,1,0,0:0:0:0:
256,192,94358,1,0,0:0:0:0:
256,192,94446,1,2,0:0:0:0:
256,192,94622,1,2,0:0:0:0:
256,192,94710,1,2,0:0:0:0:
256,192,94799,1,0,0:0:0:0:
256,192,94887,1,2,0:0:0:0:
256,192,95063,1,0,0:0:0:0:
256,192,95152,1,2,0:0:0:0:
256,192,95328,1,2,0:0:0:0:
256,192,95416,1,2,0:0:0:0:
256,192,95505,1,0,0:0:0:0:
256,192,95593,1,2,0:0:0:0:
256,192,95681,1,0,0:0:0:0:
256,192,95769,1,0,0:0:0:0:
256,192,95858,1,2,0:0:0:0:
256,192,95946,1,2,0:0:0:0:
256,192,96034,1,0,0:0:0:0:
256,192,96122,1,0,0:0:0:0:
256,192,96210,1,0,0:0:0:0:
256,192,96475,1,0,0:0:0:0:
256,192,96563,1,2,0:0:0:0:
256,192,96740,1,0,0:0:0:0:
256,192,96828,1,0,0:0:0:0:
256,192,96916,1,2,0:0:0:0:
256,192,97093,1,0,0:0:0:0:
256,192,97269,1,2,0:0:0:0:
256,192,97358,1,2,0:0:0:0:
256,192,97534,1,2,0:0:0:0:
256,192,97622,1,0,0:0:0:0:
256,192,97799,1,2,0:0:0:0:
256,192,97887,1,2,0:0:0:0:
256,192,97975,1,0,0:0:0:0:
256,192,98152,1,2,0:0:0:0:
256,192,98328,1,0,0:0:0:0:
256,192,98416,1,0,0:0:0:0:
256,192,98505,1,2,0:0:0:0:
256,192,98593,1,2,0:0:0:0:
256,192,98681,1,0,0:0:0:0:
256,192,98858,1,0,0:0:0:0:
256,192,98946,1,0,0:0:0:0:
256,192,99034,1,2,0:0:0:0:
256,192,99210,1,0,0:0:0:0:
256,192,99387,1,2,0:0:0:0:
256,192,99475,1,2,0:0:0:0:
256,192,99652,1,2,0:0:0:0:
256,192,99740,1,0,0:0:0:0:
256,192,99828,1,2,0:0:0:0:
256,192,99916,1,0,0:0:0:0:
256,192,100093,1,2,0:0:0:0:
256,192,100269,1,0,0:0:0:0:
256,192,100358,1,2,0:0:0:0:
256,192,100446,1,0,0:0:0:0:
256,192,100534,1,0,0:0:0:0:
256,192,100622,1,2,0:0:0:0:
256,192,100710,1,2,0:0:0:0:
256,192,100799,1,0,0:0:0:0:
256,192,100887,1,2,0:0:0:0:
256,192,100975,1,2,0:0:0:0:
256,192,101063,1,2,0:0:0:0:
256,192,101152,1,0,0:0:0:0:
256,192,101240,1,0,0:0:0:0:
256,192,101328,1,2,0:0:0:0:
256,192,101416,1,0,0:0:0:0:
256,192,101505,1,2,0:0:0:0:
256,192,101593,1,2,0:0:0:0:
256,192,101681,1,0,0:0:0:0:
256,192,101769,1,0,0:0:0:0:
256,192,101858,5,0,0:0:0:0:
256,192,102122,1,0,0:0:0:0:
256,192,102210,1,2,0:0:0:0:
256,192,102387,1,0,0:0:0:0:
256,192,102475,1,0,0:0:0:0:
256,192,102563,1,2,0:0:0:0:
256,192,102740,1,0,0:0:0:0:
256,192,102916,1,2,0:0:0:0:
256,192,103005,1,2,0:0:0:0:
256,192,103181,1,2,0:0:0:0:
256,192,103269,1,0,0:0:0:0:
256,192,103446,1,2,0:0:0:0:
256,192,103534,1,2,0:0:0:0:
256,192,103622,1,0,0:0:0:0:
256,192,103799,1,2,0:0:0:0:
256,192,103975,1,0,0:0:0:0:
256,192,104063,1,0,0:0:0:0:
256,192,104152,1,2,0:0:0:0:
256,192,104240,1,2,0:0:0:0:
256,192,104328,1,0,0:0:0:0:
256,192,104505,1,0,0:0:0:0:
256,192,104593,1,0,0:0:0:0:
256,192,104681,1,0,0:0:0:0:
256,192,104858,1,0,0:0:0:0:
256,192,104946,1,0,0:0:0:0:
256,192,105034,1,2,0:0:0:0:
256,192,105210,1,0,0:0:0:0:
256,192,105387,1,2,0:0:0:0:
256,192,105475,1,2,0:0:0:0:
256,192,105563,1,0,0:0:0:0:
256,192,105652,1,0,0:0:0:0:
256,192,105740,1,2,0:0:0:0:
256,192,105916,1,2,0:0:0:0:
256,192,106005,1,2,0:0:0:0:
256,192,106093,1,0,0:0:0:0:
256,192,106181,1,2,0:0:0:0:
256,192,106358,1,0,0:0:0:0:
256,192,106446,1,2,0:0:0:0:
256,192,106622,1,2,0:0:0:0:
256,192,106710,1,2,0:0:0:0:
256,192,106799,1,0,0:0:0:0:
256,192,106887,1,2,0:0:0:0:
256,192,106975,1,0,0:0:0:0:
256,192,107063,1,0,0:0:0:0:
256,192,107152,1,2,0:0:0:0:
256,192,107240,1,2,0:0:0:0:
256,192,107328,1,0,0:0:0:0:
256,192,107416,1,0,0:0:0:0:
256,192,107505,1,0,0:0:0:0:
256,192,107681,1,0,0:0:0:0:
256,192,107769,1,0,0:0:0:0:
256,192,107858,1,2,0:0:0:0:
256,192,108034,1,0,0:0:0:0:
256,192,108122,1,0,0:0:0:0:
256,192,108210,1,2,0:0:0:0:
256,192,108299,1,2,0:0:0:0:
256,192,108387,1,0,0:0:0:0:
256,192,108475,1,0,0:0:0:0:
256,192,108563,1,2,0:0:0:0:
256,192,108740,1,2,0:0:0:0:
256,192,108828,1,2,0:0:0:0:
256,192,108916,1,0,0:0:0:0:
256,192,109093,1,0,0:0:0:0:
256,192,109181,1,2,0:0:0:0:
256,192,109269,1,2,0:0:0:0:
256,192,109446,1,2,0:0:0:0:
256,192,109534,1,2,0:0:0:0:
256,192,109622,1,0,0:0:0:0:
256,192,109710,1,2,0:0:0:0:
256,192,109799,1,2,0:0:0:0:
256,192,109887,1,2,0:0:0:0:
256,192,109975,1,0,0:0:0:0:
256,192,110152,1,0,0:0:0:0:
256,192,110240,1,0,0:0:0:0:
256,192,110328,1,2,0:0:0:0:
256,192,110563,1,2,0:0:0:0:
256,192,110799,1,2,0:0:0:0:
256,192,111034,1,0,0:0:0:0:
256,192,111210,1,0,0:0:0:0:
256,192,111387,1,0,0:0:0:0:
256,192,111563,1,0,0:0:0:0:
256,192,111740,1,2,0:0:0:0:
256,192,111799,1,0,0:0:0:0:
256,192,111858,1,0,0:0:0:0:
256,192,111916,1,0,0:0:0:0:
256,192,111975,1,0,0:0:0:0:
256,192,112034,1,0,0:0:0:0:
256,192,112093,1,2,0:0:0:0:
256,192,112269,1,2,0:0:0:0:
256,192,112446,1,0,0:0:0:0:
256,192,112505,1,2,0:0:0:0:
256,192,112563,1,2,0:0:0:0:
256,192,112622,1,2,0:0:0:0:
256,192,112681,1,2,0:0:0:0:
256,192,112740,1,2,0:0:0:0:
256,192,112799,1,0,0:0:0:0:
256,192,112916,1,2,0:0:0:0:
256,192,113034,1,2,0:0:0:0:
256,192,113152,5,4,0:0:0:0:
256,192,113858,1,2,0:0:0:0:
256,192,114563,1,0,0:0:0:0:
256,192,114916,1,0,0:0:0:0:
256,192,115269,1,2,0:0:0:0:
256,192,115975,1,0,0:0:0:0:
256,192,116505,1,0,0:0:0:0:
256,192,116681,1,2,0:0:0:0:
256,192,117387,1,0,0:0:0:0:
256,192,117740,1,0,0:0:0:0:
256,192,118093,1,2,0:0:0:0:
256,192,118446,1,2,0:0:0:0:
256,192,118799,1,0,0:0:0:0:
256,192,119505,1,2,0:0:0:0:
256,192,120210,1,0,0:0:0:0:
256,192,120563,1,0,0:0:0:0:
256,192,120916,1,2,0:0:0:0:
256,192,121622,1,0,0:0:0:0:
256,192,122152,1,0,0:0:0:0:
256,192,122328,1,2,0:0:0:0:
256,192,123122,12,0,125770,0:0:0:0:
