osu file format v14

[General]
AudioFilename: audio.mp3
AudioLeadIn: 0
PreviewTime: 34005
Countdown: 0
SampleSet: Normal
StackLeniency: 0.2
Mode: 1
LetterboxInBreaks: 0
WidescreenStoryboard: 0

[Editor]
Bookmarks: 11505,22799,34093,39740,45387,56681,67975,73622,79269,90563,101858,113152
DistanceSpacing: 1.2
BeatDivisor: 4
GridSize: 32
TimelineZoom: 1.9

[Metadata]
Title:Proof of the existence
TitleUnicode:Proof of the existence
Artist:Nekomata Master+
ArtistUnicode:猫叉Master+
Creator:Alheak
Version:SK's Oni
Source:beatmania IIDX 20 tricoro
Tags:SKSalt tasuke912 ORIGINAL SOUNDTRACK Volume 1 konami hard electronica Naoyuki Sato jubeat plus jukebeat saucer REFLEC BEAT colette -Summer- plus
BeatmapID:965556
BeatmapSetID:427864

[Difficulty]
HPDrainRate:5
CircleSize:4
OverallDifficulty:5
ApproachRate:5
SliderMultiplier:1.4
SliderTickRate:1

[Events]
//Background and Video events
0,0,"bg.jpg",0,-10
//Break Periods
//Storyboard Layer 0 (Background)
//Storyboard Layer 1 (Fail)
//Storyboard Layer 2 (Pass)
//Storyboard Layer 3 (Foreground)
//Storyboard Sound Samples

[TimingPoints]
211,352.941176470588,4,1,0,25,1,0
11416,-100,4,1,0,60,0,0
22799,-100,4,1,0,75,0,0
56681,-100,4,1,0,70,0,0
67975,-100,4,1,0,75,0,0
79269,-100,4,1,0,60,0,0
89152,-100,4,1,0,70,0,0
90563,-100,4,1,0,75,0,1
113152,-100,4,1,0,60,0,0
123122,-100,4,1,0,25,0,0

[Colours]
Combo1 : 211,130,105
Combo2 : 255,237,210
Combo3 : 254,196,108
Combo4 : 216,179,255
Combo5 : 176,133,221
Combo6 : 238,202,193

[HitObjects]
256,192,10446,12,0,11152,0:0:0:0:
320,192,11505,5,2,0:0:0:0:
320,192,11681,1,0,0:0:0:0:
320,192,12034,1,0,0:0:0:0:
320,192,12210,1,2,0:0:0:0:
288,224,12387,1,0,0:0:0:0:
288,224,12740,1,2,0:0:0:0:
256,192,12828,1,2,0:0:0:0:
256,192,12916,1,0,0:0:0:0:
352,224,13093,1,2,0:0:0:0:
352,224,13269,1,0,0:0:0:0:
352,224,13446,1,0,0:0:0:0:
352,224,13622,1,2,0:0:0:0:
352,224,13799,1,0,0:0:0:0:
352,224,13887,1,2,0:0:0:0:
288,224,14063,1,0,0:0:0:0:
352,224,14152,1,2,0:0:0:0:
352,192,14240,1,2,0:0:0:0:
352,192,14328,1,0,0:0:0:0:
256,192,14505,1,0,0:0:0:0:
256,192,14858,1,0,0:0:0:0:
256,192,15034,1,2,0:0:0:0:
256,192,15210,1,0,0:0:0:0:
320,224,15563,1,2,0:0:0:0:
320,224,15652,1,2,0:0:0:0:
320,224,15740,1,0,0:0:0:0:
320,192,15916,1,2,0:0:0:0:
320,192,16093,1,0,0:0:0:0:
320,224,16269,1,0,0:0:0:0:
320,192,16446,1,2,0:0:0:0:
288,192,16622,1,2,0:0:0:0:
288,192,16710,1,0,0:0:0:0:
288,192,16887,1,0,0:0:0:0:
288,192,16975,1,2,0:0:0:0:
288,192,17063,1,0,0:0:0:0:
320,192,17152,1,2,0:0:0:0:
320,192,17328,1,0,0:0:0:0:
320,192,17681,1,0,0:0:0:0:
320,192,17857,1,2,0:0:0:0:
288,224,18034,1,0,0:0:0:0:
288,224,18387,1,2,0:0:0:0:
256,192,18475,1,2,0:0:0:0:
256,192,18563,1,0,0:0:0:0:
352,224,18740,1,2,0:0:0:0:
352,224,18916,1,0,0:0:0:0:
352,224,19093,1,0,0:0:0:0:
352,224,19269,1,2,0:0:0:0:
352,224,19446,1,0,0:0:0:0:
352,224,19534,1,2,0:0:0:0:
288,224,19710,1,0,0:0:0:0:
352,224,19799,1,2,0:0:0:0:
352,192,19887,1,2,0:0:0:0:
352,192,19975,1,0,0:0:0:0:
256,192,20152,1,0,0:0:0:0:
256,192,20505,1,0,0:0:0:0:
256,192,20681,1,2,0:0:0:0:
256,192,20857,1,0,0:0:0:0:
320,224,21210,1,0,0:0:0:0:
256,192,21387,12,0,22446,0:0:0:0:
288,192,22622,5,2,0:0:0:0:
288,192,22710,1,2,0:0:0:0:
288,160,22799,1,0,0:0:0:0:
256,224,22975,1,2,0:0:0:0:
32,192,23152,1,0,0:0:0:0:
256,224,23328,1,2,0:0:0:0:
256,224,23681,1,2,0:0:0:0:
96,192,23769,1,2,0:0:0:0:
256,224,23858,1,0,0:0:0:0:
256,224,24034,1,2,0:0:0:0:
320,192,24210,1,0,0:0:0:0:
256,224,24387,1,2,0:0:0:0:
288,224,24475,1,0,0:0:0:0:
288,224,24563,1,0,0:0:0:0:
256,160,24740,1,2,0:0:0:0:
160,160,25093,1,2,0:0:0:0:
256,160,25269,1,0,0:0:0:0:
160,192,25358,1,0,0:0:0:0:
160,192,25446,1,2,0:0:0:0:
288,160,25622,1,0,0:0:0:0:
256,224,25798,1,2,0:0:0:0:
160,192,25975,1,0,0:0:0:0:
256,224,26151,1,2,0:0:0:0:
256,224,26504,1,2,0:0:0:0:
96,192,26592,1,2,0:0:0:0:
256,224,26681,1,0,0:0:0:0:
256,224,26857,1,2,0:0:0:0:
256,224,27034,1,0,0:0:0:0:
256,224,27210,1,2,0:0:0:0:
288,224,27299,1,2,0:0:0:0:
288,224,27386,1,0,0:0:0:0:
256,160,27563,1,2,0:0:0:0:
160,160,27916,1,2,0:0:0:0:
256,160,28092,1,0,0:0:0:0:
160,192,28269,1,2,0:0:0:0:
352,320,28357,1,2,0:0:0:0:
256,160,28445,1,0,0:0:0:0:
256,224,28622,1,2,0:0:0:0:
160,192,28799,1,0,0:0:0:0:
256,224,28975,1,2,0:0:0:0:
256,224,29328,1,2,0:0:0:0:
96,192,29416,1,2,0:0:0:0:
256,224,29505,1,0,0:0:0:0:
256,224,29681,1,2,0:0:0:0:
320,192,29858,1,0,0:0:0:0:
256,224,30034,1,2,0:0:0:0:
288,224,30122,1,0,0:0:0:0:
288,224,30210,1,0,0:0:0:0:
256,160,30387,1,2,0:0:0:0:
160,160,30740,1,2,0:0:0:0:
256,160,30916,1,0,0:0:0:0:
160,192,31005,1,0,0:0:0:0:
160,192,31093,1,2,0:0:0:0:
288,160,31269,1,0,0:0:0:0:
256,224,31445,1,2,0:0:0:0:
288,192,31534,1,0,0:0:0:0:
288,192,31622,1,0,0:0:0:0:
256,224,31798,1,2,0:0:0:0:
192,160,31975,1,0,0:0:0:0:
256,224,32151,1,2,0:0:0:0:
96,192,32239,1,2,0:0:0:0:
256,224,32328,1,0,0:0:0:0:
256,224,32504,1,2,0:0:0:0:
192,224,32681,1,2,0:0:0:0:
192,224,32769,1,2,0:0:0:0:
192,224,32858,1,2,0:0:0:0:
192,224,32946,1,2,0:0:0:0:
192,224,33034,1,0,0:0:0:0:
192,224,33210,1,0,0:0:0:0:
192,224,33299,1,0,0:0:0:0:
192,224,33387,1,0,0:0:0:0:
192,224,33563,1,2,0:0:0:0:
320,192,34093,1,4,0:0:0:0:
192,224,34269,1,0,0:0:0:0:
256,256,34446,1,2,0:0:0:0:
192,192,34799,1,0,0:0:0:0:
288,192,34975,1,2,0:0:0:0:
288,192,35063,1,2,0:0:0:0:
192,192,35152,1,0,0:0:0:0:
288,192,35328,1,2,0:0:0:0:
192,192,35505,1,0,0:0:0:0:
192,192,35858,1,2,0:0:0:0:
192,192,36210,1,0,0:0:0:0:
96,192,36387,1,2,0:0:0:0:
192,192,36563,1,0,0:0:0:0:
160,224,36652,1,2,0:0:0:0:
160,224,36740,1,2,0:0:0:0:
192,192,36916,1,0,0:0:0:0:
192,192,37093,1,0,0:0:0:0:
384,224,37269,1,2,0:0:0:0:
192,192,37622,1,0,0:0:0:0:
224,224,37799,1,2,0:0:0:0:
224,224,37887,1,2,0:0:0:0:
192,192,37975,1,0,0:0:0:0:
224,224,38152,1,2,0:0:0:0:
192,192,38328,1,0,0:0:0:0:
192,192,38681,1,2,0:0:0:0:
192,224,38858,1,2,0:0:0:0:
192,192,39034,1,0,0:0:0:0:
256,224,39122,1,0,0:0:0:0:
256,224,39210,1,2,0:0:0:0:
256,224,39299,1,2,0:0:0:0:
192,192,39387,1,0,0:0:0:0:
256,224,39563,1,2,0:0:0:0:
192,192,39740,1,0,0:0:0:0:
192,192,39916,1,0,0:0:0:0:
320,192,40093,1,2,0:0:0:0:
320,192,40446,1,0,0:0:0:0:
320,192,40622,1,2,0:0:0:0:
320,256,40710,1,2,0:0:0:0:
224,224,40799,1,0,0:0:0:0:
320,192,40975,1,2,0:0:0:0:
288,192,41152,1,0,0:0:0:0:
256,192,41505,1,2,0:0:0:0:
256,192,41681,1,0,0:0:0:0:
256,160,41769,1,2,0:0:0:0:
224,128,41858,1,0,0:0:0:0:
256,192,42034,1,2,0:0:0:0:
352,224,42210,1,0,0:0:0:0:
352,224,42299,1,2,0:0:0:0:
352,224,42387,1,0,0:0:0:0:
352,224,42475,1,0,0:0:0:0:
352,224,42563,1,2,0:0:0:0:
160,192,42740,1,0,0:0:0:0:
256,192,42916,1,2,0:0:0:0:
288,224,43269,1,0,0:0:0:0:
288,256,43446,1,2,0:0:0:0:
320,256,43534,1,0,0:0:0:0:
416,256,43622,1,2,0:0:0:0:
288,256,43799,1,2,0:0:0:0:
256,224,43975,1,0,0:0:0:0:
352,256,44152,1,0,0:0:0:0:
256,224,44240,1,2,0:0:0:0:
320,224,44328,1,0,0:0:0:0:
256,224,44505,1,2,0:0:0:0:
288,224,44681,1,0,0:0:0:0:
160,192,44858,1,2,0:0:0:0:
160,192,44946,1,2,0:0:0:0:
160,192,45034,1,2,0:0:0:0:
160,192,45122,1,2,0:0:0:0:
128,192,45210,1,2,0:0:0:0:
320,192,45387,1,4,0:0:0:0:
256,256,45563,1,0,0:0:0:0:
288,192,45740,1,2,0:0:0:0:
192,192,46093,1,0,0:0:0:0:
288,192,46269,1,2,0:0:0:0:
288,192,46357,1,2,0:0:0:0:
192,192,46446,1,0,0:0:0:0:
288,192,46622,1,2,0:0:0:0:
192,192,46799,1,0,0:0:0:0:
192,192,47152,1,2,0:0:0:0:
192,192,47504,1,0,0:0:0:0:
96,192,47681,1,2,0:0:0:0:
192,192,47857,1,0,0:0:0:0:
160,224,47946,1,2,0:0:0:0:
160,224,48034,1,2,0:0:0:0:
192,192,48210,1,0,0:0:0:0:
384,224,48387,1,0,0:0:0:0:
384,224,48563,1,2,0:0:0:0:
192,192,48916,1,0,0:0:0:0:
224,224,49093,1,2,0:0:0:0:
224,224,49181,1,2,0:0:0:0:
192,192,49269,1,0,0:0:0:0:
224,224,49446,1,2,0:0:0:0:
192,192,49622,1,0,0:0:0:0:
192,192,49975,1,2,0:0:0:0:
192,224,50152,1,2,0:0:0:0:
192,192,50328,1,0,0:0:0:0:
256,224,50416,1,0,0:0:0:0:
256,224,50504,1,2,0:0:0:0:
256,224,50593,1,2,0:0:0:0:
192,192,50681,1,0,0:0:0:0:
256,224,50857,1,2,0:0:0:0:
192,192,51034,1,0,0:0:0:0:
320,192,51210,1,0,0:0:0:0:
320,192,51387,1,2,0:0:0:0:
320,192,51740,1,0,0:0:0:0:
320,192,51916,1,2,0:0:0:0:
320,256,52004,1,2,0:0:0:0:
224,224,52093,1,0,0:0:0:0:
320,192,52269,1,2,0:0:0:0:
288,192,52446,1,0,0:0:0:0:
256,192,52799,1,2,0:0:0:0:
256,192,52975,1,0,0:0:0:0:
256,160,53063,1,2,0:0:0:0:
224,128,53152,1,0,0:0:0:0:
256,192,53328,1,2,0:0:0:0:
352,224,53504,1,0,0:0:0:0:
352,224,53593,1,2,0:0:0:0:
352,224,53681,1,0,0:0:0:0:
352,224,53769,1,0,0:0:0:0:
352,224,53857,1,2,0:0:0:0:
160,192,54034,1,0,0:0:0:0:
256,192,54210,1,2,0:0:0:0:
288,224,54563,1,0,0:0:0:0:
288,256,54740,1,2,0:0:0:0:
320,256,54828,1,0,0:0:0:0:
416,256,54916,1,2,0:0:0:0:
288,256,55093,1,2,0:0:0:0:
256,224,55269,1,0,0:0:0:0:
352,256,55446,1,0,0:0:0:0:
256,224,55534,1,2,0:0:0:0:
320,224,55622,1,0,0:0:0:0:
256,224,55799,1,2,0:0:0:0:
288,224,55975,1,0,0:0:0:0:
96,192,56152,1,2,0:0:0:0:
128,192,56681,5,4,0:0:0:0:
320,224,56858,1,2,0:0:0:0:
320,224,57210,1,2,0:0:0:0:
320,224,57563,1,2,0:0:0:0:
320,224,57828,1,0,0:0:0:0:
320,224,57916,1,2,0:0:0:0:
320,224,58093,1,0,0:0:0:0:
320,224,58269,1,2,0:0:0:0:
320,224,58622,1,2,0:0:0:0:
256,256,58799,1,0,0:0:0:0:
256,256,58975,1,2,0:0:0:0:
256,256,59152,1,0,0:0:0:0:
256,256,59240,1,0,0:0:0:0:
256,256,59328,1,2,0:0:0:0:
128,192,59505,1,0,0:0:0:0:
320,224,59682,1,2,0:0:0:0:
320,224,60034,1,2,0:0:0:0:
320,224,60387,1,2,0:0:0:0:
320,224,60652,1,0,0:0:0:0:
320,224,60740,1,2,0:0:0:0:
320,224,60917,1,0,0:0:0:0:
320,224,61093,1,2,0:0:0:0:
320,224,61446,1,2,0:0:0:0:
256,256,61623,1,0,0:0:0:0:
256,256,61799,1,2,0:0:0:0:
256,256,61887,1,2,0:0:0:0:
256,256,61975,1,0,0:0:0:0:
256,256,62152,1,2,0:0:0:0:
128,192,62328,1,0,0:0:0:0:
320,224,62505,1,2,0:0:0:0:
320,224,62857,1,2,0:0:0:0:
320,224,63210,1,2,0:0:0:0:
320,224,63475,1,0,0:0:0:0:
320,224,63563,1,2,0:0:0:0:
320,224,63740,1,0,0:0:0:0:
320,224,63916,1,2,0:0:0:0:
320,224,64269,1,2,0:0:0:0:
256,256,64446,1,0,0:0:0:0:
256,256,64622,1,2,0:0:0:0:
256,256,64799,1,0,0:0:0:0:
256,256,64887,1,0,0:0:0:0:
256,256,64975,1,2,0:0:0:0:
128,192,65152,1,0,0:0:0:0:
320,224,65329,1,2,0:0:0:0:
320,224,65681,1,2,0:0:0:0:
320,224,66034,1,2,0:0:0:0:
320,224,66299,1,0,0:0:0:0:
320,224,66387,1,2,0:0:0:0:
320,224,66564,1,0,0:0:0:0:
320,224,66740,1,2,0:0:0:0:
320,224,67093,1,2,0:0:0:0:
256,256,67269,1,4,0:0:0:0:
128,192,67505,1,4,0:0:0:0:
128,192,67740,1,4,0:0:0:0:
128,192,67975,1,0,0:0:0:0:
192,192,68152,1,0,0:0:0:0:
416,288,68240,1,2,0:0:0:0:
256,192,68416,1,0,0:0:0:0:
224,160,68505,1,2,0:0:0:0:
256,192,68681,1,0,0:0:0:0:
256,192,68858,1,2,0:0:0:0:
192,32,68946,1,0,0:0:0:0:
352,224,69122,1,2,0:0:0:0:
320,224,69210,1,0,0:0:0:0:
416,288,69387,1,0,0:0:0:0:
416,288,69475,1,2,0:0:0:0:
416,288,69563,1,0,0:0:0:0:
416,288,69740,1,2,0:0:0:0:
320,288,70093,1,0,0:0:0:0:
320,288,70269,1,0,0:0:0:0:
224,192,70358,1,0,0:0:0:0:
320,288,70446,1,2,0:0:0:0:
320,224,70622,1,0,0:0:0:0:
128,192,70799,1,2,0:0:0:0:
192,192,70976,1,0,0:0:0:0:
416,288,71064,1,2,0:0:0:0:
224,160,71240,1,2,0:0:0:0:
256,192,71329,1,0,0:0:0:0:
256,192,71505,1,0,0:0:0:0:
256,192,71682,1,2,0:0:0:0:
192,32,71770,1,0,0:0:0:0:
320,224,71946,1,0,0:0:0:0:
352,224,72034,1,2,0:0:0:0:
416,288,72211,1,0,0:0:0:0:
416,288,72299,1,2,0:0:0:0:
416,288,72387,1,0,0:0:0:0:
416,288,72564,1,2,0:0:0:0:
320,288,72917,1,0,0:0:0:0:
320,288,73093,1,0,0:0:0:0:
224,192,73182,1,0,0:0:0:0:
320,288,73270,1,2,0:0:0:0:
320,224,73358,1,2,0:0:0:0:
320,224,73446,1,0,0:0:0:0:
160,128,73623,1,0,0:0:0:0:
192,192,73799,1,0,0:0:0:0:
416,288,73887,1,2,0:0:0:0:
256,192,74063,1,0,0:0:0:0:
224,160,74152,1,2,0:0:0:0:
256,192,74328,1,0,0:0:0:0:
256,192,74505,1,2,0:0:0:0:
192,32,74593,1,0,0:0:0:0:
352,224,74769,1,2,0:0:0:0:
320,224,74857,1,0,0:0:0:0:
416,288,75034,1,0,0:0:0:0:
416,288,75122,1,2,0:0:0:0:
416,288,75210,1,0,0:0:0:0:
416,288,75387,1,2,0:0:0:0:
320,288,75740,1,0,0:0:0:0:
320,288,75916,1,0,0:0:0:0:
224,192,76005,1,0,0:0:0:0:
320,288,76093,1,2,0:0:0:0:
320,224,76269,1,0,0:0:0:0:
128,192,76446,1,2,0:0:0:0:
192,192,76623,1,0,0:0:0:0:
416,288,76711,1,2,0:0:0:0:
224,160,76887,1,2,0:0:0:0:
256,192,76976,1,0,0:0:0:0:
192,160,77063,1,2,0:0:0:0:
256,192,77152,1,0,0:0:0:0:
256,192,77329,1,2,0:0:0:0:
192,32,77417,1,0,0:0:0:0:
320,224,77593,1,0,0:0:0:0:
352,224,77681,1,2,0:0:0:0:
416,288,77858,1,0,0:0:0:0:
416,288,77946,1,2,0:0:0:0:
416,288,78034,1,0,0:0:0:0:
416,288,78211,1,2,0:0:0:0:
320,288,78564,1,0,0:0:0:0:
320,288,78740,1,0,0:0:0:0:
224,192,78829,1,0,0:0:0:0:
320,288,78917,1,2,0:0:0:0:
320,224,79005,1,0,0:0:0:0:
320,224,79093,1,2,0:0:0:0:
160,128,79270,1,4,0:0:0:0:
288,224,79975,1,2,0:0:0:0:
224,192,80681,1,0,0:0:0:0:
320,224,81387,1,2,0:0:0:0:
320,256,82093,1,0,0:0:0:0:
320,256,82622,1,0,0:0:0:0:
320,256,82799,1,2,0:0:0:0:
288,224,83505,1,0,0:0:0:0:
288,224,84210,1,2,0:0:0:0:
288,224,84916,1,0,0:0:0:0:
288,224,85622,1,2,0:0:0:0:
288,224,86328,1,0,0:0:0:0:
288,224,87034,1,2,0:0:0:0:
192,224,87740,1,0,0:0:0:0:
192,224,88446,1,2,0:0:0:0:
256,224,89152,1,4,0:0:0:0:
256,224,89387,1,4,0:0:0:0:
256,224,89622,1,4,0:0:0:0:
256,224,89858,1,4,0:0:0:0:
288,160,90210,1,2,0:0:0:0:
288,160,90299,1,2,0:0:0:0:
288,160,90387,1,2,0:0:0:0:
288,160,90475,1,2,0:0:0:0:
288,160,90563,1,0,0:0:0:0:
256,192,90916,1,2,0:0:0:0:
256,192,91093,1,2,0:0:0:0:
256,192,91181,1,0,0:0:0:0:
256,192,91269,1,0,0:0:0:0:
288,224,91446,1,0,0:0:0:0:
256,192,91622,1,2,0:0:0:0:
256,192,91710,1,0,0:0:0:0:
256,192,91799,1,2,0:0:0:0:
288,224,91975,1,0,0:0:0:0:
288,224,92063,1,2,0:0:0:0:
288,224,92152,1,0,0:0:0:0:
320,256,92240,1,0,0:0:0:0:
288,224,92328,1,2,0:0:0:0:
224,224,92505,1,0,0:0:0:0:
288,224,92593,1,2,0:0:0:0:
224,224,92681,1,0,0:0:0:0:
192,224,92858,1,0,0:0:0:0:
224,224,93034,1,2,0:0:0:0:
224,160,93387,1,0,0:0:0:0:
256,160,93740,1,2,0:0:0:0:
224,64,93916,1,2,0:0:0:0:
224,64,94005,1,2,0:0:0:0:
256,160,94093,1,0,0:0:0:0:
256,128,94269,1,0,0:0:0:0:
384,192,94446,1,2,0:0:0:0:
384,192,94622,1,0,0:0:0:0:
256,224,94710,1,0,0:0:0:0:
224,160,94799,1,2,0:0:0:0:
384,192,94975,1,0,0:0:0:0:
224,160,95152,1,2,0:0:0:0:
352,224,95328,1,0,0:0:0:0:
224,160,95505,1,2,0:0:0:0:
256,192,95593,1,0,0:0:0:0:
256,192,95681,1,0,0:0:0:0:
256,192,95769,1,0,0:0:0:0:
256,192,95858,1,2,0:0:0:0:
256,192,96034,1,0,0:0:0:0:
224,160,96210,1,4,0:0:0:0:
320,288,96563,1,2,0:0:0:0:
320,224,96740,1,2,0:0:0:0:
320,224,96828,1,0,0:0:0:0:
160,224,96916,1,0,0:0:0:0:
320,256,97093,1,0,0:0:0:0:
160,224,97269,1,2,0:0:0:0:
256,224,97358,1,2,0:0:0:0:
256,224,97446,1,0,0:0:0:0:
160,224,97622,1,0,0:0:0:0:
192,160,97710,1,2,0:0:0:0:
192,160,97799,1,0,0:0:0:0:
256,256,97887,1,0,0:0:0:0:
160,224,97975,1,2,0:0:0:0:
320,256,98152,1,0,0:0:0:0:
160,224,98328,1,2,0:0:0:0:
256,224,98505,1,0,0:0:0:0:
256,224,98593,1,0,0:0:0:0:
160,224,98681,1,2,0:0:0:0:
256,224,98769,1,2,0:0:0:0:
288,256,98858,1,0,0:0:0:0:
160,224,99034,1,0,0:0:0:0:
256,224,99387,1,2,0:0:0:0:
320,224,99563,1,2,0:0:0:0:
320,224,99652,1,2,0:0:0:0:
256,224,99740,1,0,0:0:0:0:
160,128,99916,1,0,0:0:0:0:
256,224,100093,1,2,0:0:0:0:
352,192,100181,1,0,0:0:0:0:
224,160,100269,1,2,0:0:0:0:
256,192,100446,1,0,0:0:0:0:
256,192,100534,1,0,0:0:0:0:
256,192,100622,1,2,0:0:0:0:
256,192,100799,1,0,0:0:0:0:
256,192,100975,1,2,0:0:0:0:
224,192,101328,1,2,0:0:0:0:
224,192,101505,1,0,0:0:0:0:
224,192,101593,1,2,0:0:0:0:
224,192,101681,1,0,0:0:0:0:
288,256,101858,1,4,0:0:0:0:
256,192,102210,1,2,0:0:0:0:
256,192,102387,1,2,0:0:0:0:
256,192,102475,1,0,0:0:0:0:
256,192,102563,1,0,0:0:0:0:
288,224,102740,1,0,0:0:0:0:
256,192,102916,1,2,0:0:0:0:
256,192,103004,1,0,0:0:0:0:
256,192,103093,1,2,0:0:0:0:
288,224,103269,1,0,0:0:0:0:
288,224,103357,1,2,0:0:0:0:
288,224,103446,1,0,0:0:0:0:
320,256,103534,1,0,0:0:0:0:
288,224,103622,1,2,0:0:0:0:
224,224,103799,1,0,0:0:0:0:
288,224,103887,1,2,0:0:0:0:
224,224,103975,1,0,0:0:0:0:
192,224,104152,1,0,0:0:0:0:
224,224,104328,1,2,0:0:0:0:
224,160,104681,1,0,0:0:0:0:
256,160,105034,1,2,0:0:0:0:
224,64,105210,1,2,0:0:0:0:
224,64,105299,1,2,0:0:0:0:
256,160,105387,1,0,0:0:0:0:
256,128,105563,1,0,0:0:0:0:
384,192,105740,1,2,0:0:0:0:
384,192,105916,1,0,0:0:0:0:
256,224,106004,1,0,0:0:0:0:
224,160,106093,1,2,0:0:0:0:
384,192,106269,1,0,0:0:0:0:
224,160,106446,1,2,0:0:0:0:
352,224,106622,1,0,0:0:0:0:
224,160,106799,1,2,0:0:0:0:
256,192,106887,1,0,0:0:0:0:
256,192,106975,1,0,0:0:0:0:
256,192,107063,1,0,0:0:0:0:
256,192,107152,1,2,0:0:0:0:
256,192,107328,1,0,0:0:0:0:
224,160,107504,1,4,0:0:0:0:
320,288,107857,1,2,0:0:0:0:
320,224,108034,1,2,0:0:0:0:
320,224,108122,1,0,0:0:0:0:
160,224,108210,1,0,0:0:0:0:
320,256,108387,1,0,0:0:0:0:
160,224,108563,1,2,0:0:0:0:
256,224,108652,1,2,0:0:0:0:
256,224,108740,1,0,0:0:0:0:
160,224,108916,1,4,0:0:0:0:
160,224,109269,1,2,0:0:0:0:
320,256,109446,1,0,0:0:0:0:
160,224,109622,1,2,0:0:0:0:
256,224,109799,1,0,0:0:0:0:
256,224,109887,1,0,0:0:0:0:
160,224,109975,1,2,0:0:0:0:
256,224,110063,1,2,0:0:0:0:
288,256,110152,1,0,0:0:0:0:
160,224,110328,1,4,0:0:0:0:
256,224,110563,1,0,0:0:0:0:
256,224,110681,1,2,0:0:0:0:
128,192,110799,1,0,0:0:0:0:
256,192,111034,1,0,0:0:0:0:
160,128,111210,1,0,0:0:0:0:
256,224,111387,1,2,0:0:0:0:
352,192,111475,1,0,0:0:0:0:
224,160,111563,1,2,0:0:0:0:
256,192,111740,1,0,0:0:0:0:
256,192,111828,1,0,0:0:0:0:
256,192,111916,1,2,0:0:0:0:
384,224,112005,1,0,0:0:0:0:
320,192,112093,1,2,0:0:0:0:
256,192,112269,1,0,0:0:0:0:
224,192,112446,1,0,0:0:0:0:
288,256,112534,1,0,0:0:0:0:
224,192,112622,1,2,0:0:0:0:
288,256,112710,1,0,0:0:0:0:
224,192,112799,1,2,0:0:0:0:
224,192,112916,1,2,0:0:0:0:
160,192,113034,1,2,0:0:0:0:
256,256,113152,1,0,0:0:0:0:
224,224,113858,1,2,0:0:0:0:
224,224,114563,1,0,0:0:0:0:
224,224,114916,1,0,0:0:0:0:
224,224,115269,1,2,0:0:0:0:
96,192,115975,1,0,0:0:0:0:
224,192,116505,1,0,0:0:0:0:
224,192,116681,1,2,0:0:0:0:
224,192,117387,1,0,0:0:0:0:
224,192,117740,1,0,0:0:0:0:
224,192,118093,1,2,0:0:0:0:
128,192,118446,1,2,0:0:0:0:
128,192,118799,1,0,0:0:0:0:
288,192,119505,1,2,0:0:0:0:
288,160,120210,1,0,0:0:0:0:
288,160,120563,1,0,0:0:0:0:
288,160,120916,1,2,0:0:0:0:
288,160,121622,1,0,0:0:0:0:
288,160,122152,1,0,0:0:0:0:
288,160,122328,1,2,0:0:0:0:
256,192,123122,12,0,125858,0:0:0:0:
